#VERSION:0.83;
#TITLE:Better Graphic Animation;
#SUBTITLE:;
#ARTIST:LUZE;
#TITLETRANSLIT:;
#SUBTITLETRANSLIT:;
#ARTISTTRANSLIT:;
#GENRE:;
#ORIGIN:;
#TAGS:;
#CREDIT:;
#BANNER:Better Graphic Animation.png;
#BACKGROUND:Better Graphic Animation-bg.png;
#PREVIEWVID:;
#JACKET:;
#CDIMAGE:;
#DISCIMAGE:;
#LYRICSPATH:;
#CDTITLE:;
#MUSIC:Better Graphic Animation.mp3;
#OFFSET:-0.124000;
#SAMPLESTART:22.791000;
#SAMPLELENGTH:12.000000;
#SELECTABLE:YES;
#BPMS:0.000000=180.000000
;
#STOPS:;
#DELAYS:;
#WARPS:;
#TIMESIGNATURES:0.000000=4=4
;
#TICKCOUNTS:0.000000=4
;
#COMBOS:0.000000=1
;
#SPEEDS:0.000000=1.000000=0.000000=0
;
#SCROLLS:0.000000=1.000000
;
#FAKES:;
#LABELS:0.000000=Song Start
;
#BGCHANGES:;
#KEYSOUNDS:;
#ATTACKS:
;

//---------------dance-single - ----------------
#NOTEDATA:;
#CHARTNAME:;
#CHARTHASH:1664870001;
#STEPSTYPE:dance-single;
#BANNER:;
#DESCRIPTION:;
#CHARTSTYLE:;
#DIFFICULTY:Easy;
#METER:8;
#METERF:8.000000;
#LASTSECONDHINT:99.457336;
#RADARVALUES:0.375017,0.597970,0.151086,0.179415,0.000000,278.000000,262.000000,16.000000,19.000000,0.000000,0.000000,0.000000,0.000000,0.000000,0.375017,0.597970,0.151086,0.179415,0.000000,278.000000,262.000000,16.000000,19.000000,0.000000,0.000000,0.000000,0.000000,0.000000;
#CREDIT:demicore;
#NOTES:
0000
0000
0000
0000
,
0000
0000
0000
0000
,
0000
0000
0000
0000
,
0000
0000
0000
0000
,
0000
0000
0000
0000
,
1000
0001
1000
0000
,
0001
0010
0001
0000
,
0101
0000
1001
0000
,
1000
1000
1000
0010
,
0100
0001
1000
0001
,
0100
0000
0010
0000
1000
0001
1000
0000
,
0010
0010
0100
0100
,
0001
0000
1000
0000
0100
1000
0100
0000
,
1000
1000
0010
0100
,
0001
0000
0100
0000
0010
1000
0010
0000
,
0100
0100
0010
0010
,
1000
0001
0100
0000
,
1001
1000
0010
0100
,
0001
0000
1000
0000
0010
0000
0100
0001
,
0100
0001
1000
0100
,
1000
0020
0230
0302
,
1003
0000
0001
0000
0010
0000
0001
0100
,
0001
1000
0010
0100
,
0002
0000
0000
2003
0000
0000
3010
0000
,
0100
0010
0110
0000
,
1000
0000
0000
0001
0000
0000
0010
0000
,
0001
0000
0000
0100
0000
0000
0010
0000
,
1000
0000
0000
0010
0000
0000
0100
0000
,
0010
1000
0001
0010
,
0001
0000
0000
1001
0000
0000
0010
0000
,
0100
0000
0000
0110
0000
0000
0100
0000
,
0001
0000
0000
1001
0000
0000
1000
0000
,
0010
0100
0001
0010
,
2002
0000
0000
0000
,
3003
0000
0000
0000
,
0220
0000
0000
0000
,
0330
0000
0000
1001
,
1000
0000
0010
0000
0100
0000
0001
1000
,
0001
0000
0100
0000
0010
0000
1000
0010
,
1000
0000
0010
0000
0100
0000
0001
0010
,
0001
1000
0010
0100
,
0001
0010
0001
0000
1000
0010
1000
0000
,
0010
0000
1001
0000
,
2000
0000
0000
0000
,
3002
0000
0000
0000
,
0023
0000
0000
0000
,
0032
0000
0000
0000
,
0203
0000
0000
0000
,
0320
0000
0000
0000
,
2030
0000
0000
0000
,
3002
0000
0000
0000
,
0103
0100
0100
0100
,
0001
0001
0001
1000
,
0010
0010
0010
0010
,
0100
0001
1000
0010
,
1000
1000
1000
1000
,
0001
0001
0001
0001
,
0101
0000
1010
0000
,
0110
0000
0000
1001
0000
0000
1010
0000
,
1000
0010
0100
0001
,
1000
0000
0010
0000
0010
0000
0000
0100
,
0001
1000
0010
0100
,
0001
1000
0010
0100
,
0001
0001
1000
1000
,
0010
0100
0100
0001
,
1000
1000
0001
0001
,
2000
0000
3002
0000
,
1003
0001
1000
0001
1000
0001
1000
0001
,
1003
0001
1000
0001
1000
0001
1000
0001
,
1003
0001
1000
0001
1000
0001
1000
0001
,
1003
0001
1000
0001
1000
0001
1000
0001
,
1003
0001
1000
0001
1000
0001
1000
0001
,
1003
0001
1000
0001
1000
0001
1000
0001
,
1003
0001
1000
0001
1000
0001
1000
0001
,
1000
0001
1000
0001
1000
0000
0000
0000
;

//---------------dance-single - ----------------
#NOTEDATA:;
#CHARTNAME:;
#CHARTHASH:2160384546;
#STEPSTYPE:dance-single;
#BANNER:;
#DESCRIPTION:;
#CHARTSTYLE:;
#DIFFICULTY:Medium;
#METER:12;
#METERF:12.000000;
#LASTSECONDHINT:99.457336;
#RADARVALUES:0.532848,1.160765,0.141643,0.198300,0.434372,395.000000,380.000000,15.000000,21.000000,0.000000,0.000000,0.000000,0.000000,0.000000,0.532848,1.160765,0.141643,0.198300,0.434372,395.000000,380.000000,15.000000,21.000000,0.000000,0.000000,0.000000,0.000000,0.000000;
#CREDIT:demicore;
#NOTES:
0000
0000
0000
0000
,
0000
0000
0000
0000
,
0000
0000
0000
0000
,
0000
0000
0000
0000
,
0000
0000
0000
0000
,
1000
0000
1000
0000
0001
0000
0100
0001
,
0010
0000
0010
0000
0001
1000
0100
0000
,
1000
1001
0001
0011
,
1000
0010
0100
0101
,
1000
0001
0010
0000
0001
0100
0010
0000
,
0100
0000
0100
0000
0010
1000
0010
0000
,
0100
0001
0010
0000
0001
1000
0010
0000
,
0100
0000
0100
0000
0010
1000
0001
0000
,
0010
0000
0010
0000
0001
0000
1000
0001
,
0100
0000
0010
0000
1000
0010
0100
0000
,
0001
0101
1000
1010
,
0001
0000
0100
0001
0100
0001
0100
0000
,
0001
0000
1000
0000
0000
0010
0000
0000
0100
0000
0000
0001
0000
0000
0100
0000
,
0010
0000
0100
0000
0000
0001
0000
0000
0010
0000
0000
0001
0000
0000
1000
0000
,
0010
0000
0100
0000
0000
0001
0000
0000
1000
0000
0000
0001
0000
0000
0100
0000
,
0010
1000
0010
0000
0100
0000
0001
0000
,
1000
0000
0010
0000
0000
0100
0000
0000
0010
0000
0000
1000
0000
0000
0010
0000
,
0100
0000
0001
0000
0000
0010
0000
0000
0001
0000
0000
0100
0000
0000
0001
0000
,
0200
0000
0000
0302
0000
0000
2003
0000
,
3010
0010
0100
0100
,
0001
0000
0000
1000
0000
0000
0001
0000
0000
1000
0000
0000
0010
0000
0000
0000
,
0100
0000
0000
0001
0000
0000
0100
0000
0000
0001
0000
0000
1000
0000
0000
0000
,
0010
0000
0000
0100
0000
0000
0010
0000
0000
0100
0000
0000
0001
0000
0000
0000
,
1000
0000
0001
0010
0001
0000
0100
0000
,
0010
0000
0000
1000
0000
0000
0010
0000
0000
1000
0000
0000
0001
0000
0000
0000
,
0100
0000
0000
0001
0000
0000
0100
0000
0000
0001
0000
0000
0010
0000
0000
0000
,
0001
0000
0000
1000
0000
0000
0001
0000
0000
1000
0000
0000
0010
0000
0000
0000
,
0100
0000
0001
0100
0010
0000
0110
0000
,
2000
0000
0000
0000
,
3002
0000
0000
0000
,
0023
0000
0000
0000
,
0032
0000
0000
0103
,
1001
0000
0000
0000
1010
0000
0000
0000
0100
0000
0000
0001
0000
0000
0100
0000
,
0000
0000
0000
0000
1010
0000
0000
0000
1000
0000
0000
0001
0000
0000
0010
0000
,
0000
0000
0000
0000
0101
0000
0000
0000
0001
0000
0000
1000
0000
0000
0010
0000
,
0000
0000
0000
0000
0110
0000
0000
0000
0100
0000
0000
0001
0000
0000
1000
0000
,
0010
0000
0100
0000
0001
1000
0001
1000
,
0001
0000
0110
0000
,
2001
0000
0000
0000
0000
0000
0000
3020
,
0000
0000
0000
0000
,
0230
0000
0000
0000
0000
0000
0000
0302
,
0000
0000
0203
0000
,
0320
0000
0000
0000
0000
0000
0000
2030
,
0000
0000
0000
0000
,
3200
0000
0000
0320
0000
0000
0032
0000
,
2003
0000
0002
3003
,
0100
0100
0100
0100
,
0001
0001
0001
1000
,
0010
0010
0010
0010
,
1000
0001
0010
0001
,
0100
0100
0100
0100
,
0001
0001
0001
0001
,
1000
0001
1000
0000
0010
0100
0010
0000
,
0100
0000
0001
1000
0001
1000
0001
0000
,
0100
0000
0001
0000
0000
1000
0000
0000
0010
0000
0000
0100
0000
0000
0010
0000
,
1000
0010
0100
0000
0001
0010
0000
0001
,
0100
0000
0001
0000
0000
1000
0000
0000
0010
0000
0000
0100
0000
0000
0010
0000
,
0100
0002
2003
3001
,
0100
0000
0001
0000
0000
1000
0000
0000
0010
0000
0000
1000
0000
0000
0001
0000
,
0000
1000
0000
0010
0100
0000
0001
1000
,
0001
0001
1000
1000
,
0110
0000
1001
0000
,
0001
1000
0001
1000
0001
1000
0001
1000
0001
1000
0001
1000
0001
1000
0001
1000
,
0001
1000
0001
1000
0001
1000
0001
1000
0001
1000
0001
1000
0001
1000
0001
1000
,
0001
1000
0001
1000
0001
1000
0001
1000
0001
1000
0001
1000
0001
1000
0001
1000
,
0001
1000
0001
1000
0001
1000
0001
1000
0001
1000
0001
1000
0001
1000
0001
1000
,
0001
1000
0001
1000
0001
1000
0001
1000
0001
1000
0001
1000
0001
1000
0001
1000
,
0001
1000
0001
1000
0001
1000
0001
1000
0001
1000
0001
1000
0001
1000
0001
1000
,
0001
1000
0001
1000
0001
1000
0001
1000
0001
1000
0001
1000
0001
1000
0001
1000
,
0001
1000
0001
1000
0001
1000
0001
1000
0001
0000
0000
0000
0000
0000
0000
0000
;

//---------------dance-single - ----------------
#NOTEDATA:;
#CHARTNAME:;
#CHARTHASH:2073855846;
#STEPSTYPE:dance-single;
#BANNER:;
#DESCRIPTION:;
#CHARTSTYLE:;
#DIFFICULTY:Hard;
#METER:15;
#METERF:15.000000;
#LASTSECONDHINT:99.457336;
#RADARVALUES:0.654256,1.160765,0.226629,0.302172,0.462701,485.000000,461.000000,24.000000,32.000000,0.000000,0.000000,0.000000,0.000000,0.000000,0.654256,1.160765,0.226629,0.302172,0.462701,485.000000,461.000000,24.000000,32.000000,0.000000,0.000000,0.000000,0.000000,0.000000;
#CREDIT:demicore;
#NOTES:
0000
0000
0000
0000
,
0000
0000
0000
0000
,
0000
0000
0000
0000
,
0000
0000
0000
0000
,
0000
0000
0000
0000
,
0000
0000
0000
0000
,
0000
0000
0000
0000
,
0000
0000
0000
0000
,
0000
0000
0000
0000
,
1000
0001
0100
0001
0010
0100
1000
0010
,
0100
0000
0001
0000
0010
0000
0001
0000
1000
0001
0010
0001
0100
0000
0000
0000
,
0010
0010
1000
0010
0100
0001
0010
0001
,
1000
0000
1000
0000
0010
0000
0010
0000
0100
0001
0100
0001
0010
0000
0010
0000
,
0001
0100
0010
1000
0001
0010
0001
0001
,
0100
0000
0100
0000
0001
0000
1000
0000
0010
0100
0010
0100
0010
0000
0000
0000
,
1000
0010
0000
0000
0100
0000
0000
0000
0010
1000
0000
0000
0001
0000
0000
0000
,
1001
0000
0001
0010
0001
0100
0001
0000
,
1000
0100
0010
0001
0100
0010
1000
0010
,
0100
0001
0010
0001
1000
0100
0010
0100
,
1000
0001
0010
0001
0100
0001
1000
0010
,
0100
1010
1001
0011
,
1000
0001
0010
0001
0010
0100
1000
0010
,
1000
0001
0010
0001
0100
0010
1000
0001
,
0020
0000
0031
2000
0000
3001
0200
0000
,
0320
1030
0002
1003
,
0001
0000
0000
0001
0000
0000
0100
0000
0000
0100
0000
0000
0010
0000
1000
0000
,
0001
0000
0000
0001
0000
0000
1000
0000
0000
1000
0000
0000
0001
0000
0100
0000
,
0010
0000
0000
0010
0000
0000
0100
0000
0000
0100
0000
0000
0010
0000
1000
0000
,
0001
0000
0010
0000
0001
0000
0100
0001
0000
0000
1000
0000
0010
0000
0100
0000
,
0010
0000
0000
1000
0000
0000
0001
0000
0000
0010
0000
0000
0001
0000
1000
0000
,
0010
0000
0000
0010
0000
0000
1000
0000
0000
0100
0000
0000
1000
0000
0001
0000
,
0010
0000
0000
0001
0000
0000
0010
0000
0000
0100
0000
0000
1000
0000
0001
0000
,
0100
0001
1000
0010
0100
0001
0010
0000
,
0000
0000
0100
0000
0000
0100
0000
0000
0100
0000
0000
0100
0000
0000
0100
0000
,
0000
0000
0001
0000
0000
0001
0000
0000
0001
0000
0000
0001
0000
0000
0001
0000
,
0000
0000
1000
0000
0000
1000
0000
0000
1000
0000
0000
1000
0000
0000
1000
0000
,
0000
0000
0010
0000
0000
0010
0000
0000
0010
0000
0000
0000
1001
0000
0000
0000
,
1000
0000
0010
0000
0100
0001
0000
0000
0011
0000
0000
0001
0010
0000
0001
0000
,
1000
0000
0010
0000
0100
0010
0000
0000
1010
0000
0000
0001
0100
0000
0010
0000
,
1000
0000
0100
0000
0010
0001
0000
0000
1010
0000
0000
0001
0100
0000
0010
0000
,
1000
0000
0001
0000
0010
0001
0000
0000
0110
0000
0000
0100
0001
0000
0000
0000
,
1000
0000
0010
0000
0100
0000
0010
0000
1000
0000
0001
0010
0001
0000
0100
0010
,
0100
0010
1001
0011
,
2001
0000
0000
0000
0000
0000
0000
3020
,
0000
0000
0000
0230
,
0302
0000
0000
0000
0000
0000
0000
0023
,
0000
0230
0302
0203
,
0320
0000
0000
0000
0000
0000
0000
0032
,
0000
0000
0000
0000
,
2003
0000
3001
0200
0000
0310
2000
0000
,
3002
0013
0200
0310
,
2000
0010
0000
0001
0000
0100
0000
3002
,
0000
0010
0000
0100
0000
1000
2003
0000
,
3020
0100
0000
0001
0000
1000
0000
0230
,
0000
0001
0302
0000
0023
0000
0230
0000
,
2300
0001
0000
0010
0000
0100
0000
3020
,
0000
0100
0000
0001
0000
1000
0000
0100
,
0130
0000
0001
0100
0000
0010
1000
0000
,
0100
0010
0001
1000
0010
0100
0001
0000
,
1010
1000
0001
0100
0010
1000
0001
0010
,
0001
0100
0101
0000
1010
1010
0000
1000
,
0001
0010
0001
0100
0010
1000
0100
0010
,
0001
0100
0110
0000
1010
0000
0101
0000
,
0011
0001
1000
0100
0010
0001
0100
0110
,
0000
1010
0000
1001
1001
0000
0100
0010
,
1000
0001
0010
0001
1000
0100
0010
0001
,
0200
0000
0320
0000
,
1030
0100
0010
0001
1000
0100
0010
0001
1000
0100
0010
0001
1000
0100
0010
0001
,
1000
0100
0010
0001
1000
0100
0010
0001
1000
0100
0010
0001
1000
0100
0010
0001
,
1000
0100
0010
0001
1000
0100
0010
0001
1000
0100
0010
0001
1000
0100
0010
0001
,
1000
0100
0010
0001
1000
0100
0010
0001
1000
0100
0010
0001
1000
0100
0010
0001
,
1000
0100
0010
0001
1000
0100
0010
0001
1000
0100
0010
0001
1000
0100
0010
0001
,
1000
0100
0010
0001
1000
0100
0010
0001
1000
0100
0010
0001
1000
0100
0010
0001
,
1000
0100
0010
0001
1000
0100
0010
0001
1000
0100
0010
0001
1000
0100
0010
0001
,
1000
0100
0010
0001
1000
0100
0010
0001
1000
0000
0000
0000
0000
0000
0000
0000
;

//---------------dance-single - demicore----------------
#NOTEDATA:;
#CHARTNAME:demicore;
#CHARTHASH:2691020842;
#STEPSTYPE:dance-single;
#BANNER:;
#DESCRIPTION:demicore;
#CHARTSTYLE:;
#DIFFICULTY:Challenge;
#METER:17;
#METERF:0.000000;
#LASTSECONDHINT:99.457336;
#RADARVALUES:0.810738,1.160765,0.292729,0.283286,0.887630,601.000000,570.000000,31.000000,30.000000,0.000000,0.000000,0.000000,0.000000,0.000000,0.810738,1.160765,0.292729,0.283286,0.887630,601.000000,570.000000,31.000000,30.000000,0.000000,0.000000,0.000000,0.000000,0.000000;
#CREDIT:demicore;
#DISPLAYBPM:*;
#NOTES:
0000
0000
0000
0000
,
0000
0000
0000
0000
,
0000
0000
0000
0000
,
0000
0000
0000
0000
,
0000
0000
0000
0000
,
1000
0000
0000
0000
0001
0000
0000
0000
0100
0000
0000
0001
1000
0000
0010
0000
,
1000
0000
0000
0000
0001
0000
0000
0000
0100
0001
0100
0001
0100
0000
0000
0000
,
0010
1000
0000
0000
1001
0000
0000
0000
0100
0001
0000
0000
0101
0000
0000
0000
,
1000
0010
0001
1000
0100
0001
0010
0000
,
0001
0000
0100
0000
0001
0000
0100
0000
0010
0000
1000
0001
0100
0000
0010
0000
,
1000
0000
0100
0000
1000
0000
0001
0000
0100
0001
0100
0001
0010
0000
0001
0000
,
2000
0000
0010
0000
3010
0000
0000
0000
0001
0000
0100
0010
1000
0000
0000
0000
,
0001
0000
0001
0000
0100
0000
0100
0000
0010
1000
0001
0010
0001
0000
0001
0000
,
1000
0000
0010
0000
0100
0000
0001
0000
1000
0000
0010
1000
0010
0000
0100
0000
,
0001
0000
0001
0000
1000
0000
1000
0000
0010
0100
0010
0100
0001
0000
0000
0000
,
1000
0010
0000
0000
0101
0000
0000
0000
1000
0001
0000
0000
1010
0000
0000
0000
,
0200
0000
0001
0001
0001
0001
0301
0000
,
1000
0010
0100
0000
0001
0100
0000
0001
1000
0000
0010
1000
0000
0001
1000
0000
,
0010
0100
0001
0000
1000
0100
0000
1000
0001
0000
0100
0010
0000
0100
0001
0000
,
0010
0001
1000
0000
0010
0100
0000
0010
1000
0000
0001
0010
0000
0001
1000
0000
,
0010
1000
0100
0000
1000
0010
0000
1000
0001
0000
0010
0001
0000
0100
0010
0000
,
0100
0001
0010
0000
1000
0100
0000
0010
0001
0000
1000
0010
0000
0100
0010
0000
,
1000
0001
0010
0000
0001
0100
0000
0010
0100
0000
0010
1000
0000
0001
1000
0000
,
0002
0000
1003
0020
0000
0130
0002
0000
,
0203
0001
0320
1000
,
1030
0100
0000
1000
0010
0000
1000
0001
0000
1000
0100
0000
1000
0000
0001
0000
,
0100
0010
0000
0100
1000
0000
0100
0001
0000
0100
0010
0000
1000
0000
1000
0000
,
0001
0010
0000
0001
1000
0000
0001
0010
0000
0001
0100
0000
0010
0000
0100
0000
,
0001
0010
0001
0000
1000
0000
0010
0200
0000
0000
0301
0000
1000
0000
0010
0000
,
0100
0001
0000
0001
1000
0000
0010
0100
0000
0100
0001
0000
1000
0000
0010
0000
,
0100
0001
0000
0001
0010
0000
0001
0100
0000
0100
0010
0000
1000
0000
0001
0000
,
0100
0010
0000
0100
0001
0000
1000
0010
0000
0100
0010
0000
1000
0000
0001
0000
,
0010
0001
0100
0000
0010
0000
1000
0200
0300
0000
1000
0001
1000
0000
0000
0000
,
2000
0000
0010
0000
0000
0010
0000
0000
0001
0000
0000
0100
0000
0000
0010
0000
,
3002
0000
0100
0000
0000
0100
0000
0000
1000
0000
0000
0010
0000
0000
0100
0000
,
0203
0000
0010
0000
0000
0001
0000
0000
1000
0000
0000
0010
0000
0000
0001
0000
,
0320
0000
1000
0000
0000
0001
0000
0000
0130
0000
0000
1000
0001
0000
0000
0000
,
1010
0000
1000
0000
0001
0100
0000
0000
0110
0000
0000
0100
0001
0000
1000
0000
,
0110
0000
0100
0000
0001
0010
0000
0000
1010
0000
0000
1000
0010
0000
0100
0000
,
0011
0000
0001
0000
1000
0010
0000
0000
0101
0000
0000
0010
0001
0000
1000
0000
,
1010
0000
0010
0000
0100
0010
0000
0000
1100
0000
0000
0001
0010
0000
0000
0000
,
0101
0000
0100
0000
0010
1000
0001
0100
0010
0000
1000
0001
0010
0000
0001
0100
,
0010
0000
0000
0000
1001
0000
0000
0000
0100
0001
0100
0001
0100
0000
0000
0000
,
1002
0000
0000
0000
0000
0000
0000
0203
,
0000
0000
0000
0302
,
2003
0000
0000
0000
0000
0000
0000
3002
,
0000
0023
0032
2003
,
3200
0000
0000
0000
0000
0000
0000
2300
,
0000
0000
0000
0000
,
3020
0000
0000
0230
0000
0000
0302
0000
,
2003
0000
3002
0000
,
0103
0010
0000
1000
0000
0010
0000
0100
,
0001
0010
0000
0001
0000
1000
0010
0100
,
0001
1000
0000
0010
0000
0100
0001
0010
,
0000
0001
1000
0000
1010
0000
1001
0000
,
0011
0000
0100
0000
0000
0001
0000
0000
1001
0000
0000
0010
0000
0000
0100
0000
,
0001
0000
0010
0000
0000
0001
0000
0000
1010
0000
0000
1000
0000
0000
0001
0000
,
0100
0010
0000
0000
0101
0000
0000
0000
0010
1000
0000
0000
0110
0000
0000
0000
,
1000
0010
0001
0010
1000
0001
0010
0000
,
0001
0100
0010
0000
1000
0010
0000
0100
0001
0000
0100
0010
0000
0000
1001
0000
,
0000
0000
0100
0001
0010
0000
0000
0000
0101
0000
1010
0000
0000
0000
0110
0000
,
1001
0000
0010
0000
0100
0001
0000
1000
0010
0000
1000
0001
0000
0100
0010
0000
,
1000
0010
0100
0000
0001
0010
0000
0100
1000
0000
0010
1000
0000
0001
0100
0000
,
0010
1000
0100
0000
1000
0010
0000
1000
0001
0000
0010
0001
0000
0000
1001
0000
,
0000
0000
1010
0000
0000
0000
0101
0000
1001
0000
0000
0000
1000
0100
0010
0001
,
1000
0100
1000
0100
1000
0000
0001
0100
0001
0100
0001
0000
1000
0010
0100
0000
,
0002
0000
2003
0000
,
3010
0010
0010
0010
0010
0010
0010
0010
0010
0010
0010
0010
0010
0010
0010
0010
,
0010
0010
0010
0010
0010
0010
0010
0010
0010
0010
0010
0010
0010
0010
0010
0010
,
0010
0010
0010
0010
0010
0010
0010
0010
0010
0010
0010
0010
0010
0010
0010
0010
,
0010
0010
0010
0010
0010
0010
0010
0010
0010
0010
0010
0010
0010
0010
0010
0010
,
0010
0010
0010
0010
0010
0010
0010
0010
0010
0010
0010
0010
0010
0010
0010
0010
,
0010
0010
0010
0010
0010
0010
0010
0010
0010
0010
0010
0010
0010
0010
0010
0010
,
0010
0010
0010
0010
0010
0010
0010
0010
0010
0010
0010
0010
0010
0010
0010
0010
,
0010
0010
0010
0010
0010
0010
0010
0010
0010
0000
0000
0000
0000
0000
0000
0000
;

//---------------dance-single - ----------------
#NOTEDATA:;
#CHARTNAME:;
#CHARTHASH:2119180525;
#STEPSTYPE:dance-single;
#BANNER:;
#DESCRIPTION:;
#CHARTSTYLE:;
#DIFFICULTY:Beginner;
#METER:4;
#METERF:4.000000;
#LASTSECONDHINT:0.124000;
#RADARVALUES:0.210441,0.316572,0.113314,0.047214,0.000000,156.000000,144.000000,12.000000,5.000000,0.000000,0.000000,0.000000,0.000000,0.000000,0.210441,0.316572,0.113314,0.047214,0.000000,156.000000,144.000000,12.000000,5.000000,0.000000,0.000000,0.000000,0.000000,0.000000;
#CREDIT:demicore;
#NOTES:
// measure 0
0000
0000
0000
0000
,  // measure 1
0000
0000
0000
0000
,  // measure 2
0000
0000
0000
0000
,  // measure 3
0000
0000
0000
0000
,  // measure 4
0000
0000
0000
0000
,  // measure 5
1000
0000
1000
0000
,  // measure 6
0001
0000
0001
0000
,  // measure 7
0100
0000
0010
0000
,  // measure 8
1000
0000
0001
0000
,  // measure 9
1001
0000
1000
0000
,  // measure 10
0001
0000
0010
0000
,  // measure 11
0001
0000
0100
0000
,  // measure 12
0010
0010
0010
0000
,  // measure 13
1000
0000
0001
0000
,  // measure 14
0010
0000
0001
0000
,  // measure 15
0101
0000
0001
0000
,  // measure 16
1001
0000
0110
0000
,  // measure 17
1000
0010
1000
0000
,  // measure 18
0001
0100
0001
0000
,  // measure 19
1000
0001
1000
0000
,  // measure 20
0010
0000
0010
0000
,  // measure 21
0100
0001
0100
0000
,  // measure 22
0001
1000
0001
0000
,  // measure 23
0100
0000
0100
0000
,  // measure 24
0010
0000
0010
0000
,  // measure 25
1000
0000
1000
0000
,  // measure 26
0001
0000
0001
0000
,  // measure 27
0010
0000
0010
0000
,  // measure 28
0001
0000
0100
0000
,  // measure 29
0010
0000
0010
0000
,  // measure 30
1000
0000
1000
0000
,  // measure 31
0100
0000
0100
0000
,  // measure 32
0010
0000
0001
0000
,  // measure 33
2000
0000
0000
0000
,  // measure 34
0000
0000
0000
0000
,  // measure 35
0000
0000
0000
0000
,  // measure 36
0000
0000
0000
3000
,  // measure 37
0001
0001
0001
0000
,  // measure 38
0100
0100
0100
0000
,  // measure 39
0010
0010
0010
0000
,  // measure 40
1000
1000
1000
0000
,  // measure 41
0110
0000
0000
0000
,  // measure 42
1001
0000
0000
0000
,  // measure 43
2002
0000
0000
0000
,  // measure 44
0000
0000
0000
0000
,  // measure 45
0000
0000
0000
0000
,  // measure 46
0000
0000
3003
0000
,  // measure 47
0220
0000
0000
0000
,  // measure 48
0000
0000
0000
0000
,  // measure 49
0000
0000
0000
0000
,  // measure 50
0000
0000
0330
0000
,  // measure 51
1000
0000
0010
0000
,  // measure 52
1000
0000
0001
0000
,  // measure 53
0010
0000
0001
0000
,  // measure 54
0100
0000
0010
0000
,  // measure 55
1000
0000
0001
0000
,  // measure 56
0100
0000
0001
0000
,  // measure 57
1001
0000
0000
0000
,  // measure 58
0110
0000
0000
0000
,  // measure 59
1000
0010
1000
0000
,  // measure 60
0001
0001
0001
0000
,  // measure 61
0100
0010
1000
0000
,  // measure 62
0001
0100
0010
0000
,  // measure 63
1000
0001
1000
0000
,  // measure 64
0010
0000
0110
0000
,  // measure 65
1000
0000
0001
0000
,  // measure 66
1001
0000
0000
0000
,  // measure 67
1000
0001
1000
0001
,  // measure 68
1000
0001
1000
0001
,  // measure 69
1000
0001
1000
0001
,  // measure 70
1000
0001
1000
0001
,  // measure 71
1000
0001
1000
0001
,  // measure 72
1000
0001
1000
0001
,  // measure 73
1000
0001
1000
0001
,  // measure 74
1000
0001
1000
0000
;
