#TITLE:ANiMA;
#SUBTITLE:;
#ARTIST:xi;
#TITLETRANSLIT:;
#SUBTITLETRANSLIT:;
#ARTISTTRANSLIT:;
#GENRE:;
#CREDIT:;
#MUSIC:ANiMA.mp3;
#BANNER:anima-bn.png;
#BACKGROUND:anima-bg.png;
#CDTITLE:;
#SAMPLESTART:22.914;
#SAMPLELENGTH:13.733;
#SELECTABLE:YES;
#OFFSET:-0.026;
#BPMS:0.000=183.500;
#STOPS:;
#BGCHANGES:;
#FGCHANGES:;

//--------------- dance-single - demicore ----------------
#NOTES:
     dance-single:
     demicore:
     Challenge:
     18:
     0,0,0,0,0:
0000
0000
0000
0000
,
0000
0000
0000
0000
,
0000
0000
0000
0000
,
0000
0000
0000
0000
,
0000
0000
0000
0000
,
0000
0000
0000
0000
,
0000
0000
0000
0000
,
0000
0000
0000
0000
,
0000
0000
0000
0000
,
2001
0010
0000
0010
0000
3010
0100
0001
,
0020
0100
0000
0100
0000
0130
1000
0001
,
0201
0310
0020
1030
,
2001
0000
3010
0100
0102
0003
2010
3000
,
1200
0300
0010
0001
0100
0010
1000
0001
,
0201
0000
0300
0000
0010
0000
1000
0000
0200
0000
0300
0000
0010
0001
0100
0001
,
0010
0000
0000
0000
0001
1000
0100
1000
0010
0100
0001
0010
0100
1000
0010
0100
,
0002
1000
0010
0103
,
1001
0000
0110
1010
,
0101
0000
0001
0010
0100
0000
0110
0000
0010
0100
1000
0000
1010
0000
0010
1000
,
0100
0000
1100
0000
1000
0001
0010
0000
0002
0000
0100
0000
2003
0000
0010
0000
,
3001
0000
0100
0010
1000
0000
1010
0000
0010
0100
0001
0000
0101
0000
0100
0010
,
1000
0010
0100
0000
0001
0000
1000
0100
0010
0000
0001
0100
0010
0000
1000
0001
,
0100
0000
0010
1000
0100
0000
1100
0000
1000
0001
0100
0000
0110
0000
0010
1000
,
0001
0000
1001
0000
1000
0010
0100
0000
0002
0000
0010
0000
2003
0000
0100
0000
,
3001
0000
0010
0001
0100
0000
0110
0000
0010
1000
0001
0000
1000
0010
0100
0010
,
1000
0000
0001
0000
0101
0000
0100
0000
0110
0000
0010
1000
0001
0010
0100
1000
,
0002
0000
0003
1000
0020
0000
0030
0100
0002
0000
0003
1000
0010
0100
0010
1000
,
0100
0000
0000
1000
0010
0001
0010
0000
0200
0000
0000
0000
0301
0000
1000
0010
,
0200
0000
0300
0001
1000
0100
0010
0100
1000
0000
0001
0100
0010
0000
1000
0001
,
0020
0000
0030
0000
0001
1000
0100
1000
0010
0100
1000
0100
0001
1000
0010
0100
,
0001
0000
1000
0010
0100
0000
0001
1000
0010
0000
0100
0001
0010
0100
1000
0010
,
0100
0000
0001
1000
0010
0000
0100
0001
0010
0000
0001
1000
0100
1000
0010
0100
,
0002
0000
0003
0000
1000
0001
0010
0100
2000
0000
3000
0001
0020
0000
0030
0001
,
0100
0000
0010
1000
0010
0100
0001
0010
0100
0000
1000
0010
0100
0000
0001
1000
,
0100
0000
0000
1000
0100
0010
0001
0100
1000
0001
0010
1000
,
0001
0000
1000
0010
0100
0000
0010
0000
0110
0000
0000
0000
1001
0000
0000
0000
,
1000
0000
0001
0010
0001
1000
0100
0010
0001
0000
0100
0010
1000
0001
0010
0100
,
1000
0000
0001
0100
0010
1000
0001
1000
0010
0000
0000
0000
1001
0000
0000
0000
,
0110
0000
0000
1000
0010
0100
1000
0001
0010
0100
0001
1000
,
0100
0000
1000
0010
0100
0000
0001
0000
0101
0000
0000
0000
1001
0000
1000
0000
,
0110
0000
0010
1000
0100
0010
0001
0100
0010
0000
1000
0001
0010
0001
1000
0100
,
0010
0000
0001
1000
0100
1000
0001
1000
0100
0000
0000
0000
1100
0000
0000
0000
,
0101
0000
0000
0000
0000
0000
0000
0000
0000
0000
0000
0000
0001
0000
0000
0000
1000
0000
0000
0000
0010
0000
0000
0000
1010
0000
0000
0000
0000
0000
0000
0000
0000
0000
0000
0000
1000
0000
0000
0000
0000
0000
0001
0000
0000
0010
0000
0000
,
0100
0000
1000
0010
0100
0000
0001
1000
0100
0000
0010
0001
0100
0000
0010
1000
,
0100
0000
0000
0000
0000
0000
0000
0000
0000
0000
0000
0000
0010
0000
0000
0000
0001
0000
0000
0000
0100
0000
0000
0000
0101
0000
0000
0000
0000
0000
0000
0000
0000
0000
0000
0000
0001
0000
0000
0000
0000
0000
1000
0000
0000
0100
0000
0000
,
0010
0000
0100
1000
0010
0000
0100
0001
0010
0000
0001
1000
0010
0000
1000
0100
,
0010
0000
0001
1000
0010
1000
0100
0010
0002
0000
0003
1000
0100
0000
0010
0001
,
0100
0000
0010
1000
0001
0000
1000
0010
0100
0000
0001
1000
0100
0000
0010
0001
,
1000
1000
0001
0001
0010
0010
0100
0100
,
1000
0000
0001
0100
0010
0000
1000
0000
0001
1000
0100
1000
0010
0100
0001
0010
,
0200
0000
0300
0000
1000
0010
1000
0010
0100
0001
0010
0100
1000
0001
0100
0000
,
0010
1000
0010
0100
0001
0010
0100
1000
0001
0100
0010
1000
0100
0010
0001
0000
,
1001
0000
0000
0000
1000
0010
0100
0010
1000
0001
0010
0100
1000
0001
0010
0000
,
0001
1000
0100
1000
0010
0100
0001
0100
0010
1000
0100
0010
0001
0100
0010
1000
,
0200
0000
0300
0000
1000
0010
1000
0010
0200
0000
0302
0000
0023
0000
0230
0000
,
2300
3002
0203
0320
2030
3002
0023
0230
,
1300
0000
0000
0000
0001
1000
0100
1000
0020
0000
0230
0000
0302
0000
2003
0000
,
3020
0230
2300
3002
0023
2030
3200
0320
,
0031
0100
0001
0010
0001
1000
0001
0100
0020
0000
0000
0000
0030
0000
0000
0000
,
1000
0100
1000
0010
1000
0001
1000
0100
0020
0000
0000
0000
0030
0000
0000
0000
,
0001
1000
0100
1000
0010
0100
0001
0010
0200
0000
0000
0000
2300
0000
0000
0000
,
3001
0100
0001
1000
0100
0010
0100
1000
0002
0000
0000
0000
0203
0000
0000
0000
,
0310
0000
0000
0000
1000
0000
0001
0000
0101
0000
0000
0000
1000
0010
0100
0000
,
0002
0010
0203
0010
0302
0100
2003
0100
,
3010
0000
0000
0000
0100
0000
0010
0000
1010
0000
0000
0000
1000
0001
0100
0000
,
0002
0010
2003
0100
3020
0100
2030
0001
,
3010
0100
0001
1000
0100
0010
0001
0100
0020
0000
0000
0000
0030
0000
0000
0000
,
1000
0001
0010
0001
1000
0100
0001
0100
2000
0000
0000
0000
3000
0000
0000
0000
,
0001
0100
0010
1000
0100
1000
0001
0010
0200
0000
0000
0000
2300
0000
0000
0000
,
3010
0000
0100
0001
0010
0000
0001
1000
0100
0000
1000
0010
0100
0000
0001
1000
,
0010
0000
0110
0000
0100
0001
0010
0000
0011
0000
1001
0000
1000
0010
0100
0000
,
0110
0000
1010
0000
1000
0100
0010
0000
0011
0000
0001
1000
0020
0000
0030
0000
,
1010
0000
1100
0000
0100
0010
0001
0000
0101
0000
0110
0000
0010
1000
0001
0000
,
1001
0000
1010
0000
0010
1000
0100
0000
1100
0000
1000
0001
0010
0000
0001
1000
,
0020
0000
0000
0000
,
0200
0000
0000
0330
,
1001
0000
1000
0000
0010
0000
0100
0001
0010
0000
0100
1000
0001
0100
0010
1000
,
0100
0000
0010
0000
0001
0000
1000
0010
0100
0000
0001
1000
0100
1000
0010
0100
,
0001
0000
0000
1000
0000
0000
0010
0000
0100
0000
0001
0000
0100
0000
0000
0000
0011
0000
0000
0000
1001
0000
0000
0000
,
1010
0000
1000
0001
0010
0000
0001
0100
0010
0000
1000
0001
0010
0001
1000
0100
,
0020
0000
0000
0000
0031
0000
1000
0000
0010
0000
0100
0001
0010
0001
1000
0010
,
0100
0000
0001
1000
0100
0000
1000
0010
0100
0000
0001
1000
0100
1000
0010
0100
,
0002
0000
0003
0000
1000
0010
0100
0001
2000
0000
3000
0000
1020
0000
0030
0000
,
0100
0001
0010
0100
1000
0010
0100
0001
1000
0100
0010
0100
1000
0001
0100
0010
,
2000
0000
3000
0000
0001
1000
0100
0010
0200
0000
1300
0001
0100
0010
1000
0020
,
0200
0000
0000
0000
,
0000
0000
0000
0000
,
0330
0000
0000
0000
;
