#TITLE:ANNIHILATION;
#SUBTITLE:;
#ARTIST:Wire Wolf;
#TITLETRANSLIT:;
#SUBTITLETRANSLIT:;
#ARTISTTRANSLIT:;
#GENRE:;
#CREDIT:;
#MUSIC:ANNIHILATION.mp3;
#BANNER:a-bn.PNG;
#BACKGROUND:a-bg.PNG;
#CDTITLE:;
#SAMPLESTART:37.565;
#SAMPLELENGTH:12.522;
#SELECTABLE:YES;
#OFFSET:0.000;
#BPMS:0.000=230.000;
#STOPS:;
#BGCHANGES:;
#FGCHANGES:;

//--------------- dance-single - demicore ----------------
#NOTES:
     dance-single:
     demicore:
     Beginner:
     5:
     0,0,0,0,0:
0000
0000
0000
0000
,
0000
0000
0000
0000
,
0000
0000
0000
0000
,
0000
0000
0000
0000
,
0002
0000
0000
0000
,
0003
0000
1000
0000
,
0020
0000
0000
0000
,
0030
0000
0100
0000
,
0002
0000
0000
0000
,
0003
0000
1000
0000
,
0200
0000
0000
0000
,
0300
0000
1000
0000
,
0020
0000
0000
0000
,
0030
0000
0101
0000
,
0200
0000
0000
0000
,
0300
0000
1010
0000
,
2000
0000
0000
0000
,
3000
0000
0011
0000
,
0002
0000
0000
0000
,
0003
0000
0101
0000
,
0100
0000
0010
0000
,
1000
0000
0001
0000
,
0010
0000
0001
0000
,
0100
0000
0010
0000
,
1000
0000
0100
0000
,
0010
0000
0001
0000
,
0100
0000
0010
0000
,
1000
0000
0001
0000
,
0010
0000
0001
0000
,
0100
0000
0100
0000
,
0010
0000
1000
0000
,
0100
0000
0100
0000
,
0010
0000
0001
0000
,
1000
0000
1000
0000
,
0000
0000
0000
0000
,
0000
0000
0000
0000
,
0001
0000
0100
0000
,
0001
0000
0100
0000
,
0010
0000
1000
0000
,
0001
0010
0001
0000
,
1000
0000
0010
0000
,
1000
0000
0010
0000
,
0100
0000
0010
0000
,
1000
0001
1000
0000
,
0001
0000
0100
0000
,
0010
0000
0100
0000
,
0001
0000
0100
0000
,
0010
1000
0010
0000
,
1000
0000
0100
0000
,
1000
0000
0010
0000
,
1000
0000
0100
0000
,
1000
0001
1000
0000
,
0001
0001
0001
0000
,
0100
0100
0100
0000
,
0010
0010
0010
0000
,
1000
0000
0001
0000
,
1000
1000
1000
0000
,
0010
0010
0010
0000
,
0100
0100
0100
0000
,
0001
0000
0010
0000
,
0001
0100
0001
0000
,
1000
0001
1000
0000
,
0010
0100
0010
0000
,
1000
0000
0001
0000
,
0010
0001
0010
0000
,
0100
1000
0100
0000
,
1000
0010
1000
0000
,
0001
0000
0100
0000
,
0101
0000
0000
0000
,
1010
0000
0000
0000
,
1001
0000
0000
0000
,
0010
0000
0001
0000
,
0101
0000
0000
0000
,
0110
0000
0000
0000
,
1010
0000
0000
0000
,
1000
0000
0001
0000
,
0011
0000
0000
0000
,
1100
0000
0000
0000
,
1010
0000
0000
0000
,
0100
0000
0010
0000
,
0110
0000
0000
0000
,
1100
0000
0000
0000
,
0011
0000
0000
0000
,
1001
0000
0000
0000
,
1000
0010
1000
0000
,
0010
0100
0010
0000
,
0100
0001
0100
0000
,
0002
0000
0003
0000
,
0100
0010
0100
0000
,
0010
1000
0010
0000
,
1000
0001
1000
0000
,
0020
0000
0030
0000
,
0100
0010
0100
0000
,
0001
0100
0001
0000
,
1000
0001
1000
0000
,
0020
0000
0030
0000
,
0100
0001
0100
0000
,
0001
0010
0001
0000
,
1000
0100
1000
0000
,
0002
0000
0003
0000
,
0200
0000
0300
0000
,
0010
0000
1010
0000
,
2000
0000
3000
0000
,
0001
0000
0011
0000
,
0020
0000
0030
0000
,
0001
0000
0101
0000
,
0200
0000
0300
0000
,
0010
0000
1010
0000
,
2000
0000
3000
0000
,
0002
0000
0003
0000
,
0010
0001
0010
0000
,
0001
0100
0001
0000
,
0200
0000
0300
0000
,
0020
0000
0030
0000
,
1000
0100
1000
0000
,
0010
0100
0010
0000
,
2002
0000
0000
0000
,
0000
0000
0000
0000
,
3003
0000
0000
0000
;

//--------------- dance-single - demicore ----------------
#NOTES:
     dance-single:
     demicore:
     Easy:
     9:
     0,0,0,0,0:
0000
0000
0000
0000
,
0000
0000
0000
0000
,
0000
0000
0000
0000
,
0000
0000
0000
0000
,
1000
0000
0001
0000
0000
0100
0000
0100
,
0000
0100
0000
0000
0010
0000
1000
0000
,
0001
0000
0010
0000
0000
0001
0000
0001
,
0000
0001
0000
0000
1000
0000
0010
0000
,
0100
0000
0001
0000
0000
1000
0000
1000
,
0000
1000
0000
0000
0010
0000
0100
0000
,
0001
0000
0010
0000
0000
0100
0000
0100
,
0000
0100
0000
0000
1000
0000
0010
0000
,
1000
0000
0001
0000
0000
0010
0000
0001
,
0000
0010
0000
0000
0001
0000
1000
0000
,
0010
0000
1000
0000
0000
0010
0000
0100
,
0000
0010
0000
0000
0100
0000
0001
0000
,
0010
0000
0001
0000
0000
1000
0000
0010
,
0000
1000
0000
0000
0001
0000
1000
0000
,
0010
0000
0100
0000
0000
0001
0000
1000
,
0000
0001
0000
0000
0100
0000
0010
0000
,
1000
0010
0100
0001
,
0010
0001
1000
0010
,
0100
0100
0010
0010
,
1000
1000
0001
0001
,
0010
0001
0100
0010
,
0100
0001
1000
0010
,
0100
0100
0001
0001
,
0020
0030
0002
0003
,
1000
0010
1000
0001
,
0010
0001
0100
0010
,
1000
1000
0001
0001
,
0100
0100
0010
0010
,
0100
0001
0010
0001
,
1000
0010
0100
0010
,
2000
0000
0000
0000
,
3000
0000
0000
0000
,
0001
0100
0001
0010
,
0001
1000
0001
0100
,
0010
0100
0001
1000
,
0010
0000
0110
0000
,
0100
0001
0010
0001
,
1000
0100
1000
0010
,
0100
0001
1000
0010
,
0100
0000
0101
0000
,
0001
1000
0010
1000
,
0100
0010
0001
0100
,
0010
1000
0001
0100
,
0010
0000
1010
0000
,
1000
0001
0010
0001
,
0100
0010
1000
0001
,
0010
0001
0100
0010
,
1000
0000
1010
0000
,
0001
0100
0001
0010
,
0100
1000
0010
1000
,
0001
0100
0010
1000
,
0002
0003
0200
0300
,
0010
1000
0100
1000
,
0001
0010
0001
0100
,
0010
1000
0010
0100
,
0002
0003
0020
0030
,
0001
1000
0100
1000
,
0010
0100
0001
0100
,
0010
1000
0001
1000
,
0020
0030
0200
0300
,
0001
1000
0010
1000
,
0100
0010
0001
0100
,
0001
1000
0100
1000
,
0020
0030
2000
3000
,
0001
0100
0101
0000
,
0100
0010
1010
0000
,
1000
0001
0011
0000
,
0100
0001
0010
0001
,
1000
0010
0110
0000
,
0001
1000
1001
0000
,
0010
0001
0101
0000
,
0100
0010
1000
0010
,
0100
0001
0011
0000
,
0100
1000
1010
0000
,
0100
0010
0110
0000
,
0100
0001
0010
0001
,
1000
0010
1010
0000
,
0001
0100
0110
0000
,
0100
0001
1001
0000
,
0200
0300
0020
0030
,
1000
1000
0010
0100
,
0001
0001
0010
0001
,
0100
0100
0001
1000
,
0010
0010
0100
0001
,
0010
0010
0001
1000
,
0100
0100
1000
0010
,
0100
0100
0001
0010
,
0001
0001
1000
0010
,
0100
0010
0100
0000
0020
0000
0030
0000
,
1000
0100
1000
0000
0200
0000
0300
0000
,
0010
0001
0010
0000
0002
0000
0003
0000
,
1000
0010
0200
0300
,
0001
1000
0001
0000
0020
0000
0030
0000
,
0001
0100
0001
0000
0020
0000
0030
0000
,
0100
1000
0100
0000
0020
0000
0030
0000
,
0001
0100
0020
0030
,
1000
0000
0001
0000
0000
0010
0000
0001
,
0000
0010
0000
0000
0001
0000
1000
0000
,
0010
0000
0100
0000
0000
0010
0000
1000
,
0000
0010
0000
0000
0100
0000
0001
0000
,
0010
0000
0001
0000
0000
1000
0000
0010
,
0000
1000
0000
0000
0001
0000
0100
0000
,
0010
0000
0100
0000
0000
0001
0000
1000
,
0000
0001
0000
0000
1000
0000
0010
0000
,
0100
0000
0010
0000
0000
0100
0000
0001
,
0000
0010
0000
0000
0001
0000
1000
0000
,
0100
1000
0010
0100
,
0001
1000
0010
1000
,
0001
0000
0010
0000
0000
0001
0000
1000
,
0000
0010
0000
0000
0100
0000
0010
0000
,
1000
0100
0010
0001
,
0100
0010
1000
0020
,
0200
0000
0000
0000
,
0000
0000
0000
0000
,
0330
0000
0000
0000
;

//--------------- dance-single - demicore ----------------
#NOTES:
     dance-single:
     demicore:
     Medium:
     13:
     0,0,0,0,0:
0000
0000
0000
0000
,
0000
0000
0000
0000
,
0000
0000
0000
0000
,
0000
0000
0000
0000
,
0000
0001
1000
0020
0000
0100
0000
0100
,
0000
0100
0030
0100
0001
0000
1000
0000
,
0000
0001
1000
0200
0000
0010
0000
0010
,
0000
0310
0000
0010
0001
0000
1000
0000
,
0000
0010
1000
0002
0000
0100
0000
0100
,
0000
0100
0003
0100
0010
0000
1000
0000
,
0000
0001
0100
0020
0000
1000
0000
1000
,
0000
1030
0000
1000
0001
0000
0100
0000
,
0000
0010
1000
0002
0000
0010
0000
0010
,
0000
0013
0000
0010
0100
0000
1000
0000
,
0000
0001
0010
0200
0000
1000
0000
1000
,
0000
1000
0300
1000
0010
0000
0100
0000
,
0000
0001
1000
0020
0000
0100
0000
0100
,
0000
0130
0000
0100
0001
0000
1000
0000
,
0000
0010
1000
0002
0000
1000
0000
1000
,
0000
1000
0003
1000
0010
0000
0100
0000
,
0001
0100
0010
0200
0000
0001
0000
0001
,
0000
0001
0300
0001
1000
0000
1010
0000
,
0010
0100
0010
0000
0100
0001
0100
0000
,
0001
1000
0001
0000
1000
0010
1000
0000
,
0010
0100
0001
2000
0000
0010
0000
0010
,
0000
0010
3000
0010
0100
0000
0101
0000
,
0001
1000
0001
0000
1000
0100
1000
0000
,
0020
0130
0200
0301
,
0001
1000
0010
0200
0000
0001
0000
0001
,
0000
0001
0300
0001
0010
0000
0011
0000
,
0001
1000
0010
0000
1000
0010
0100
0000
,
0001
1000
0100
0000
1000
0010
0100
0000
,
0001
1000
0100
2000
0000
0001
0000
0001
,
0000
0001
3000
0001
0100
0000
0110
0000
,
0000
0000
0000
0000
,
0200
0320
0230
0320
,
1030
0001
1000
0000
0001
0000
0011
0000
,
0010
0001
0100
0000
0010
0000
1010
0000
,
1000
0100
1000
0000
0001
0000
0101
0000
,
0100
0010
1000
0000
0001
1000
0010
0000
,
0100
0010
0100
0000
0001
0000
1001
0000
,
1000
0010
1000
0000
0010
0000
0110
0000
,
0100
0001
0100
0000
0010
0000
1010
0000
,
2000
3002
0013
0011
,
0001
1000
0100
0000
1000
0000
1010
0000
,
0010
0100
0001
0000
0100
0000
0110
0000
,
0010
1000
0100
0000
1000
0000
1001
0000
,
0002
0203
0310
0110
,
0100
0001
1000
0000
0001
0010
0001
0000
,
0100
0001
0010
0000
0100
1000
0100
0000
,
1000
0000
1010
0000
0010
0100
0001
0100
,
0020
2030
3002
0203
,
0310
1000
0010
1000
0010
0000
0110
0000
,
0100
0001
0100
0001
0100
0000
0011
0000
,
0001
1000
0001
1000
0001
0000
0110
0000
,
0100
0001
0010
0000
0100
1000
0010
0000
,
1000
0001
1000
0001
1000
0000
0110
0000
,
0010
1000
0010
1000
0010
0000
0101
0000
,
0100
0010
0100
0010
0100
0000
1001
0000
,
1000
0001
0010
0001
0100
0000
0010
0000
,
1000
0100
1000
0010
1000
0000
0101
0000
,
0001
0010
0001
1000
0001
0000
0110
0000
,
0100
0010
0100
0001
0100
0000
1001
0000
,
0001
1000
0010
0000
0100
0001
0010
0000
,
0100
1000
0100
0010
0100
0000
1100
0000
,
1000
0010
0001
0010
0100
0000
0101
0000
,
0001
1000
0100
1000
0010
0000
0110
0000
,
0100
0001
0010
0001
1000
0010
0100
0000
,
0010
1010
0100
0101
,
0001
1000
0010
0000
0100
0001
0010
0000
,
0100
1100
1000
1010
,
0020
0001
0100
1030
,
0001
0101
1000
1001
,
0001
0100
0010
0000
1000
0100
0010
0000
,
0001
0101
1000
1010
,
0020
0230
0302
2003
,
3001
0011
1000
1010
,
0010
0100
0001
0000
1000
0001
0010
0000
,
0001
1001
1000
1010
,
0200
1000
0010
0301
,
0010
1010
0100
0101
,
0010
0001
0100
0000
0010
1000
0001
0000
,
0100
0101
0010
0110
,
0000
0000
0000
0000
,
1000
0001
1000
0001
0010
0000
0011
0000
,
0001
0100
0001
0100
0010
0000
1010
0000
,
1000
0100
1000
0100
0010
0000
0011
0000
,
0001
0100
0010
0100
0002
0000
1003
0000
,
0010
0100
0010
0100
0001
0000
0011
0000
,
0010
0100
0010
0100
1000
0000
1010
0000
,
0010
0100
0010
0100
0001
0000
1001
0000
,
1000
0010
0100
0010
2000
0000
3001
0000
,
0010
0001
0100
0001
0010
0000
0011
0000
,
0001
1000
0100
1000
0010
0000
0110
0000
,
0100
0001
1000
0001
0010
0000
0011
0000
,
0001
1000
0010
0000
0100
0010
1000
0000
,
0100
0010
0100
0010
0001
0000
0011
0000
,
0100
0010
0100
0010
1000
0000
1010
0000
,
0100
0010
0100
0010
0001
0000
1001
0000
,
1000
0010
0100
0010
1000
0001
0020
0000
,
0030
0001
0100
0020
0000
1000
0000
1000
,
0000
1000
0030
1000
0001
0000
0011
0000
,
0000
0001
1000
0200
0000
0010
0000
0010
,
0000
0010
0300
0010
0001
0000
1001
0000
,
0000
1000
0001
0020
0000
0001
0000
0001
,
0000
0001
0030
0001
0100
0000
0110
0000
,
0000
0010
1000
0002
0000
0010
0000
0010
,
0000
0010
0003
0010
0100
0000
1100
0000
,
1000
0010
0100
0020
0000
0100
0000
0230
,
0000
0010
0300
0010
1000
0000
1010
0000
,
0001
0100
0001
0000
1000
0001
1000
0000
,
0010
0100
0001
0000
1000
0100
0010
0000
,
0001
1000
0100
2000
0000
0010
0000
3020
,
0000
1000
0030
1000
0001
0000
0011
0000
,
0001
0100
0001
0000
1000
0010
1000
0000
,
0020
0000
0230
0000
0301
1000
0001
0000
,
2002
0000
0000
0000
,
0000
0000
0000
0000
,
3003
0000
0000
0000
;

//--------------- dance-single - demicore ----------------
#NOTES:
     dance-single:
     demicore:
     Hard:
     15:
     0,0,0,0,0:
0000
0000
0000
0000
,
0000
0000
0000
0000
,
0000
0000
0000
0000
,
0000
0000
0000
0000
,
0000
0001
0100
0020
0000
1000
0000
1000
,
0000
0100
0030
0100
0001
0010
0001
1000
,
0000
0001
1000
0200
0000
0010
0000
0010
,
0000
1000
0300
1000
0001
0100
0010
0100
,
0000
0010
1000
0002
0000
0010
0000
0010
,
0000
1000
0003
1000
0010
0100
0001
0100
,
0000
0001
1000
0020
0000
0001
0000
0001
,
0000
0100
0030
0100
0001
1000
0010
0100
,
0000
0001
1000
0002
0000
0010
0000
2003
,
0000
0100
0000
3010
0100
0001
0010
0100
,
0000
1000
0001
0200
0000
0001
0000
0320
,
0000
1000
0000
0130
0001
0010
0001
1000
,
0000
0001
0100
0020
0000
1000
0000
0230
,
0000
0001
0000
0310
1000
0001
0010
0001
,
0000
1000
0010
0200
0000
0010
0000
0302
,
0000
1000
0000
0103
0010
1000
0100
0010
,
0001
1000
0100
2000
0000
3020
0000
0230
,
0000
0302
0000
0013
0001
1000
0010
0100
,
0001
0010
0001
0001
1000
0010
0100
0100
,
0001
1000
0100
1000
0010
0100
0001
1000
,
0001
0100
0010
0200
0000
0302
0000
2003
,
0000
3020
0000
0130
0001
1000
0100
0010
,
0100
1000
0001
0001
0100
0010
1000
1000
,
0002
0000
0203
0000
0310
1000
0001
0001
,
0100
0010
1000
0002
0000
0203
0000
0320
,
0000
2030
0000
3001
0010
0001
0100
0010
,
1000
0001
0010
0010
0001
1000
0100
0100
,
1000
0001
0010
0001
0100
0010
1000
0001
,
0100
0001
0010
0200
0000
2300
0000
3002
,
0000
0023
0000
0031
0100
0010
1000
0001
,
0200
0000
0000
0000
,
0020
0000
0000
0330
,
0100
0001
0010
0001
1000
0001
0010
0100
,
1000
0010
0100
0001
0010
0001
1000
0010
,
0100
0010
1000
0001
0010
0100
1000
0001
,
0010
0001
2000
0000
3010
0100
0002
0000
,
1003
0010
0100
0010
1000
0001
0010
0001
,
1000
0100
0010
0001
0100
0010
2000
0000
,
3001
0100
0101
0000
1000
0001
1001
0000
,
0200
0000
0000
0000
0302
0000
0000
0000
0013
0000
0001
1000
0002
0000
0000
0000
,
0103
0010
1000
1000
0001
0100
0010
0100
,
0001
1000
0001
0001
0010
0001
0100
0010
,
1000
0010
0100
0001
1000
0100
0010
0001
,
0200
0000
0320
0000
1030
0001
0200
0000
,
0301
1000
0100
1000
0010
0100
0002
0000
,
0013
0001
1000
0010
0100
0010
2000
0000
,
3001
0100
0010
0010
1000
0001
0100
0100
,
0020
2030
3002
0023
,
0031
0001
0001
1000
0010
0100
0110
0000
,
0010
0010
0010
1000
0100
1000
1010
0000
,
0100
0100
0100
0001
0010
0001
1000
0010
,
0100
0000
0001
0000
0010
0001
0010
0000
0001
0000
1000
0000
0010
0000
0000
0000
,
1000
1000
1000
0001
0010
0001
0101
0000
,
0100
0100
0100
0010
1000
0100
1100
0000
,
0001
0001
0001
0100
0010
1000
0010
0100
,
0001
0000
1000
0000
0001
0100
0001
0000
1000
0000
0010
0000
0110
0000
0000
0000
,
0100
0001
0001
0001
1000
0010
0110
0000
,
0100
0010
0010
0010
1000
0100
0110
0000
,
0001
1000
1000
1000
0010
0100
0001
1000
,
0001
0000
0100
0000
0001
1000
0001
0000
0100
0000
0010
0000
2000
0000
0000
0000
,
3010
0100
0100
0100
0001
1000
1010
0000
,
0100
0010
0010
0010
0100
0001
1001
0000
,
0001
0010
0010
0010
0100
1000
0010
0100
,
0001
0000
1000
0000
0010
1000
0010
0000
0100
0000
0001
0000
0010
0000
0000
0000
,
0012
0000
1003
0010
0200
0000
0320
0000
,
1030
0100
0001
0100
2000
0000
3010
0000
,
0210
0000
0301
0010
0200
0000
2300
0000
,
3002
0010
0100
1003
,
2100
0000
3010
0100
0002
0000
0023
0000
,
0130
1000
0001
0100
0020
0000
1030
0000
,
0102
0000
0013
0100
2000
0000
3020
0000
,
0230
1000
0010
0301
,
0120
0000
1030
0001
0020
0000
0032
0000
,
1003
0010
0100
0010
2000
0000
3001
0000
,
0012
0000
0103
0010
2000
0000
3002
0000
,
0023
1000
0100
0031
,
0102
0000
1003
0010
0200
0000
0302
0000
,
1003
0000
0010
0000
0100
0010
0100
0000
0002
0000
0000
0000
1003
0000
0000
0000
,
0210
0000
0301
1000
0020
0000
0230
0000
,
0302
0000
2000
3003
,
1000
0001
1000
0000
0010
0000
0100
0000
0001
0000
0100
0000
0110
0000
0000
0000
,
0001
1000
0001
0000
1000
0000
0010
0000
0100
0000
0001
0000
0011
0000
0000
0000
,
0100
0001
0100
0000
0010
0000
1000
0000
0010
0000
0100
0000
0001
0000
1000
0000
,
0010
0010
0100
0100
0001
1000
1010
0000
,
1000
0010
1000
0000
0001
0000
0010
0000
0001
0000
0100
0000
0110
0000
0000
0000
,
0010
1000
0010
0000
1000
0000
0001
0000
0010
0000
0001
0000
0101
0000
0000
0000
,
0100
0010
0100
0000
0010
0000
1000
0000
0001
0000
0100
0000
0001
0000
0010
0000
,
0100
0100
1000
1000
0010
0100
0110
0000
,
0100
0001
1000
0000
0010
0000
1000
0000
0001
0000
0010
0000
0011
0000
0000
0000
,
0001
1000
0010
0000
1000
0000
0010
0000
0100
0000
0010
0000
1010
0000
0000
0000
,
0001
1000
0100
0000
1000
0000
0010
0000
0100
0000
0001
0000
0010
0000
0001
0000
,
0100
0100
0010
0010
1000
0001
1001
0000
,
0100
0001
0010
0000
0001
0000
1000
0000
0100
0000
1000
0000
1010
0000
0000
0000
,
0010
1000
0100
0000
1000
0000
0001
0000
0010
0000
0001
0000
0101
0000
0000
0000
,
0100
0010
1000
0000
0001
0000
0100
0000
0010
0000
0100
0000
0001
0000
1000
0000
,
0010
0010
0100
0100
0001
0010
0110
0000
,
0100
1000
0010
0200
0000
1000
0000
0010
,
0000
0001
0300
0010
1000
0100
1000
0001
,
0000
0010
0001
2000
0000
0010
0000
0001
,
0000
0100
3000
0001
0010
0001
1000
0100
,
0000
1000
0100
0020
0000
0001
0000
1000
,
0000
0100
0030
0001
1000
0010
0100
0010
,
0000
0100
0001
2000
0000
0010
0000
0100
,
0000
0010
3000
0001
0100
0010
1000
0001
,
0100
0000
0001
1000
0001
0000
0100
0000
0000
0000
0110
0000
0000
0000
0010
0000
,
0000
1010
0000
1000
0001
0010
0001
0100
,
0010
1000
0100
0010
0001
1000
0010
1000
,
0001
0010
0001
0100
0010
1000
0001
0100
,
0001
0000
0010
0001
0010
0000
0001
0000
0000
0000
1001
0000
0000
0000
1000
0000
,
0000
1010
0000
0010
0100
0001
0100
0010
,
1000
0100
0001
0100
1000
0010
0100
0001
,
0200
0000
0320
0000
1030
0001
0010
0002
,
2000
0000
0000
0000
,
0000
0000
0000
0000
,
3003
0000
0000
0000
;

//--------------- dance-single - demicore ----------------
#NOTES:
     dance-single:
     demicore:
     Challenge:
     18:
     0,0,0,0,0:
0000
0000
0000
0000
,
0000
0000
0000
0000
,
0000
0000
0000
0000
,
0000
0000
0000
0000
,
0000
0000
0001
1000
0001
0000
0100
0000
0000
0000
0110
0000
0000
0000
1010
0000
,
0000
1001
0000
0011
0001
0100
0010
1000
,
0000
0000
0100
1000
0100
0000
0010
0000
0000
0000
0011
0000
0000
0000
0101
0000
,
0000
1010
0000
1100
0100
0010
0001
0100
,
0000
0000
0010
0100
0010
0000
1000
0000
0000
0000
1010
0000
0000
0000
0110
0000
,
0000
0101
0000
0011
0001
1000
0010
0100
,
0000
0000
0010
1000
0010
0000
1000
0000
0000
0000
1100
0000
0000
0000
0011
0000
,
0000
0101
0000
1010
1000
0001
0010
0001
,
0000
0000
1000
0100
0010
0000
0001
0000
0000
0000
0101
0000
0000
0000
1001
0000
,
0000
1010
0000
0110
0100
0001
1000
0010
,
0000
0000
1000
0001
0010
0000
0001
0000
0000
0000
0101
0000
0000
0000
0110
0000
,
0000
1010
0000
1001
1000
0001
0010
0001
,
0000
0000
0100
0010
1000
0000
0010
0000
0000
0000
0110
0000
0000
0000
0101
0000
,
0000
1001
0000
0110
0100
0010
1000
0100
,
0000
0000
0010
0001
0100
0000
0001
0000
0000
0000
1001
0000
0000
0000
1100
0000
,
0000
0011
0000
0110
0100
0001
1000
0010
,
0100
0000
0001
0100
0001
0000
1000
0010
0000
0000
0100
0010
0000
0000
0100
0001
,
0000
0000
1000
0001
0000
0000
1000
0010
0100
0000
0001
0000
1000
0000
0010
0000
,
0200
0001
0301
1000
0010
0100
0001
0010
,
0200
1000
1300
0010
0100
0010
0001
0010
,
1000
0000
0010
0100
0010
0000
1000
0001
0000
0000
0010
0001
0000
0000
1000
0010
,
0000
0000
0100
0010
0000
0000
0100
0001
0010
0000
0001
0000
1000
0000
0010
0000
,
0200
0001
0301
1000
0001
0010
0100
1000
,
1001
0000
0101
0000
0100
0010
1000
0010
,
0100
0000
0001
1000
0010
0000
0100
0001
0000
0000
1000
0100
0000
0000
0010
0001
,
0000
0000
1000
0010
0000
0000
0100
0010
1000
0000
0001
0000
0010
0000
0001
0000
,
2000
0010
3001
0100
0010
1000
0100
0010
,
0002
1000
0103
0010
1000
0010
0100
0001
,
0010
0000
0001
1000
0100
0000
1000
0010
0000
0000
0100
0010
0000
0000
0100
0001
,
0000
0000
1000
0010
0000
0000
0010
0001
0100
0000
0010
0000
1000
0000
0001
0000
,
0000
0000
0000
0000
,
0200
0000
0320
0000
1030
0001
0010
0001
,
1000
0000
0010
0000
0100
0001
0100
0000
0010
0000
1000
0000
0001
0000
0010
0000
,
0001
0000
1000
0000
0010
1000
0010
0000
0100
0000
0010
0000
1000
0000
0100
0000
,
0010
0000
0001
0000
1000
0000
0010
0000
0100
0001
0100
0000
0010
1000
0010
0000
,
1000
0001
0011
0010
0001
0100
0110
0000
,
0101
0000
0001
0000
1000
0010
1000
0000
0001
0000
0100
0000
0010
0000
1000
0000
,
0100
0000
0010
0000
0001
0100
0001
0000
1000
0000
0010
0000
0200
0000
0000
0000
,
0301
0000
1000
0000
0010
1000
0010
0000
0100
0000
0001
0000
0010
0000
0100
0000
,
2000
0000
0000
0000
3010
0000
0000
0000
0001
0100
0001
0100
0020
0000
0000
0000
,
1030
0000
0001
0000
0100
0001
0010
0000
0001
0000
1000
0000
0010
0000
0100
0000
,
0010
0000
1000
0000
0100
0010
0001
0000
0100
0000
0010
0000
1000
0000
0001
0000
,
0010
0000
0001
0000
1000
0000
0010
0000
1000
0001
0010
0000
0001
0000
0100
0000
,
0120
0030
2010
3000
0001
0100
0102
0003
,
1000
0000
0010
0000
0100
0000
0010
0000
1000
0000
0001
0000
0010
0000
0001
0100
,
0010
0000
1000
0000
0010
0000
0100
0000
0001
1000
0100
0000
2000
0000
0000
0000
,
3010
0000
0100
0000
0001
0000
0010
0000
0001
1000
0001
0000
0100
0000
0010
0000
,
2000
0000
3010
0000
0002
0000
0103
0000
1000
0010
0100
0001
0020
0000
0030
0000
,
0001
0100
0010
0100
0001
0000
1000
0000
0010
0000
0100
0000
0101
0000
0000
0000
,
0001
1000
0100
1000
0010
0000
0100
0000
0001
0000
1000
0000
1010
0000
0000
0000
,
0010
0100
0001
0100
0010
0000
0100
0000
0001
0000
0010
0000
0100
0000
1000
0000
,
0010
1000
0100
0010
0001
0000
0100
0000
0010
0000
1000
0000
1010
0000
0000
0000
,
0010
1000
0010
0100
0001
0000
1000
0000
0010
0000
0100
0000
0101
0000
0000
0000
,
0001
1000
0100
1000
0010
0000
0100
0000
0001
0000
0010
0000
0110
0000
0000
0000
,
0100
1000
0001
0010
0100
0000
1000
0000
0010
0000
0100
0000
0001
0000
0010
0000
,
0001
1000
0010
1000
0100
0000
1000
0000
0001
0000
0100
0000
0101
0000
0000
0000
,
1000
0010
0100
0001
0010
0000
0001
0000
1000
0000
0010
0000
0110
0000
0000
0000
,
0001
1000
0100
1000
0010
0000
0100
0000
0001
0000
1000
0000
1010
0000
0000
0000
,
0100
0001
0010
0001
1000
0000
0010
0000
0100
0000
0010
0000
1000
0000
0100
0000
,
0010
0001
1000
0010
0100
0000
0001
0000
1000
0000
0010
0000
0110
0000
0000
0000
,
0100
0001
0010
0001
1000
0000
0010
0000
0100
0000
0001
0000
0011
0000
0000
0000
,
0010
0001
1000
0010
0100
0000
0010
0000
1000
0000
0001
0000
0101
0000
0000
0000
,
0100
0010
1000
0001
1000
0000
0010
0000
0100
0000
0001
0000
0010
0000
0001
0000
,
1000
0010
1000
0000
0001
0100
0001
0000
1000
0100
0010
0001
0100
0000
0010
0000
,
1010
0000
0101
0100
0110
0000
1001
0000
,
1001
0001
0100
0010
1010
0000
0110
0000
,
0101
0000
0011
0001
1001
0000
1010
0000
,
0210
0000
0000
0000
0301
0000
0000
0000
1000
0010
0100
0000
0001
1000
0010
0000
,
0110
0000
0101
0100
0110
0000
1010
0000
,
1000
0001
0100
0000
0001
0100
0010
0000
1000
0000
0000
0000
1001
0000
0000
0000
,
0011
0000
0110
0010
1010
0000
1001
0000
,
0210
0320
0032
0023
,
0130
0000
0101
0001
1001
0000
1010
0000
,
0110
0100
0001
0010
0011
0000
1001
0000
,
1010
0000
0110
0010
1010
0000
1100
0000
,
2001
0000
0000
0000
3010
0000
0000
0000
0100
0001
0010
0000
0100
1000
0010
0000
,
0101
0000
1010
0010
0110
0000
1100
0000
,
1000
0010
0100
0000
0001
1000
0010
0000
0110
0000
0000
0000
0101
0000
0000
0000
,
0011
0000
1100
1000
1010
0000
0101
0000
,
0000
0000
0000
0000
,
1000
0100
1000
0010
0100
0000
0001
0000
0010
0000
0100
0000
2000
0000
3000
0000
,
0001
0100
0010
0100
0001
0000
1000
0000
0010
0000
0100
0000
0002
0000
0003
0000
,
0100
0010
1000
0100
0010
0000
0001
0000
0100
0000
0010
0000
1000
0000
0010
0000
,
0100
0001
0100
0000
0001
1000
0001
0000
1000
0000
0010
0000
0200
0000
0300
0000
,
0001
1000
0100
1000
0010
0000
0100
0000
0001
0000
0010
0000
0002
0000
0003
0000
,
1000
0001
0100
0001
0010
0000
0001
0000
1000
0000
0010
0000
0200
0000
0300
0000
,
0010
1000
0100
1000
0010
0000
0100
0000
0001
0000
1000
0000
0100
0000
1000
0000
,
0010
0100
0010
0000
1000
0100
1000
0000
0001
0000
1000
0000
0020
0000
0030
0000
,
0100
0001
0010
0001
0100
0001
0010
0000
0001
0000
1000
0000
0020
0000
0030
0000
,
1000
0010
0100
0010
1000
0001
0010
0000
0001
0000
1000
0000
0200
0000
0300
0000
,
0010
0001
0100
0001
1000
0010
0100
0000
0001
0000
1000
0000
0010
0000
0100
0000
,
0010
1000
0001
0100
0010
1000
0100
0010
0001
0000
0100
0000
0002
0000
0003
0000
,
1000
0010
0100
0001
1000
0001
0100
0000
0010
0000
1000
0000
0200
0000
0300
0000
,
0010
0001
1000
0010
0100
0010
1000
0000
0001
0000
0100
0000
0020
0000
0030
0000
,
0100
0001
1000
0100
1000
0010
0100
0000
0001
0000
1000
0000
0010
0000
0100
0000
,
0010
1000
0010
0100
0001
0010
0100
1000
0010
0000
0100
0000
0002
0000
0003
0000
,
1000
0000
0010
1000
0010
0000
0100
0000
0000
0000
0101
0000
0000
0000
1001
0000
,
0000
1010
0000
0110
0100
0001
1000
0100
,
0000
0000
0010
0001
0010
0000
0001
0000
0000
0000
1001
0000
0000
0000
1010
0000
,
0000
1100
0000
0110
0010
0001
1000
0010
,
0000
0000
1000
0100
1000
0000
0010
0000
0000
0000
0110
0000
0000
0000
0101
0000
,
0000
0011
0000
1100
1000
0010
0100
0010
,
0000
0000
1000
0001
1000
0000
0010
0000
0000
0000
0110
0000
0000
0000
0101
0000
,
0000
1001
0000
1100
0100
0010
0001
0100
,
0010
0000
1000
0100
0010
0000
0001
0100
0000
0000
0010
1000
0000
0000
0001
0010
,
0000
0000
0100
1000
0000
0000
0010
0100
0001
0000
1000
0000
0100
0000
1000
0000
,
0010
0100
0001
0100
1000
0100
0010
0100
,
0001
1000
0100
1000
0001
0100
0010
0100
,
0001
0000
1000
0001
0010
0000
0001
0100
0000
0000
0010
1000
0000
0000
0100
1000
,
0000
0000
0001
0010
0000
0000
0001
0100
0010
0000
1000
0000
0010
0000
0100
0000
,
0001
0000
1000
0100
0010
0000
0001
0100
0010
0100
0001
1000
0010
1000
0100
1000
,
0002
0003
0200
0300
0010
1000
0010
0100
,
2002
0000
0000
0000
,
0000
0000
0000
0000
,
3003
0000
0000
0000
;
