#VERSION:0.83;
#TITLE:AMiDARA PIERROT;
#SUBTITLE:;
#ARTIST:onoken;
#TITLETRANSLIT:;
#SUBTITLETRANSLIT:;
#ARTISTTRANSLIT:;
#GENRE:;
#ORIGIN:;
#TAGS:;
#CREDIT:;
#BANNER:AMiDARA PIERROT.png;
#BACKGROUND:;
#PREVIEWVID:;
#JACKET:;
#CDIMAGE:;
#DISCIMAGE:;
#LYRICSPATH:;
#CDTITLE:;
#MUSIC:AMiDARA PIERROT.mp3;
#OFFSET:1.635000;
#SAMPLESTART:18.552000;
#SAMPLELENGTH:13.458000;
#SELECTABLE:YES;
#BPMS:0.000000=107.000000
;
#STOPS:;
#DELAYS:;
#WARPS:;
#TIMESIGNATURES:0.000000=4=4
;
#TICKCOUNTS:0.000000=4
;
#COMBOS:0.000000=1
;
#SPEEDS:0.000000=1.000000=0.000000=0
;
#SCROLLS:0.000000=1.000000
;
#FAKES:;
#LABELS:0.000000=Song Start
;
#BGCHANGES:3.000=AMiDARA PIERROT.mp4=1.000=0=0=1=====,
99999=-nosongbg-=1.000=0=0=0 // don't automatically add -songbackground-
;
#KEYSOUNDS:;
#ATTACKS:
;

//---------------dance-single - demicore----------------
#NOTEDATA:;
#CHARTNAME:demicore;
#CHARTHASH:2261344483;
#STEPSTYPE:dance-single;
#BANNER:;
#DESCRIPTION:demicore;
#CHARTSTYLE:;
#DIFFICULTY:Challenge;
#METER:15;
#METERF:0.000000;
#LASTSECONDHINT:116.682755;
#RADARVALUES:0.744919,0.879682,0.260315,0.268450,1.049395,641.000000,609.000000,32.000000,33.000000,0.000000,0.000000,0.000000,0.000000,0.000000,0.744919,0.879682,0.260315,0.268450,1.049395,641.000000,609.000000,32.000000,33.000000,0.000000,0.000000,0.000000,0.000000,0.000000;
#CREDIT:demicore;
#NOTES:
// measure 0
0000
0000
0000
0000
,  // measure 1
0000
0000
0000
0000
,  // measure 2
0000
0000
0000
0000
,  // measure 3
0000
0000
0000
0000
,  // measure 4
0000
0000
0000
0000
,  // measure 5
1000
0000
0000
0001
0000
0100
0001
0000
0000
0010
0000
0000
0001
0000
0000
1000
0000
0010
0100
0000
0000
0001
0000
0000
,  // measure 6
0100
0000
0000
0010
0000
1000
0010
0000
0000
0100
0000
0000
0001
0000
0000
0010
0000
0001
1000
0000
0000
0100
0000
0000
,  // measure 7
1000
0000
0000
0001
0000
0001
0100
0000
0000
0010
0000
0010
1000
0000
0000
1000
0000
0001
0100
0000
0000
0100
0000
0010
,  // measure 8
1000
0000
0001
0010
0000
0010
1000
0000
1000
0001
0000
0001
0100
0000
0000
0000
0000
0000
1001
0000
0000
0000
0000
0000
,  // measure 9
1000
0000
0010
0100
0000
0001
0100
0000
0000
0010
0000
0000
1000
0001
0100
0001
0000
0000
0010
0000
0000
0001
0010
0001
,  // measure 10
1000
0000
0010
0100
0000
0010
1000
0000
0000
0001
0000
0000
0200
0000
0000
0302
0000
0000
1003
0010
0100
0001
0000
0000
,  // measure 11
1000
0000
0000
0010
0100
0001
0010
0000
0000
0001
1000
0010
0100
0000
0000
0001
1000
0001
0010
0000
0000
0001
0000
0000
,  // measure 12
1000
0000
0000
0010
0100
0001
0010
0000
0000
0010
0001
1000
0100
0000
0000
1000
0001
0100
0010
0000
0000
1000
0000
0000
,  // measure 13
2001
0000
0000
3000
0000
0000
0101
0000
0010
0100
0000
0000
0001
1000
0100
1000
0000
0000
0001
0000
0000
0100
0001
1000
,  // measure 14
0010
0000
0010
1000
0000
1000
0001
0000
0000
0200
0000
0000
0310
0000
0000
1000
0001
1000
0001
0000
0000
0020
0000
0000
,  // measure 15
0130
0000
0000
1000
0100
0010
0100
0000
0000
1000
0001
0100
0010
0000
0000
0100
0001
0010
0002
0000
0000
2003
0000
0000
,  // measure 16
3010
0000
0000
0100
0010
1000
0100
0000
0000
1000
0001
0010
0001
0000
0000
0100
0000
0000
0010
0000
0000
0010
0000
0000
,  // measure 17
1001
0000
0000
0000
0000
1000
0010
0000
0000
0100
0000
0001
0100
0000
0000
0010
1000
0010
0100
0000
0000
0001
0000
0000
,  // measure 18
1000
0000
0010
0100
0000
0001
1000
0000
0000
0010
0000
0000
0100
0000
0000
0100
0001
0010
0100
0000
0010
0001
0000
1000
,  // measure 19
0010
0000
0000
0000
0000
0100
0001
0000
0100
0010
0000
1000
0100
0000
0000
1000
0000
0000
0001
0000
0000
0110
0000
0000
,  // measure 20
0101
0000
0100
0010
0000
1000
0001
0000
0000
1000
0000
0000
0010
0000
0000
1000
0100
0010
0002
0000
0000
0203
0000
0000
,  // measure 21
0310
0000
0000
1001
0000
0000
0010
0000
0100
0001
0000
0000
1000
0000
0000
1010
0000
0000
0001
0000
1000
0001
0000
0000
,  // measure 22
0100
0000
0100
0001
0000
0001
0010
0000
0010
1000
0000
1000
0100
0000
0000
1000
0001
0100
0010
0000
0000
0010
0100
0001
,  // measure 23
0010
0000
0000
0011
0000
0000
0100
0000
0001
1000
0000
1000
0010
0000
0000
0110
0000
0010
1000
0000
0001
0100
0000
0000
,  // measure 24
0010
0000
0000
0010
0000
0000
1100
0000
0000
1000
0000
1000
0001
0000
0100
0010
0000
0000
0101
0000
0001
1000
0000
1000
,  // measure 25
0010
0000
0000
0100
0000
0000
1001
0000
0000
0010
0000
0100
0001
0000
0000
1000
0010
1000
0010
0000
0000
0100
0000
0001
,  // measure 26
0010
1001
1100
0011
0110
0000
1010
0000
,  // measure 27
2000
0000
0000
0000
0000
0000
3001
0000
0000
0100
0010
0100
0002
0000
0000
0000
0000
0000
1003
0000
0000
0001
0010
0001
,  // measure 28
1000
0010
1000
0001
0100
0001
0100
0010
0100
0001
1000
0001
0020
0000
0000
0031
0000
0001
0100
0000
0000
0101
0000
0000
,  // measure 29
0200
0000
0000
0000
0000
0000
0310
0000
1000
0010
0100
0010
1000
0100
1000
0001
0100
0001
1000
0001
1000
0010
0100
0010
,  // measure 30
2000
0000
0000
0000
0000
0000
3010
0000
0010
0100
0000
0001
0100
0000
0001
0010
0000
0100
1000
0000
0000
0110
0000
0000
,  // measure 31
0020
0000
0000
0000
0000
0000
1030
0000
0000
0001
0100
0010
1000
0100
0001
0100
1000
0001
0100
0010
1000
0100
1000
0001
,  // measure 32
0010
0000
0000
0010
0000
0000
0001
0100
0010
0200
0000
0000
0310
0000
1000
0010
0000
0001
0010
0000
0000
0101
0000
0000
,  // measure 33
2002
0000
3003
0110
,  // measure 34
1000
0001
0010
0100
1000
0010
0100
0001
1000
0100
1000
0001
0010
0000
0000
0001
0100
0010
0100
0000
0000
0001
0000
0000
,  // measure 35
1010
0100
0011
0001
1100
0010
1001
1000
,  // measure 36
0001
0100
0010
1000
0001
0100
0001
0010
0001
1000
0010
0100
0010
0000
0000
0000
0000
0000
0000
0000
0000
0000
0000
0000
,  // measure 37
2000
0010
0010
0010
3020
0100
0100
0000
,  // measure 38
0230
0001
0001
0001
0302
0000
1000
1000
,  // measure 39
1003
0011
1010
1001
,  // measure 40
0010
0100
0010
0100
2010
3000
0102
0003
,  // measure 41
0010
0000
0000
0001
0000
0100
0010
0000
0000
1000
0000
0000
0001
0100
0001
1000
0000
0000
0010
0000
0000
0010
0100
0001
,  // measure 42
0100
0000
0001
1000
0000
0010
1000
0000
0000
0001
0000
0000
0100
0000
0000
0001
1000
0010
2000
0000
0000
3002
0000
0000
,  // measure 43
0013
0000
0000
0001
0100
0001
0100
0000
0000
0010
1000
0100
0010
0000
0000
0001
1000
0100
2000
0000
0000
3020
0000
0000
,  // measure 44
0130
0000
0000
0001
0010
0100
1000
0000
0000
0001
1000
0010
0200
0000
0000
0302
0000
0000
0023
0000
0000
0032
0000
0000
,  // measure 45
1003
0010
1000
0010
0000
0000
0100
0001
0010
0001
1000
0100
0010
0100
1000
0001
0100
0010
1000
0000
0000
0000
0000
0000
,  // measure 46
0001
0010
0001
0100
0000
0000
0010
1000
0001
0100
0010
0100
0010
1000
0100
0010
0001
1000
0010
0000
0000
0000
0000
0000
,  // measure 47
0100
0001
0010
0001
0000
0000
0100
0010
1000
0001
1000
0010
0100
0001
0010
1000
0010
0001
0100
0010
1000
0010
1000
0001
,  // measure 48
0100
0010
1000
0001
0000
0010
0001
1000
0100
1000
0001
0010
0001
1000
0001
0100
0010
1000
0100
0000
0000
0000
0000
0000
,  // measure 49
1000
0010
0100
0020
0000
0000
1030
0100
0010
0001
0100
0001
0010
0100
0010
0001
1000
0010
0100
0000
0000
0001
0000
0000
,  // measure 50
1000
0001
1000
0100
1000
0010
0100
0001
0100
0010
1000
0001
0010
0000
0000
0010
0000
0000
0001
0000
0000
1000
0000
0000
,  // measure 51
0001
0010
0001
1000
0010
1000
0100
0010
0001
1000
0010
0100
0001
0010
0001
1000
0100
0010
0100
1000
0001
0010
0001
0100
,  // measure 52
0010
0000
0010
1000
0000
1000
0001
0000
0001
0100
0000
0100
0001
0010
0001
1000
0010
1000
0001
0000
0000
0000
0000
0000
;
