#TITLE:phase-O- dawn;
#SUBTITLE:;
#ARTIST:Karl with a K;
#TITLETRANSLIT:;
#SUBTITLETRANSLIT:;
#ARTISTTRANSLIT:;
#GENRE:;
#CREDIT:;
#BANNER:phase -O- dawn banner.png;
#BACKGROUND:phase -O- dawn bg.png;
#LYRICSPATH:;
#CDTITLE:;
#MUSIC:phase -O- dawn.ogg;
#OFFSET:0.000000;
#SAMPLESTART:83.636360;
#SAMPLELENGTH:15.000000;
#SELECTABLE:YES;
#BPMS:0.000000=132.000000
;
#STOPS:
;
#BGCHANGES:;
#KEYSOUNDS:;
#ATTACKS:;

//---------------dance-single - ----------------
#NOTES:
     dance-single:
     :
     Hard:
     11:
     0.309497,0.522105,0.013415,0.503052,0.023476,323.000000,321.000000,2.000000,75.000000,0.000000,0.000000,0.309497,0.522105,0.013415,0.503052,0.023476,323.000000,321.000000,2.000000,75.000000,0.000000,0.000000:
// measure 0
0000
0000
0000
0000
,  // measure 1
0000
0000
0000
0000
,  // measure 2
0000
0000
0000
0000
,  // measure 3
0000
0000
0000
0000
,  // measure 4
1000
0000
0000
0100
0000
0000
0010
0000
,  // measure 5
0100
0000
0000
0000
,  // measure 6
1000
0000
0000
0001
0000
0000
0010
0000
,  // measure 7
0001
0000
0000
0000
,  // measure 8
0100
0000
0000
0001
0000
0000
1000
0000
,  // measure 9
0001
0000
1000
0000
,  // measure 10
0001
0000
0000
0010
0000
0000
0100
0000
,  // measure 11
1000
0000
0000
1000
,  // measure 12
0002
0000
0000
0000
0000
0000
0100
0000
0000
0000
0000
0000
1003
0000
0000
0002
,  // measure 13
0100
0000
0000
0000
,  // measure 14
2003
0000
0000
0001
0000
0000
0100
0000
,  // measure 15
3002
0000
0000
0000
,  // measure 16
2003
0000
0000
0001
0000
0000
3010
1000
,  // measure 17
0001
2000
0000
0000
0000
0000
0000
0000
,  // measure 18
3002
0000
0000
0000
0000
0000
1000
0000
0000
0000
0000
0000
0013
0000
0000
0002
,  // measure 19
1000
0000
2003
0000
,  // measure 20
3200
0000
0000
0000
0000
0000
1000
0000
0000
0000
0000
0000
0310
0000
0000
0100
,  // measure 21
2000
0000
3002
0000
,  // measure 22
0203
0000
0000
0010
0000
0000
0302
0000
,  // measure 23
0203
0000
0000
0000
0000
0000
0301
1000
,  // measure 24
0002
0000
0000
0100
0000
0100
0000
0100
,  // measure 25
0000
0100
0000
0100
0000
0103
0000
0001
,  // measure 26
2000
0100
0000
0100
0000
0100
0000
0100
,  // measure 27
0000
0100
0000
0100
0000
3100
0000
0100
,  // measure 28
1000
0020
0100
0000
0100
0000
0130
0001
,  // measure 29
0020
0000
0100
0000
0130
0000
1000
0001
,  // measure 30
0002
0100
0100
0100
,  // measure 31
2003
0000
0100
0000
3100
0000
1000
0100
,  // measure 32
0020
0001
0001
0001
,  // measure 33
0001
0001
0032
1003
,  // measure 34
2000
0000
3001
0200
0010
0000
0302
0000
,  // measure 35
0100
0100
0100
0103
,  // measure 36
0001
0020
0100
0000
0100
0000
0130
1000
,  // measure 37
0020
0000
0100
0000
0130
0000
0001
1000
,  // measure 38
2000
0000
3100
0020
0100
0000
0031
0000
,  // measure 39
0002
0000
0100
0000
0203
0000
0301
0100
,  // measure 40
0020
0100
0100
0100
,  // measure 41
0100
0000
0100
0000
2030
0000
3001
1000
,  // measure 42
0002
1000
1000
1000
,  // measure 43
0010
0000
0010
0000
0010
0000
0013
0001
,  // measure 44
0200
0000
0000
0000
,  // measure 45
0020
0000
0000
0330
,  // measure 46
2001
0000
0010
0000
0001
0000
3100
0010
,  // measure 47
0002
0000
0010
0000
1000
0000
0103
0010
,  // measure 48
2000
0100
0001
0010
,  // measure 49
3002
0010
1000
0100
,  // measure 50
0023
0001
0100
1000
,  // measure 51
0100
0031
2000
3010
,  // measure 52
0020
0000
0130
0001
0200
0000
0001
0000
,  // measure 53
0010
1000
0010
0301
,  // measure 54
2001
0000
0100
0000
0001
0000
3010
0100
,  // measure 55
0002
0000
0100
0000
1000
0000
0013
0100
,  // measure 56
2000
0010
0001
0100
,  // measure 57
3002
0100
1000
0010
,  // measure 58
0203
0001
0010
1000
,  // measure 59
0010
0301
2000
3100
,  // measure 60
0200
0010
1000
0010
,  // measure 61
0001
0000
0010
0000
1000
0000
0310
0001
,  // measure 62
0200
0000
1000
0000
0010
0000
0301
0010
,  // measure 63
0200
0000
0001
0000
0010
0000
1300
0001
,  // measure 64
0020
0001
0100
1000
,  // measure 65
0230
0001
0010
1300
,  // measure 66
0002
1000
0100
0010
,  // measure 67
1000
0203
2300
3200
,  // measure 68
0302
0000
1003
0200
0010
0000
0001
0000
,  // measure 69
0010
0000
1000
0000
0010
0000
0301
0100
,  // measure 70
0020
0000
0001
0000
0100
0000
1030
0100
,  // measure 71
0020
0000
1000
0000
0100
0000
0031
1000
,  // measure 72
0200
0000
1300
0200
0010
0000
0001
0000
,  // measure 73
0320
1000
0032
0100
,  // measure 74
2003
0001
0010
0100
,  // measure 75
3002
0100
0010
0100
,  // measure 76
2003
0100
0010
0100
,  // measure 77
3020
0000
0001
0000
0100
0000
1030
0100
,  // measure 78
2000
0000
3100
0010
0001
0100
0010
0100
,  // measure 79
0002
0000
0103
0010
1000
0100
0010
0100
,  // measure 80
2000
0000
0000
0000
3100
0000
0010
0000
0001
0000
0001
0000
0100
0000
0001
1000
,  // measure 81
0001
0000
0100
0000
0010
1000
0010
1000
0001
0000
0001
0000
0010
0000
0100
0010
;

//---------------dance-single - ----------------
#NOTES:
     dance-single:
     :
     Medium:
     9:
     0.175350,0.384415,0.013415,0.362197,0.000000,183.000000,181.000000,2.000000,54.000000,0.000000,0.000000,0.175350,0.384415,0.013415,0.362197,0.000000,183.000000,181.000000,2.000000,54.000000,0.000000,0.000000:
0000
0000
0000
0000
,
0000
0000
0000
0000
,
0000
0000
0000
0000
,
0000
0000
0000
0000
,
1000
0000
0000
0000
,
0001
0000
0000
0000
,
1000
0000
0000
0000
,
0100
0000
0000
0000
,
1000
0000
0000
0000
,
0001
0000
0000
0000
,
0001
0000
0000
0000
,
0100
0000
0000
0000
,
0001
0000
0000
0000
,
1000
0000
0000
0000
,
0001
0000
0000
0000
,
0100
0000
0000
0000
,
0001
0000
0000
0000
,
1000
0001
0000
0000
0000
0000
0000
0000
,
1000
0000
0000
1000
0000
0000
1000
0000
,
0100
0000
0010
0000
,
0010
0000
0000
0010
0000
0000
0000
0000
,
0001
0000
0001
0000
,
0200
0000
0000
0000
,
0000
0000
0000
0310
,
2002
0000
0000
0000
,
0000
0000
0000
0000
,
0000
0000
0000
0000
,
0000
0000
0000
3003
,
2000
0000
0000
3100
,
0020
0000
0000
0031
,
0002
0000
0000
0000
,
0203
0000
0000
0000
,
0320
0000
0000
0000
,
0000
0030
2000
3000
,
2000
0000
0000
3002
0000
0000
0203
0000
,
0000
0000
0000
0300
,
0002
0000
0000
0103
,
0020
0000
0000
1030
,
0020
0000
0000
2030
0000
0000
3100
0000
,
0200
0300
0020
0030
,
0020
0000
0000
0000
,
0000
0000
0030
0000
0002
0000
0000
1000
,
2003
0000
0000
0000
,
0100
0001
0100
3001
,
0220
0000
0000
0000
,
0000
0000
0000
0330
,
2000
0100
0000
0100
,
3002
0000
0100
0000
0000
0000
0103
0001
,
2000
0001
0000
0100
,
3002
0100
0000
1000
,
0023
0001
0000
0100
,
0000
0031
0002
1003
,
2000
0010
0000
0100
,
0000
0010
0000
3001
,
2000
0010
0000
0010
,
3002
0000
0010
0000
0000
0000
0013
0001
,
2000
0001
0000
0010
,
3002
0010
0000
1000
,
0203
0001
0000
0010
,
0000
0001
0302
1003
,
2000
0100
0000
0010
,
0000
0100
0000
3001
,
0002
0000
0010
0000
0000
0000
0013
0001
,
2000
0000
0010
0000
0000
0000
3010
1000
,
0002
1000
0000
0010
,
2003
0010
0000
0001
,
3200
1000
0000
0010
,
0000
1300
2000
3001
,
0002
0000
0103
0002
0000
0000
0010
0000
,
0000
0000
0100
0000
0003
0000
0001
0010
,
0002
0000
0100
0000
0000
0000
0103
0001
,
2000
0000
0100
0000
0000
0000
3100
1000
,
0020
0000
1030
0002
0000
0000
0103
0000
,
0020
0130
2000
0001
,
3020
0100
0000
0001
,
0000
0100
2030
0001
,
3020
1000
0000
0100
,
0000
0001
0000
0130
,
1000
0000
0100
0010
0100
0000
1000
0000
,
0001
0000
0100
0000
0010
0000
0100
0001
,
1000
0000
0001
0000
1000
0000
0001
0001
,
1000
0001
1000
1000
0001
1000
0100
0010
;

//---------------dance-single - ----------------
#NOTES:
     dance-single:
     :
     Easy:
     5:
     0.120732,0.274163,0.033537,0.275002,0.000000,126.000000,121.000000,5.000000,41.000000,0.000000,0.000000,0.120732,0.274163,0.033537,0.275002,0.000000,126.000000,121.000000,5.000000,41.000000,0.000000,0.000000:
0000
0000
0000
0000
,
0000
0000
0000
0000
,
0000
0000
0000
0000
,
0000
0000
0000
0000
,
0000
0000
0000
0000
,
0000
0000
0000
0000
,
0000
0000
0000
0000
,
0000
0000
0000
0000
,
1000
0000
0000
0000
,
0000
0000
0000
0000
,
0001
0000
0000
0000
,
0000
0000
0000
0000
,
1000
0000
0000
0000
,
0100
0000
0000
0000
,
1000
0000
0000
0000
,
0001
0000
0000
0000
,
0001
0000
0000
0000
,
0100
0000
0000
0000
,
0001
0000
0000
0000
,
1000
0000
0000
0000
,
0001
0000
0000
0000
,
0001
0000
0000
0000
,
1000
0000
0000
0000
,
1000
0000
0000
0000
,
2002
0000
0000
0000
,
0000
0000
0000
0000
,
0000
0000
0000
0000
,
0000
0000
3003
0000
,
2000
0000
3000
1000
,
0020
0000
0030
0010
,
2000
0000
0000
3000
,
0200
0000
0000
0300
,
0020
0000
0000
0000
,
0030
0000
0001
0000
,
0001
0000
0001
0100
,
0000
0000
0000
0000
,
0002
0000
0003
0001
,
0020
0000
0030
0010
,
0010
0000
0001
0000
,
0200
0000
0000
0300
,
0020
0000
0000
0000
,
0030
0000
1000
0000
,
2000
0000
0000
0000
,
0000
0000
3000
0000
,
0220
0000
0000
0000
,
0000
0000
0330
0000
,
2000
0000
0000
3001
,
0020
0000
0000
0031
,
2000
0000
0000
0000
,
3200
0000
0000
0000
,
0320
0000
0000
0000
,
0000
0000
0001
0000
,
0032
0000
1000
0000
,
0100
0000
0000
0003
,
0002
0000
0000
1003
,
0020
0000
0000
1030
,
0010
0000
1000
0001
,
0200
0000
0302
0000
,
0023
0000
0000
0000
,
0000
0000
0001
0000
,
0230
0000
0000
0000
,
0000
0000
0000
0300
,
2001
0001
0000
3002
,
0023
0100
0000
0230
,
2300
0010
0000
0001
,
3200
0010
0000
1000
,
0320
0001
0000
0100
,
0000
0001
0001
0000
,
0032
1000
0000
0100
,
0000
1000
0000
0013
,
1002
1000
0000
1003
,
0020
0100
0000
0230
,
0302
0010
0000
1000
,
0203
0010
0000
0001
,
0320
1000
0000
0100
,
0000
1000
1000
0100
,
2030
0001
0000
0100
,
0000
0010
0000
0001
,
3001
0100
0010
0100
,
0001
1000
0100
0010
,
0001
1000
0001
0001
,
1000
1000
0001
1001
;

//---------------dance-single - ----------------
#NOTES:
     dance-single:
     :
     Beginner:
     1:
     0.049826,0.109330,0.013415,0.000000,0.000000,52.000000,50.000000,2.000000,0.000000,0.000000,0.000000,0.049826,0.109330,0.013415,0.000000,0.000000,52.000000,50.000000,2.000000,0.000000,0.000000,0.000000:
0000
0000
0000
0000
,
0000
0000
0000
0000
,
0000
0000
0000
0000
,
0000
0000
0000
0000
,
0000
0000
0000
0000
,
0000
0000
0000
0000
,
0000
0000
0000
0000
,
0000
0000
0000
0000
,
0000
0000
0000
0000
,
0000
0000
0000
0000
,
0000
0000
0000
0000
,
0000
0000
0000
0000
,
1000
0000
0000
0000
,
0000
0000
0000
0000
,
0001
0000
0000
0000
,
0000
0000
0000
0000
,
1000
0000
0000
0000
,
0000
0000
0000
0000
,
0001
0000
0000
0000
,
0000
0000
0000
0000
,
1000
0000
0000
0000
,
0000
0000
0000
0000
,
0001
0000
0000
0000
,
0000
0000
0000
0000
,
1001
0000
0000
0000
,
0000
0000
0000
0000
,
0000
0000
0000
0000
,
0000
0000
0000
0000
,
1000
0000
0000
0000
,
1000
0000
0000
0000
,
1000
0000
0000
0000
,
0000
0000
0000
0000
,
0001
0000
0000
0000
,
0001
0000
0000
0000
,
0001
0000
0000
0000
,
0000
0000
0000
0000
,
1000
0000
0000
0000
,
1000
0000
0000
0000
,
1000
0000
0000
0000
,
0000
0000
0000
0000
,
0001
0000
0000
0000
,
0001
0000
0000
0000
,
0001
0000
0000
0000
,
0000
0000
0000
0000
,
1001
0000
0000
0000
,
0000
0000
0000
0000
,
1000
0000
0000
0000
,
0100
0000
0000
0000
,
1000
0000
0000
0000
,
0000
0000
0000
0000
,
0001
0000
0000
0000
,
0100
0000
0000
0000
,
0001
0000
0000
0000
,
0000
0000
0000
0000
,
1000
0000
0000
0000
,
0010
0000
0000
0000
,
1000
0000
0000
0000
,
0000
0000
0000
0000
,
0001
0000
0000
0000
,
0010
0000
0000
0000
,
0001
0000
0000
0000
,
0000
0000
0000
0000
,
1000
0000
0000
0000
,
0100
0000
0000
0000
,
0010
0000
0000
0000
,
0001
0000
0000
0000
,
0001
0000
0000
0000
,
0000
0000
0000
0000
,
1000
0000
0000
0000
,
0000
0000
0000
0000
,
0001
0000
0000
0000
,
0100
0000
0000
0000
,
0010
0000
0000
0000
,
1000
0000
0000
0000
,
1000
0000
0000
0000
,
0000
0000
0000
0000
,
0001
0000
0000
0000
,
0000
0000
0000
0000
,
1000
0000
0000
0000
,
0001
0000
0000
0000
,
1000
0000
0001
0000
,
1000
0000
0001
0000
;
