#TITLE:deltadance.com;
#SUBTITLE:;
#ARTIST:NEWFIELD-MORONI-SINCLAIRE;
#TITLETRANSLIT:;
#SUBTITLETRANSLIT:;
#ARTISTTRANSLIT:;
#GENRE:;
#CREDIT:SupremeX;
#MUSIC:deltadance.com.ogg;
#BANNER:deltadance-bn.png;
#BACKGROUND:deltadance-bg.png;
#CDTITLE:;
#SAMPLESTART:0.000;
#SAMPLELENGTH:0.000;
#SELECTABLE:YES;
#OFFSET:-0.058;
#BPMS:0.000=155.054;
#STOPS:;
#DISPLAYBPM:;
#BGCHANGES::0.000=deltadance.com.avi=1.000=0=0=1=====,
99999=-nosongbg-=1.000=0=0=0 // don't automatically add -songbackground-
;
#FGCHANGES:;
#SAMPLESTART:43.365;
#SAMPLELENGTH:12.000000;
#SELECTABLE:YES;

//--------------- dance-single - SupremeX ----------------
#NOTES:
     dance-single:
     SupremeX:
     Beginner:
     1:
     0,0,0,0,0:
0000
0000
0000
0000
,
0000
0000
0000
0000
,
0000
0000
0000
0000
,
1000
0000
0000
0000
,
0001
0000
0000
0000
,
1000
0000
0000
0000
,
0001
0000
0000
0000
,
1000
0000
0000
0000
,
0001
0000
0000
0000
,
1000
0000
0000
0000
,
0001
0000
0000
0000
,
0100
0000
0000
0000
,
0100
0000
0000
0000
,
0100
0000
0000
0000
,
0100
0000
0000
0000
,
0010
0000
0000
0000
,
0010
0000
0000
0000
,
0010
0000
0000
0000
,
0010
0000
0000
0000
,
1000
0000
0000
0000
,
0000
0000
0000
0000
,
0000
0000
0000
0000
,
0000
0000
0000
0000
,
0001
0000
0000
0000
,
0000
0000
0000
0000
,
0000
0000
0000
0000
,
1000
0000
0100
0000
,
1000
0000
0100
0000
,
0001
0000
0001
0000
,
0001
0000
0000
0000
,
1000
0000
0000
0000
,
1000
0000
0000
0000
,
0001
0000
0010
0000
,
0001
0000
0000
0000
,
1000
0000
0000
0000
,
1000
0000
0000
0000
,
0010
0000
0100
0000
,
0010
0000
0000
0000
,
0100
0000
0000
0000
,
0100
0000
0000
0000
,
0010
0000
0100
0000
,
0010
0000
0000
0000
,
0100
0000
0000
0000
,
0100
0000
0000
0000
,
0010
0000
0000
0000
,
0010
0000
0000
0000
,
1000
0000
0000
0000
,
1000
0000
0000
0000
,
0001
0000
0000
0000
,
0001
0000
0000
0000
,
0100
0000
0000
0000
,
0100
0000
0000
0000
,
0100
0000
0000
0000
;

//--------------- dance-single - SupremeX ----------------
#NOTES:
     dance-single:
     SupremeX:
     Easy:
     4:
     0,0,0,0,0:
0000
0000
0000
0000
,
0000
0000
0000
0000
,
0000
0000
0000
0000
,
1000
0001
1000
0001
,
0100
0100
0010
0010
,
1000
0001
1000
0001
,
0100
0100
0010
0010
,
1000
0001
1000
0001
,
0100
0100
0010
0010
,
1000
0001
1000
0001
,
0100
0100
0010
0010
,
1000
0000
1001
0000
,
0001
0000
1001
0000
,
0010
0000
0100
0000
,
0010
0100
0010
0000
,
1000
0000
0110
0000
,
0001
0000
0110
0000
,
1000
0000
0001
0000
,
1000
0001
1000
0000
,
0000
0010
0010
0010
,
0000
0100
0100
0100
,
0000
0000
0000
0001
0000
0000
0000
0000
,
0000
0000
0000
1000
0000
0000
0000
0000
,
0000
0010
0010
0010
,
0000
0100
0100
0100
,
0000
0000
0000
0001
0000
0000
1000
0000
,
0001
1000
0001
1000
,
0010
0100
0010
0100
,
0001
0000
0001
0000
0001
0000
0000
0001
,
0000
0001
0000
1000
,
1000
1000
1000
0000
,
0001
0000
1001
0000
,
1000
1000
1000
1000
,
1000
1000
0000
0000
,
0001
0100
0001
0100
,
0001
0000
1001
0000
,
0010
0010
0010
0010
,
0010
0010
0000
0100
,
0100
0100
0100
0000
,
1001
0000
1001
0000
,
0001
0001
0001
0001
,
0001
0001
0000
1000
,
0001
1000
0001
1000
,
0010
0000
0100
0000
,
0001
0001
0001
0001
,
0100
0010
0100
0010
,
1000
1000
1000
1000
,
0010
0100
0010
0100
,
0001
0001
0001
0001
,
0100
0010
0100
0010
,
1000
1000
1000
1000
,
0010
0100
0010
0100
,
0010
0000
0000
0000
;

//--------------- dance-single - SupremeX ----------------
#NOTES:
     dance-single:
     SupremeX:
     Medium:
     7:
     0,0,0,0,0:
0000
0000
0000
0000
,
0000
0000
0000
0000
,
0000
0000
0000
0000
,
1000
0000
0001
0000
1000
0001
1000
0000
,
0010
0010
0100
0100
,
0001
1000
0001
0000
1000
0001
1000
0000
,
0010
0010
0100
0100
,
0001
1000
0001
0000
1000
0001
1000
0000
,
0010
0010
0100
0100
,
0001
1000
0001
0000
1000
0001
1000
0000
,
0010
0100
0010
0000
0100
0010
0100
0000
,
0001
0001
1000
1000
,
1001
1001
1001
1001
,
0010
0010
0100
0100
,
1001
1001
1001
0000
,
0010
0010
0100
0100
,
1001
1001
1001
1001
,
0010
0100
0010
0100
,
0010
0100
0000
0000
,
1000
0000
0001
0000
1000
0000
0001
0001
,
0000
0000
0100
0000
0010
0000
1000
2000
,
0000
0001
0000
3001
0000
0010
0010
0000
,
0000
1000
0000
0001
0000
0100
0100
0000
,
0000
0000
0001
0000
1000
0000
0001
0002
,
0000
0000
1003
0000
0010
0000
0100
0100
,
0000
0001
0000
1000
0000
0010
0010
0000
,
1000
1000
0001
0001
,
1001
1001
0110
0110
,
1000
0100
1000
0000
0001
0010
0001
0020
,
0000
0001
0031
0000
0000
0000
1000
0000
,
0100
0010
0001
0010
,
0200
1000
1300
0000
,
1000
0010
1000
0000
0001
0100
0001
0001
,
0000
1000
1000
0000
0000
0000
0001
0000
,
0010
0100
1000
0100
,
0020
0001
0031
0000
,
1000
0100
1000
0000
0001
0010
0001
0020
,
0000
0001
0031
0000
0000
0000
1000
0000
,
0100
0010
0001
0010
,
0200
1000
1300
0000
,
1000
0010
1000
0000
0001
0100
0001
0001
,
0000
1000
1000
0000
0000
0000
0001
0000
,
0010
0100
1000
0100
,
0020
0001
0031
0000
,
1000
0100
1000
0000
0100
1000
0100
0000
,
0010
0001
0010
0100
,
1000
0100
1000
0000
0100
1000
0100
0000
,
0010
0001
0010
0100
,
1000
0010
1000
0000
0001
0100
0001
0000
,
1000
0001
1000
0001
,
1000
0010
1000
0000
0001
0100
0001
0000
,
1000
0001
1000
0001
,
1001
0000
0000
0000
;

//--------------- dance-single - SupremeX ----------------
#NOTES:
     dance-single:
     SupremeX:
     Hard:
     11:
     0,0,0,0,0:
0000
0000
0000
0000
,
0000
0000
0000
0000
,
0000
0000
0000
0000
,
0010
0000
0100
0000
0010
0000
0000
1000
0000
0100
1000
0100
1000
0000
0000
0001
,
0010
0000
0001
0000
0010
0001
0010
0001
0000
0010
0100
0000
0100
0010
0000
0000
,
1000
0000
0100
0000
1000
0000
0000
0010
0000
0100
0010
0100
0010
0000
0000
1000
,
0100
0000
1000
0000
0100
1000
0100
1000
0000
0001
0010
0000
0010
0001
0000
0000
,
0010
0000
0100
0000
0010
0000
0000
1000
0000
0100
1000
0100
1000
0000
0000
0001
,
0010
0000
0001
0000
0010
0001
0010
0001
0000
0010
0100
0000
0100
0010
0000
0000
,
1000
0000
0100
0000
1000
0000
0000
0010
0000
0100
0010
0100
0010
0000
0000
1000
,
0100
0000
1000
0000
0100
1000
0100
1000
0000
0001
0010
0000
0010
0001
0000
0000
,
1000
0010
0100
0001
,
0110
1001
0110
0110
,
1000
0100
1000
0000
1000
0100
1000
0000
,
0001
0010
0001
0000
0001
0010
0001
0000
,
1000
0010
0100
0001
,
1001
0110
1001
1001
,
1000
0010
1000
0000
1000
0010
1000
0000
,
0001
0100
0001
0000
0002
0000
1003
0000
,
1000
0000
0010
0100
0010
0100
0010
0010
,
0000
0000
0001
1000
0001
1000
0001
0001
,
0000
1000
0000
1000
0000
0100
0100
0000
,
0000
0001
0000
0001
0000
0010
0010
0000
,
1000
0000
0010
0100
0010
0100
0010
0010
,
0000
0000
1000
0001
1000
0001
1000
1000
,
0000
0100
0000
0010
0000
0001
0001
0000
,
1100
1100
0011
0011
,
1001
0110
1001
0110
,
0001
0001
0001
0000
1000
1000
1000
0002
,
0000
1000
1003
0000
0000
0000
0010
0000
,
0010
0000
0100
0100
0000
0000
0001
0000
,
1000
0001
0100
0010
1000
0001
1000
0000
,
0010
0010
0010
0000
0100
0100
0100
0020
,
0000
0100
0130
0000
0000
0000
1000
0000
,
1000
0000
0001
0001
0000
0000
1000
0000
,
0001
0010
0100
1000
0100
0010
0100
0000
,
0001
0001
0001
0000
1000
1000
1000
0002
,
0000
1000
1003
0000
0000
0000
0010
0000
,
0010
0000
0100
0100
0000
0000
0001
0000
,
1000
0001
0100
0010
1000
0001
1000
0000
,
0010
0010
0010
0000
0100
0100
0100
0020
,
0000
0100
0130
0000
0000
0000
1000
0000
,
1000
0000
0001
0001
0000
0000
1000
0000
,
0002
0023
0230
1300
,
0010
0000
0100
0000
0010
0000
0000
1000
0000
0100
1000
0100
1000
0000
0000
0001
,
0010
0000
0001
0000
0010
0001
0010
0001
0000
0010
0100
0000
0100
0010
0000
0000
,
1000
0000
0100
0000
1000
0000
0000
0010
0000
0100
0010
0100
0010
0000
0000
1000
,
0100
0000
1000
0000
0100
1000
0100
1000
0000
0001
0010
0000
0010
0001
0000
0000
,
0010
0000
0100
0000
0010
0000
0000
1000
0000
0100
1000
0100
1000
0000
0000
0001
,
0010
0000
0001
0000
0010
0001
0010
0001
0000
0010
0100
0000
0100
0010
0000
0000
,
1000
0000
0100
0000
1000
0000
0000
0010
0000
0100
0010
0100
0010
0000
0000
1000
,
0100
0000
1000
0000
0100
1000
0100
1000
0000
0001
0010
0000
0010
0001
0000
0000
,
1001
0000
0000
0000
;
