#VERSION:0.83;
#TITLE:The Limbo;
#SUBTITLE:{ZIv Contest 2025};
#ARTIST:STN;
#TITLETRANSLIT:;
#SUBTITLETRANSLIT:;
#ARTISTTRANSLIT:;
#GENRE:Cyber Punk;
#ORIGIN:beatmania IIDX 19 Lincle;
#TAGS:;
#CREDIT:Marukomuru;
#BANNER:The Limbo-bn.png;
#BACKGROUND:The Limbo-bg.png;
#PREVIEWVID:;
#JACKET:The Limbo-jacket.png;
#CDIMAGE:;
#DISCIMAGE:;
#LYRICSPATH:;
#CDTITLE:cdtitle.png;
#MUSIC:The Limbo.ogg;
#OFFSET:-0.386000;
#SAMPLESTART:24.386000;
#SAMPLELENGTH:12.000000;
#SELECTABLE:YES;
#BPMS:0.000000=200.000000
;
#STOPS:;
#DELAYS:;
#WARPS:;
#TIMESIGNATURES:0.000000=4=4
;
#TICKCOUNTS:0.000000=4
;
#COMBOS:0.000000=1
;
#SPEEDS:0.000000=1.000000=0.000000=0
;
#SCROLLS:0.000000=1.000000
;
#XSCROLLS:0.000000=0.000000 ;
#FAKES:;
#LABELS:0.000000=Song Start
;
#BGCHANGES:0.000=The Limbo-bg.png=1.000=1=0=0=StretchNoLoop==CrossFade==,
99999=-nosongbg-=1.000=0=0=0 // don't automatically add -songbackground-
;
#ATTACKS:
;

//---------------dance-single - Marukomuru----------------
#NOTEDATA:;
#CHARTNAME:Marukomuru;
#CHARTHASH:599901651;
#CHARTTYPE:dance-single;
#STEPSTYPE:dance-single;
#BANNER:;
#DESCRIPTION:Marukomuru;
#CHARTSTYLE:Pad;
#DIFFICULTY:Beginner;
#METER:1;
#METERF:0.000000;
#LASTSECONDHINT:116.786003;
#RADARVALUES:0.108247,0.195478,0.008061,0.000000,0.000000,94.000000,93.000000,1.000000,0.000000,0.000000,0.000000,0.000000,0.000000,0.000000,0.108247,0.195478,0.008061,0.000000,0.000000,94.000000,93.000000,1.000000,0.000000,0.000000,0.000000,0.000000,0.000000,0.000000;
#CREDIT:Marukomuru;
#OFFSET:-0.386000;
#BPMS:0.000000=200.000000
;
#STOPS:;
#DELAYS:;
#WARPS:;
#TIMESIGNATURES:0.000000=4=4
;
#TICKCOUNTS:0.000000=4
;
#COMBOS:0.000000=1
;
#SPEEDS:0.000000=1.000000=0.000000=0
;
#SCROLLS:0.000000=1.000000
,32.000000=0.500000
,56.000000=1.000000
,184.000000=0.500000
,186.000000=0.250000
,188.000000=1.000000
,256.000000=0.500000
,260.000000=1.000000
;
#XSCROLLS:0.000000=0.000000 ;
#FAKES:;
#LABELS:0.000000=Song Start
;
#NOTES:
0000
0000
0000
0000
,
0000
0000
0000
0000
,
0000
0000
0000
0000
,
0000
0000
0000
0000
,
0000
0000
0000
0000
,
0000
0000
0000
0000
,
0000
0000
0000
0000
,
0000
0000
0000
0000
,
1001
0000
0000
0000
,
0000
0000
1000
0000
,
0001
0000
0000
0000
,
0000
0000
1000
0000
,
0100
0000
0000
0000
,
1000
0000
0001
0000
,
1000
0000
0000
0000
,
0001
0000
0000
0000
,
1000
0000
0000
0000
,
0001
0000
0000
0000
,
0010
0000
0000
0000
,
0100
0000
0000
0000
,
1000
0000
0000
0000
,
0010
0000
0000
0000
,
0100
0000
0100
0000
,
0100
0000
0100
0000
,
0001
0000
0000
0000
,
1000
0000
0000
0000
,
0100
0000
0100
0000
,
0100
0000
0100
0000
,
1000
0000
0000
0000
,
0001
0000
0000
0000
,
0010
0000
0000
0000
,
0100
0000
0000
0000
,
1000
0000
0000
0000
,
0001
0000
0000
0000
,
0100
0000
0000
0000
,
0010
0000
0000
0000
,
0100
0000
0000
0000
,
0001
0000
0000
0000
,
1000
0000
0000
0000
,
0001
0000
0000
0000
,
1000
0000
0000
0000
,
0100
0000
0000
0000
,
1000
0000
0000
0000
,
0001
0000
0000
0000
,
0100
0000
0000
0000
,
0010
0000
0000
0000
,
0000
0000
0000
0000
,
1000
0000
0000
0000
,
0100
0000
0000
0000
,
0010
0000
0000
0000
,
0001
0000
0000
0000
,
0100
0000
0000
0000
,
0010
0000
0000
0000
,
1000
0000
0000
0000
,
0010
0000
0000
0000
,
0100
0000
0000
0000
,
0001
0000
0000
0000
,
1000
0000
0000
0000
,
0100
0000
0000
0000
,
0010
0000
0000
0000
,
0001
0000
0000
0000
,
1000
0000
0000
0000
,
0010
0000
0000
0000
,
0100
0000
0000
0000
,
0000
0000
0000
0000
,
0001
0000
0000
0000
,
0010
0000
0000
0000
,
0100
0000
0000
0000
,
1000
0000
0000
0000
,
0001
0000
0000
0000
,
0100
0000
0000
0000
,
0010
0000
0000
0000
,
0100
0000
0000
0000
,
0001
0000
0000
0000
,
0010
0000
0000
0000
,
0100
0000
0000
0000
,
1000
0000
0000
0000
,
0001
0000
0000
0000
,
0100
0000
0000
0000
,
1000
0000
0000
0000
,
0100
0000
0000
0000
,
0001
0000
0000
0000
,
1000
0000
0000
0000
,
0010
0000
0000
0000
,
0001
0000
0000
0000
,
1000
0000
0000
0000
,
0100
0000
0000
0000
,
0010
0000
0000
0000
,
1000
0000
0000
0000
,
0100
0000
0000
0000
,
0010
0000
0000
0000
,
0100
0000
0000
0000
,
1000
0000
0000
0000
,
0010
0000
0000
0000
,
0100
0000
0000
0000
,
0001
0000
0000
0000
,
0010
0000
0000
0000
,
1000
0000
0000
0000
;

//---------------dance-single - Marukomuru----------------
#NOTEDATA:;
#CHARTNAME:Marukomuru;
#CHARTHASH:1570861679;
#CHARTTYPE:dance-single;
#STEPSTYPE:dance-single;
#BANNER:;
#DESCRIPTION:Marukomuru;
#CHARTSTYLE:Pad;
#DIFFICULTY:Easy;
#METER:4;
#METERF:0.000000;
#LASTSECONDHINT:116.786003;
#RADARVALUES:0.246434,0.351860,0.016122,0.008061,0.000000,214.000000,212.000000,2.000000,1.000000,0.000000,0.000000,0.000000,0.000000,0.000000,0.246434,0.351860,0.016122,0.008061,0.000000,214.000000,212.000000,2.000000,1.000000,0.000000,0.000000,0.000000,0.000000,0.000000;
#CREDIT:Marukomuru;
#OFFSET:-0.386000;
#BPMS:0.000000=200.000000
;
#STOPS:;
#DELAYS:;
#WARPS:;
#TIMESIGNATURES:0.000000=4=4
;
#TICKCOUNTS:0.000000=4
;
#COMBOS:0.000000=1
;
#SPEEDS:0.000000=1.000000=0.000000=0
;
#SCROLLS:0.000000=1.000000
,32.000000=0.500000
,56.000000=1.000000
,88.000000=0.000000
,88.500000=2.000000
,89.000000=0.000000
,89.500000=2.000000
,90.000000=0.000000
,90.500000=2.000000
,91.000000=0.000000
,91.500000=2.000000
,92.000000=0.000000
,92.500000=2.000000
,93.000000=0.000000
,93.500000=2.000000
,94.000000=0.000000
,94.500000=2.000000
,95.000000=1.000000
,104.000000=0.000000
,104.500000=2.000000
,105.000000=0.000000
,105.500000=2.000000
,106.000000=0.000000
,106.500000=2.000000
,107.000000=0.000000
,107.500000=2.000000
,108.000000=0.000000
,108.500000=2.000000
,109.000000=0.000000
,109.500000=2.000000
,110.000000=0.000000
,110.500000=2.000000
,111.000000=1.000000
,184.000000=0.500000
,186.000000=0.250000
,188.000000=1.000000
,256.000000=0.500000
,260.000000=1.000000
;
#XSCROLLS:0.000000=0.000000 ;
#FAKES:;
#LABELS:0.000000=Song Start
;
#NOTES:
0000
0000
0000
0000
,
0000
0000
0000
0000
,
0000
0000
0000
0000
,
0000
0000
0000
0000
,
0000
0000
0000
0000
,
0000
0000
0000
0000
,
0000
0000
0000
0000
,
0000
0000
0000
0000
,
1001
0000
0000
0000
,
0000
0000
1000
0001
,
0010
0000
0000
0000
,
0000
0000
0001
1000
,
0010
0000
0000
0000
,
1000
0001
0100
0010
,
1000
0000
0000
0000
0100
0000
0000
1000
,
0000
0001
0000
0000
0100
0000
0000
0000
,
0001
0000
0000
0000
0010
0000
0000
0100
,
0000
0010
0000
0000
0001
0000
0000
0000
,
1000
0000
0000
0000
0010
0000
0000
0100
,
0000
0001
0000
0000
1000
0000
0000
0000
,
0100
0000
0000
0000
0010
0000
0000
0100
,
0000
1000
0000
0000
0001
0000
0000
0000
,
1000
1000
1000
1000
,
1000
1000
1000
1000
,
0001
0000
0000
0000
0010
0000
0000
0100
,
0000
0100
0000
0000
1000
0000
0000
0000
,
0001
0001
0001
0001
,
0001
0001
0001
0001
,
1000
0000
0000
0000
0010
0000
0000
0100
,
0000
0100
0000
0000
0001
0000
0000
0000
,
1000
0000
0100
0000
,
0010
0000
0100
0000
,
1000
0000
0001
0000
,
0100
0000
0010
0000
,
0100
0000
0010
0000
,
1000
0000
0100
0000
,
1000
0000
0001
0000
,
0100
0000
0010
0000
,
1000
0000
1000
0000
,
1000
0000
0010
0000
,
0100
0000
0100
0000
,
0100
0000
0001
0000
,
0010
0000
0010
0000
,
0010
0000
0100
0000
,
0001
0000
0001
0000
,
0001
0000
0100
0000
,
2000
0000
3000
0000
,
0001
0000
0100
0000
,
0001
0000
1000
0000
,
0100
0000
1000
0000
,
0001
0000
0100
0000
,
0010
0000
0100
0000
,
0001
0000
0010
0000
,
0100
0000
1000
0000
,
0010
0000
0100
0000
,
0001
0000
1000
0000
,
0100
0000
0010
0000
,
0100
0000
1000
0000
,
0010
0000
0100
0000
,
0001
0000
1000
0000
,
0100
0000
0001
0000
,
0100
0000
1000
0000
,
0001
0000
0100
0000
,
1000
0000
0100
0000
,
0001
0000
0000
0000
,
1000
0000
0100
0000
,
1000
0001
0100
0000
,
0001
0000
0010
0000
,
0100
1000
0100
0000
,
1000
0000
0001
0000
,
0100
0000
0010
0000
,
1000
0100
1000
0000
,
0001
0100
0001
0000
,
1000
0000
0010
0000
,
0100
0001
0100
0000
,
0010
0000
1000
0000
,
0100
0010
0100
0000
,
1000
0000
0001
0000
,
0100
0010
0100
0000
,
0001
0000
1000
0000
,
0100
1000
0100
0000
,
0010
0001
0010
0000
,
0001
0100
0001
0000
,
1000
0100
1000
0000
,
0010
1000
0010
0000
,
0100
0001
0100
0000
,
0001
0010
0100
0000
,
1000
0001
0100
0000
,
1000
0100
0001
1000
,
0100
0000
0100
0000
,
0100
1000
0100
0000
,
1000
0000
1000
0000
,
1000
0001
1000
0000
,
0001
0000
0001
0000
,
0001
0010
0001
0000
,
0010
0000
0010
0000
,
0010
0100
0010
0100
,
0110
0000
0000
0000
;

//---------------dance-single - Marukomuru----------------
#NOTEDATA:;
#CHARTNAME:Marukomuru;
#CHARTHASH:3332175239;
#CHARTTYPE:dance-single;
#STEPSTYPE:dance-single;
#BANNER:;
#DESCRIPTION:Marukomuru;
#CHARTSTYLE:Pad;
#DIFFICULTY:Medium;
#METER:12;
#METERF:0.000000;
#LASTSECONDHINT:117.986008;
#RADARVALUES:0.444503,0.671476,0.088670,0.806094,0.000000,386.000000,375.000000,11.000000,100.000000,0.000000,0.000000,1.000000,0.000000,0.000000,0.444503,0.671476,0.088670,0.806094,0.000000,386.000000,375.000000,11.000000,100.000000,0.000000,0.000000,1.000000,0.000000,0.000000;
#CREDIT:Marukomuru;
#OFFSET:-0.386000;
#BPMS:0.000000=200.000000
;
#STOPS:;
#DELAYS:;
#WARPS:;
#TIMESIGNATURES:0.000000=4=4
;
#TICKCOUNTS:0.000000=4
;
#COMBOS:0.000000=1
;
#SPEEDS:0.000000=1.000000=0.000000=0
;
#SCROLLS:0.000000=1.000000
,32.000000=0.500000
,56.000000=1.000000
,88.000000=0.000000
,88.250000=2.000000
,88.500000=0.000000
,88.750000=2.000000
,89.000000=0.000000
,89.250000=2.000000
,89.500000=0.000000
,89.750000=2.000000
,90.000000=0.000000
,90.250000=2.000000
,90.500000=0.000000
,90.750000=2.000000
,91.000000=0.000000
,91.250000=2.000000
,91.500000=0.000000
,91.750000=2.000000
,92.000000=0.000000
,92.250000=2.000000
,92.500000=0.000000
,92.750000=2.000000
,93.000000=0.000000
,93.250000=2.000000
,93.500000=0.000000
,93.750000=2.000000
,94.000000=0.000000
,94.250000=2.000000
,94.500000=1.000000
,104.000000=0.000000
,104.250000=2.000000
,104.500000=0.000000
,104.750000=2.000000
,105.000000=0.000000
,105.250000=2.000000
,105.500000=0.000000
,105.750000=2.000000
,106.000000=0.000000
,106.250000=2.000000
,106.500000=0.000000
,106.750000=2.000000
,107.000000=0.000000
,107.250000=2.000000
,107.500000=0.000000
,107.750000=2.000000
,108.000000=0.000000
,108.250000=2.000000
,108.500000=0.000000
,108.750000=2.000000
,109.000000=0.000000
,109.250000=2.000000
,109.500000=0.000000
,109.750000=2.000000
,110.000000=0.000000
,110.250000=2.000000
,110.500000=1.000000
,184.000000=0.500000
,186.000000=1.500000
,188.000000=0.500000
,258.000000=0.250000
,260.000000=1.000000
,388.000000=0.500000
,400.000000=1.000000
;
#XSCROLLS:0.000000=0.000000 ;
#FAKES:;
#LABELS:0.000000=Song Start
;
#NOTES:
0000
0000
0000
0000
,
0000
0000
0000
0000
,
0000
0000
0000
0000
,
0000
0000
0000
0000
,
0000
1000
0100
0010
,
0001
0000
0100
0000
0000
0020
0000
0000
,
0030
0000
0000
0000
,
1000
0000
0000
0010
0000
0000
0100
0000
,
0110
0000
0000
0000
,
0000
0000
0001
1000
,
0100
1000
0001
0100
0000
0000
0000
0000
,
0000
0000
0001
1000
,
0100
1000
0001
0100
0000
0000
0000
0000
,
0001
0000
0010
0000
0100
1000
0100
0000
,
1100
0000
0100
0000
1000
0000
0100
1000
,
0000
1000
0100
0000
1000
0001
0100
0000
,
0101
0000
0100
0000
0001
0000
0100
0001
,
0000
0001
0100
0000
0001
1000
0100
0000
,
0110
0000
0100
0000
0010
0000
0100
0010
,
0000
0010
0100
0000
0010
0001
0100
0000
,
0110
0000
0100
0000
0010
0000
0100
0010
,
0000
0010
0100
0000
0001
0010
0100
0000
,
1000
0100
1000
0100
1000
0100
1000
0100
,
1000
0100
1000
0100
2000
3001
0000
0000
,
1000
0001
1000
0000
1001
0000
0001
1000
,
0000
1000
0001
0000
0010
0100
1000
0000
,
0001
0100
0001
0100
0001
0100
0001
0100
,
0001
0100
0001
0100
0002
1003
0000
0000
,
0001
1000
0001
1000
0001
0000
1000
0001
,
0000
0001
1000
0000
0100
0010
0001
0000
,
2000
3200
0320
0230
,
2300
3020
0230
2300
,
3200
0302
2003
3200
,
0302
0203
2300
3020
,
0230
0302
0023
0230
,
0320
0032
0203
0320
,
0032
0023
2030
3002
,
0023
0230
2300
3002
,
0103
0001
0000
0100
0001
0000
0100
0001
,
0000
0200
0302
2003
,
3100
1000
0000
0100
1000
0000
0100
1000
,
0000
0200
2300
3020
,
1030
0010
0000
1000
0010
0000
1000
0010
,
0000
2000
3002
0023
,
0031
0010
0000
0001
0010
0000
0001
0010
,
0000
0001
0010
0000
0001
0010
0001
0010
,
0002
0000
0000
0000
4000
0000
0000
3003
,
0002
0000
0000
0000
,
0023
0000
0000
0000
,
0230
0000
0000
0000
,
2300
0000
0000
0000
,
3002
0000
0203
0000
,
0320
0000
2030
0000
,
3200
0000
0302
0000
,
0203
0000
2300
0000
,
3002
0000
0000
0000
,
2003
0000
0000
0000
,
3020
0000
0000
0000
,
0230
0000
0000
0000
,
0302
0000
2003
0000
,
3200
0000
0302
0000
,
0203
0000
2300
0000
,
3002
0000
0203
0000
,
2300
0000
3002
0000
,
0023
0000
0030
0000
,
1000
0100
0010
0001
,
0100
0000
0010
0000
1000
0000
0100
1000
,
0100
0010
0001
0100
,
1000
0000
0100
0000
0001
0000
1000
0001
,
1000
0000
0001
0100
0001
0000
1000
0100
,
1000
0001
0010
0100
,
1000
0000
0001
0010
0001
0000
1000
0010
,
1000
0000
0001
0010
0001
0000
0100
0000
,
0001
0010
0100
1000
,
0010
0000
0100
0000
0001
0000
0010
0001
,
0010
0100
1000
0010
,
0001
0000
0010
0000
1000
0000
0001
1000
,
0001
0000
1000
0010
1000
0000
0001
0010
,
0001
1000
0100
0010
,
0001
0000
1000
0100
1000
0000
0001
0100
,
0001
0000
1000
0100
1000
0000
0010
0000
,
2000
3200
0320
0230
,
2300
0000
3020
0000
0230
0000
0310
1000
,
0200
0320
0032
0203
,
0320
0000
0230
0000
0302
0000
0013
0100
,
2000
3002
0203
2300
,
3200
0000
0302
0000
2003
0000
3100
0010
,
0002
0203
2300
3002
,
0023
0000
2030
0000
3100
0010
0001
0100
,
0010
0000
1000
0100
0000
1000
0000
1000
,
0000
1000
0000
0001
0100
0000
0001
0000
,
0101
0000
0001
0100
0000
0001
0000
0001
,
0000
0001
0000
1000
0100
0000
1100
0000
,
1100
0000
0000
1000
0001
0000
0000
0100
,
0000
0100
0000
0010
1000
0000
1010
0000
,
1010
0000
1000
0100
1000
0100
1000
0001
,
0100
0001
0100
0001
1000
0100
0010
0001
,
2000
0000
0000
0000
,
3000
0000
0000
0000
;

//---------------dance-single - Marukomuru----------------
#NOTEDATA:;
#CHARTNAME:Marukomuru;
#CHARTHASH:3724267015;
#CHARTTYPE:dance-single;
#STEPSTYPE:dance-single;
#BANNER:;
#DESCRIPTION:Marukomuru;
#CHARTSTYLE:Pad;
#DIFFICULTY:Hard;
#METER:15;
#METERF:0.000000;
#LASTSECONDHINT:119.186005;
#RADARVALUES:0.728939,0.837935,0.032244,0.822216,0.253920,633.000000,629.000000,4.000000,102.000000,0.000000,0.000000,0.000000,0.000000,0.000000,0.728939,0.837935,0.032244,0.822216,0.253920,633.000000,629.000000,4.000000,102.000000,0.000000,0.000000,0.000000,0.000000,0.000000;
#CREDIT:Marukomuru;
#OFFSET:-0.386000;
#BPMS:0.000000=200.000000
;
#STOPS:;
#DELAYS:;
#WARPS:;
#TIMESIGNATURES:0.000000=4=4
;
#TICKCOUNTS:0.000000=4
;
#COMBOS:0.000000=1
;
#SPEEDS:0.000000=1.000000=0.000000=0
,186.000000=0.750000=0.000000=0
,186.125000=1.250000=0.000000=0
,186.250000=0.500000=0.000000=0
,186.375000=1.500000=0.000000=0
,186.500000=0.750000=0.000000=0
,186.625000=1.250000=0.000000=0
,186.750000=0.500000=0.000000=0
,186.875000=1.500000=0.000000=0
,187.000000=0.750000=0.000000=0
,187.125000=1.250000=0.000000=0
,187.250000=0.500000=0.000000=0
,187.375000=1.500000=0.000000=0
,187.500000=0.750000=0.000000=0
,187.625000=1.250000=0.000000=0
,187.750000=0.500000=0.000000=0
,187.875000=1.500000=0.000000=0
,188.000000=1.000000=0.000000=0
;
#SCROLLS:0.000000=1.000000
,32.000000=0.500000
,56.000000=1.000000
,88.000000=0.000000
,88.250000=2.000000
,88.500000=0.000000
,88.750000=2.000000
,89.000000=0.000000
,89.250000=2.000000
,89.500000=0.000000
,89.750000=2.000000
,90.000000=0.000000
,90.250000=2.000000
,90.500000=0.000000
,90.750000=2.000000
,91.000000=0.000000
,91.250000=2.000000
,91.500000=0.000000
,91.750000=2.000000
,92.000000=0.000000
,92.250000=2.000000
,92.500000=0.000000
,92.750000=2.000000
,93.000000=0.000000
,93.250000=2.000000
,93.500000=0.000000
,93.750000=2.000000
,94.000000=0.000000
,94.250000=2.000000
,94.500000=1.000000
,104.000000=0.000000
,104.250000=2.000000
,104.500000=0.000000
,104.750000=2.000000
,105.000000=0.000000
,105.250000=2.000000
,105.500000=0.000000
,105.750000=2.000000
,106.000000=0.000000
,106.250000=2.000000
,106.500000=0.000000
,106.750000=2.000000
,107.000000=0.000000
,107.250000=2.000000
,107.500000=0.000000
,107.750000=2.000000
,108.000000=0.000000
,108.250000=2.000000
,108.500000=0.000000
,108.750000=2.000000
,109.000000=0.000000
,109.250000=2.000000
,109.500000=0.000000
,109.750000=2.000000
,110.000000=0.000000
,110.250000=2.000000
,110.500000=1.000000
,184.000000=0.250000
,186.000000=1.000000
,188.000000=0.500000
,256.500000=0.250000
,260.000000=1.000000
,388.000000=0.500000
,400.000000=1.000000
;
#XSCROLLS:0.000000=0.000000 ;
#FAKES:;
#LABELS:0.000000=Song Start
;
#NOTES:
// measure 0
0000
0000
0000
0000
,  // measure 1
0000
0000
0000
0000
,  // measure 2
0000
0000
0000
0000
,  // measure 3
0000
0000
0000
0000
,  // measure 4
0000
0002
0203
0320
2030
3200
0302
0000
,  // measure 5
0003
0000
0200
0000
0000
2300
0000
0000
,  // measure 6
0002
3003
0000
0000
0000
0000
0000
0000
,  // measure 7
2000
0000
3000
0020
0000
0030
0200
0300
,  // measure 8
0110
0010
1000
0100
0000
0010
0001
0100
,  // measure 9
0000
0001
0010
0100
1000
1000
0010
0100
,  // measure 10
0001
1000
0100
1000
0000
0001
0100
0010
,  // measure 11
0000
1000
0010
0100
0001
0001
0100
0010
,  // measure 12
1000
0001
0010
0100
0000
1000
0010
0100
,  // measure 13
0100
0001
0010
1000
0010
0010
0001
0100
,  // measure 14
0001
1000
0100
0000
1100
1000
0001
0100
,  // measure 15
0000
0001
1000
0100
0010
0100
1000
0001
,  // measure 16
0100
1000
0100
0000
0101
0001
1000
0100
,  // measure 17
0000
1000
0001
0100
0010
0100
0001
1000
,  // measure 18
0100
0001
0100
0000
1100
1000
0010
0100
,  // measure 19
0000
0001
0010
0100
0010
0001
0100
1000
,  // measure 20
0100
0000
0001
0000
0010
0000
0000
0000
0100
0000
1000
0000
0001
0000
0100
0001
,  // measure 21
0100
0000
0001
0100
0001
0000
1000
0000
0100
0000
0010
0000
0001
0100
0010
1000
,  // measure 22
0100
0100
0100
0100
0100
0100
0100
0100
,  // measure 23
0100
0100
0100
0100
0200
2000
3300
0000
,  // measure 24
0001
0100
0001
0000
1000
0100
1000
0001
,  // measure 25
0000
0010
0100
0000
1000
0010
0100
0001
,  // measure 26
0010
0010
0010
0010
0010
0010
0010
0010
,  // measure 27
0010
0010
0010
0010
0020
0200
0330
0000
,  // measure 28
1000
0000
0001
0000
1000
0000
0100
0000
1000
0000
0000
0000
0001
0000
1000
0100
,  // measure 29
1000
0000
0001
0100
0001
0000
1000
0000
0100
0000
0010
0000
0001
0010
0001
0010
,  // measure 30
0002
0000
0203
0000
0320
0000
1030
0100
,  // measure 31
0000
0100
2000
0000
3010
0100
0002
0000
,  // measure 32
2003
0000
3200
0000
0320
0000
0031
0100
,  // measure 33
0000
0100
0002
0000
1003
0100
0010
0100
,  // measure 34
2000
0000
3020
0000
0230
0000
0301
0010
,  // measure 35
0000
0010
0002
0000
0103
0010
2000
0000
,  // measure 36
3200
0000
0320
0000
0230
0000
1300
0010
,  // measure 37
0000
0000
0010
0000
2000
0000
0000
0000
3001
0000
0010
0000
0100
1000
0100
1000
,  // measure 38
0100
1000
0001
1000
0100
1000
0001
1000
,  // measure 39
0100
1000
0020
0000
0230
0302
0023
0230
,  // measure 40
1300
0001
0100
0001
1000
0001
0100
0001
,  // measure 41
1000
0001
0200
0000
0320
2030
3002
0023
,  // measure 42
0130
1000
0010
1000
0100
1000
0010
1000
,  // measure 43
0100
1000
0020
0000
0230
0302
0023
0230
,  // measure 44
1300
0100
1000
0100
0001
0100
0001
0100
,  // measure 45
1000
0000
0001
0000
0100
0000
1000
0000
0100
0000
0001
0000
1000
0100
0010
0001
,  // measure 46
0200
0000
0000
0000
0020
0000
0000
0330
,  // measure 47
1000
0000
0000
0000
0100
0000
0000
0010
0000
0000
0001
0000
0010
0000
0100
0000
,  // measure 48
1000
0000
0000
0000
0010
0000
0000
0100
0000
0000
0001
0000
0100
0000
0010
0000
,  // measure 49
1000
0000
0000
0000
0100
0000
0000
0010
0000
0000
0001
0000
0010
0000
0100
0000
,  // measure 50
1000
0000
0000
0000
0010
0000
0000
0100
0000
0000
0001
0000
0100
0000
0010
0000
,  // measure 51
1000
0000
0000
0100
0000
0000
0001
0000
0100
0000
0000
1000
0000
0000
0001
0000
,  // measure 52
0100
0000
0000
1000
0000
0000
0100
0000
0001
0000
0000
1000
0000
0000
0100
0000
,  // measure 53
0010
0000
0000
0001
0000
0000
0010
0000
1000
0000
0000
0010
0000
0000
0001
0000
,  // measure 54
1000
0000
0000
0010
0000
0000
0001
0000
0010
0000
1000
0000
0100
0000
0010
0000
,  // measure 55
0001
0000
0000
0000
0100
0000
0000
0010
0000
0000
1000
0000
0010
0000
0100
0000
,  // measure 56
0001
0000
0000
0000
0010
0000
0000
0100
0000
0000
1000
0000
0100
0000
0010
0000
,  // measure 57
0001
0000
0000
0000
0100
0000
0000
0010
0000
0000
1000
0000
0010
0000
0100
0000
,  // measure 58
0001
0000
0000
0000
0010
0000
0000
0100
0000
0000
1000
0000
0100
0000
0010
0000
,  // measure 59
0001
0000
1000
0000
0100
0000
0010
0000
0100
0000
0000
1000
0000
0000
0001
0000
,  // measure 60
0100
0000
0010
0000
1000
0000
0100
0000
0010
0000
0000
0001
0000
0000
1000
0000
,  // measure 61
0010
0000
0000
0100
0000
0000
0001
0000
1000
0000
0000
0100
0000
0000
0010
0000
,  // measure 62
0001
0100
0010
0100
0001
0010
0100
1000
,  // measure 63
0001
0100
1000
0001
0010
1000
0100
0001
,  // measure 64
0100
2000
0000
0000
3000
0000
0000
0000
,  // measure 65
0001
0000
0000
1000
0000
0000
0010
0000
0000
0000
0100
0000
0001
0000
1000
0000
,  // measure 66
0100
0000
0000
1000
0000
0000
0010
0000
0000
0000
0100
0000
0001
0000
1000
0000
,  // measure 67
0100
0000
0000
0010
0000
0000
0001
0000
0000
0000
0100
0000
0010
0000
1000
0000
,  // measure 68
0100
0000
0000
1000
0000
0000
0010
0000
0000
0000
0100
0000
0001
0000
0010
0000
,  // measure 69
0200
0000
0000
2300
0000
0000
3020
0000
0032
0000
0000
0023
0000
0000
2030
0000
,  // measure 70
3200
0000
0000
2300
0000
0000
3020
0000
0230
0000
0000
2300
0000
0000
3200
0000
,  // measure 71
0320
0000
0000
2030
0000
0000
3200
0000
0320
0000
0000
0032
0000
0000
0203
0000
,  // measure 72
0320
0000
0000
2030
0000
0000
3200
0000
0302
0000
0203
0000
2300
0000
3100
1000
,  // measure 73
0100
0000
0000
1000
0000
0000
0010
0000
0000
0000
0100
0000
0001
0000
1000
0000
,  // measure 74
0100
0000
0000
0010
0000
0000
1000
0000
0000
0000
0010
0000
0001
0000
0100
0000
,  // measure 75
0010
0000
0000
1000
0000
0000
0100
0000
0000
0000
0010
0000
0001
0000
0100
0000
,  // measure 76
2000
0000
0000
0000
3002
0000
0000
0000
0023
0000
0000
1030
0000
0000
0001
0000
,  // measure 77
2000
0000
0000
3200
0000
0000
0320
0000
0032
0000
0000
2003
0000
0000
3200
0000
,  // measure 78
0302
0000
0000
0203
0000
0000
2300
0000
3002
0000
0203
0000
0310
0000
1000
0010
,  // measure 79
2000
0000
0000
3200
0000
0000
0302
0000
0203
0000
0000
2300
0000
0000
3020
0000
,  // measure 80
0032
0000
0000
0023
0000
0000
2030
0000
3002
0000
0023
0000
0130
1000
0100
1000
,  // measure 81
0100
1000
0010
0100
0001
0010
0100
1000
,  // measure 82
0010
0100
0010
1000
0100
0010
0001
0100
,  // measure 83
0010
0100
0001
0010
0100
1000
0001
0100
,  // measure 84
0010
1000
0100
0001
0100
1000
0001
0100
,  // measure 85
1000
0100
0010
1000
0100
0001
0100
1000
,  // measure 86
0010
0001
0010
1000
0001
0010
0100
1000
,  // measure 87
0010
0100
0001
0010
1000
0001
0100
1000
,  // measure 88
0001
0000
0010
0000
1000
0000
0001
0000
0100
0000
1000
0000
0001
0100
0010
1000
,  // measure 89
0100
1000
0001
0100
0000
0001
1000
0100
,  // measure 90
0000
0010
0001
1000
0000
0010
0100
0001
,  // measure 91
1000
0100
0001
0100
0000
1000
0001
0100
,  // measure 92
0000
0000
0010
0000
1000
0000
0001
0000
0010
0000
0100
0000
1000
0000
0010
1000
,  // measure 93
0010
1000
0010
1000
0001
0100
0001
0100
,  // measure 94
0001
1000
0001
1000
0100
0010
0100
0010
,  // measure 95
0001
0100
0010
1000
0100
0001
0100
0010
,  // measure 96
0001
0000
0100
0000
0010
0000
1000
0000
0100
0010
0001
0100
0010
1000
0100
0010
,  // measure 97
0002
0000
0000
0000
,  // measure 98
0000
0000
0000
0000
,  // measure 99
0003
0000
0000
0000
;
