#TITLE:The Cursing Song;
#SUBTITLE:;
#ARTIST:?Taku Takahashi with AYUNJE;
#TITLETRANSLIT:;
#SUBTITLETRANSLIT:;
#ARTISTTRANSLIT:;
#GENRE:;
#CREDIT:;
#BANNER:The Cursing Song.png;
#BACKGROUND:The Cursing Song-bg.png;
#LYRICSPATH:;
#CDTITLE:;
#MUSIC:The Cursing Song.ogg;
#OFFSET:-0.050000;
#SAMPLESTART:104.369003;
#SAMPLELENGTH:12.000000;
#SELECTABLE:YES;
#BPMS:0.000000=184.000000
;
#STOPS:
;
#BGCHANGES:0.000=The Cursing Song.mp4=1.000=0=0=1==The Cursing Song.mp4===,
99999=-nosongbg-=1.000=0=0=0 // don't automatically add -songbackground-
;
#KEYSOUNDS:;
#ATTACKS:;

//---------------dance-single - ----------------
#NOTES:
     dance-single:
     :
     Easy:
     7:
     0.279891,0.375950,0.214828,0.025779,0.021483,228.000000,203.000000,25.000000,3.000000,0.000000,0.000000,0.279891,0.375950,0.214828,0.025779,0.021483,228.000000,203.000000,25.000000,3.000000,0.000000,0.000000:
0000
0000
0000
0000
,
0000
0000
0000
0000
,
0000
0000
0000
0000
,
0000
0000
0000
0000
,
0000
0000
0000
0000
,
0000
0000
0000
0000
,
0000
0000
0000
0000
,
0000
0000
0000
0000
,
1001
0000
0000
0000
,
0000
0000
0000
0000
,
1001
0000
0000
0000
,
0000
0000
0000
0000
,
1001
0000
0000
0000
,
0000
0000
0000
0000
,
1001
0000
0000
0000
,
1001
0000
0000
0000
,
1000
0000
1000
0000
,
1000
0000
1000
0000
,
0100
0000
0100
0000
,
0100
0000
0100
0000
,
0010
0000
0010
0000
,
0010
0000
0010
0000
,
0001
0000
0001
0000
,
0001
0000
0000
0000
,
0001
0000
0100
0000
,
0010
1000
0100
0010
,
0001
0000
0010
0000
,
0100
0100
1000
0001
,
0100
0000
0010
0000
,
0100
0100
0001
1000
,
0100
0000
0000
0000
0000
0000
0010
0000
0000
0000
0000
0001
,
0000
0000
0001
0000
0000
0000
1000
0000
0000
0000
0000
0000
,
0010
0000
0100
0001
,
1001
0000
0000
0000
,
0100
0000
0010
0001
,
1001
0000
0000
0000
,
0100
0000
0010
1000
,
1100
0000
0000
0000
,
0010
0000
0001
0100
,
0110
0000
0000
0000
,
0010
0000
1000
0100
,
0010
0010
0000
0000
,
0001
0000
0100
0010
,
1000
1000
0000
0000
,
0100
0000
0010
0000
,
0011
0001
0100
0000
,
0010
1000
0100
0010
,
1001
0000
0000
0000
,
0001
0100
0001
0100
,
0001
0100
0001
0100
,
1000
0100
1000
0100
,
1000
0100
1000
0100
,
0001
0010
0001
0010
,
0001
0010
0001
0010
,
1000
0000
1000
0000
,
1000
0000
0010
0001
,
0101
0000
0000
0000
0100
0000
0000
0010
,
0000
0010
0000
0000
1000
0000
0100
0000
,
0110
0000
0000
0000
0001
0000
0000
0100
,
0000
0100
0000
0000
0010
0000
1000
0000
,
1100
0000
0000
0000
0100
0000
0000
0010
,
0000
0010
0000
0000
0001
0000
0100
0000
,
0110
0000
0000
0000
,
1001
0000
0110
0100
,
1001
0001
0010
0000
,
0100
0000
1000
0010
,
0100
0010
1000
0100
,
0020
0030
0000
0001
,
0100
0010
0100
0100
,
0001
0000
0000
1000
,
0100
0000
0000
0010
0000
0000
0001
0000
0001
0000
0000
1000
,
0000
0000
0000
1000
,
0010
1000
0100
0010
,
1000
0000
1000
0010
,
0011
0001
0100
0010
,
0001
0000
0001
0010
,
1010
1000
0100
0000
,
0220
0000
0330
0000
0000
0000
0000
0000
0000
0000
0000
0000
,
1001
0000
0100
0000
,
0001
0000
0001
0000
0000
0000
0000
0000
0000
0000
0000
0000
,
0000
0000
1000
0100
,
0010
0100
0001
0100
,
0010
0100
1000
0010
,
0100
0001
0010
0100
,
1000
0010
0001
0010
,
0100
0010
1000
0010
,
0100
0001
1001
0000
,
1001
0000
1001
0000
,
0000
0000
0000
0000
,
0000
0000
0000
0000
;

//---------------dance-single - ----------------
#NOTES:
     dance-single:
     :
     Medium:
     10:
     0.418608,0.601519,0.489809,0.025779,0.279277,341.000000,284.000000,57.000000,3.000000,0.000000,0.000000,0.418608,0.601519,0.489809,0.025779,0.279277,341.000000,284.000000,57.000000,3.000000,0.000000,0.000000:
0000
0000
0000
0000
,
0000
0000
0000
0000
,
0000
0000
0000
0000
,
0000
0000
0000
0000
,
0000
0000
0000
0000
,
0000
0000
0000
0000
,
0000
0000
0000
0000
,
0000
0000
0000
0000
,
1001
0000
0001
0000
,
0100
0100
0010
1000
,
1100
0000
0100
0000
,
0010
0010
0001
0100
,
0110
0000
1000
0000
,
0001
0001
0010
0100
,
1100
0000
0001
0000
,
0101
0000
0010
1000
,
1100
0000
1100
0000
,
1100
0000
1100
0000
,
0011
0000
0011
0000
,
0011
0000
0011
0000
,
0101
0000
0101
0000
,
0101
0000
0101
0000
,
1010
0000
1010
0000
,
1010
0000
0000
0000
,
1000
0100
0010
0000
,
0001
0001
0100
0010
,
1000
0000
0010
0000
,
0100
0100
0001
1000
,
0100
0000
0010
0000
,
0100
0100
1000
0001
,
0100
0000
0000
0000
0000
0100
0001
0000
0100
0000
0000
0010
,
0000
0000
0010
0000
0000
1000
0100
0000
0000
0010
0000
0000
,
0001
0000
0000
0000
0000
0000
0000
0000
0000
0001
0000
0000
0010
0000
0000
0000
0001
0000
0000
0000
0000
0000
0010
0000
,
0000
0000
0010
0000
0000
0000
0001
0000
0000
1000
0000
0000
,
0010
0000
0000
0100
0000
0000
0010
0000
1000
0000
0000
0100
,
0000
0000
0100
0000
0000
0000
0010
0000
0000
0001
0000
0000
,
0100
0000
0000
0010
0000
0000
0100
0000
0001
0000
0000
1000
,
0000
0000
0100
0000
0000
0000
0100
0000
0100
0010
0000
0000
,
0001
0000
0000
0100
0000
0000
1000
0000
0100
0000
0000
0010
,
0000
0000
0010
0000
0000
0000
1000
0000
0000
0100
0000
0000
,
0110
0000
0000
0000
0000
0001
1000
0000
0001
1000
0000
0000
,
0010
0010
0000
1000
,
1001
0000
0000
0001
0000
0000
0010
0000
0100
0000
0000
1000
,
0000
0000
1000
0000
0000
0000
0010
0000
0000
0100
0000
0000
,
0101
0001
0010
0001
,
0100
0000
0000
0010
0000
0100
0000
0000
0000
0001
0000
0000
,
0011
1000
0100
0010
,
1001
0000
0000
0000
0000
0000
1000
0000
1000
0001
0000
0000
,
0100
1000
0100
0001
,
0100
1000
0100
0001
,
0010
1000
0010
0001
,
0010
1000
0010
0001
,
0100
0001
0010
0001
,
0100
0001
0010
0001
,
1001
0000
1001
0000
,
1001
0000
1000
0001
,
0101
0000
0000
0000
0000
0001
0100
0000
0001
0100
0000
0001
,
0000
0000
0000
0000
0000
1000
0100
0000
1000
0100
0000
1000
,
0100
0000
0000
0000
0000
0010
0001
0000
0010
0001
0000
1000
,
0000
0000
1000
0000
0000
0000
0010
0000
0000
0100
0000
0000
,
0110
0000
0000
0000
0000
0100
0010
0000
0100
0010
0000
0010
,
0000
0000
0000
0000
0000
1000
0001
0000
1000
0001
0000
1000
,
0001
0000
0000
0000
0000
0000
0000
0000
0000
0001
0000
1000
,
0000
0000
0000
0001
0000
1000
0000
0000
0000
0001
0000
1000
,
0100
0000
0000
0010
0000
0000
0100
0000
1000
0000
0000
0001
,
0000
0000
0000
0001
0000
0000
0100
0000
0010
0000
0000
0001
,
0000
0000
0000
0010
0000
0000
0100
0000
0000
0001
0000
1000
,
0000
0000
1000
0000
0000
1000
0100
0000
0000
0010
0000
0000
,
0011
0000
0000
0001
0000
0000
0100
0000
0010
0000
0000
2000
,
0000
0000
0000
3000
0000
0000
0000
0000
0010
0100
0000
0000
,
0001
0000
0000
1000
0000
0000
0100
0000
0100
0000
0000
0220
,
0000
0000
0330
0000
0000
0000
0000
0000
0000
0010
0000
0000
,
1001
0000
0000
0001
0000
0000
0100
0000
0010
0000
0000
0100
,
0000
0000
0011
0001
,
0101
0000
0000
0100
0000
0000
0010
0000
1000
0000
0000
0100
,
0000
0000
0010
0001
,
1001
0000
0001
0100
0010
0100
0000
0000
,
1001
0000
1001
0000
0000
0001
1000
0000
1000
0100
0000
0000
,
0110
0000
0011
0000
,
1001
0000
1001
0000
0000
0000
0000
0000
0000
0000
0000
0000
,
0001
0000
0001
0100
0000
0000
1100
0000
0000
0100
0000
0000
,
0110
0100
0101
0100
,
0110
0000
1001
0100
,
1001
0010
1001
0100
,
1001
0000
0011
0010
,
0110
0010
1010
0010
,
0110
0000
1001
0000
,
1001
0000
1001
0000
,
0000
0000
0000
0000
,
0000
0000
0000
0000
;

//---------------dance-single - ----------------
#NOTES:
     dance-single:
     :
     Hard:
     12:
     0.494719,0.601519,0.506995,0.146083,0.399581,403.000000,344.000000,59.000000,17.000000,73.000000,0.000000,0.494719,0.601519,0.506995,0.146083,0.399581,403.000000,344.000000,59.000000,17.000000,73.000000,0.000000:
// measure 0
0000
0000
0000
0000
,  // measure 1
0000
0000
0000
0000
,  // measure 2
0000
0000
0000
0000
,  // measure 3
0000
0000
0000
0000
,  // measure 4
0000
0000
0000
0000
,  // measure 5
0000
0000
0000
0000
,  // measure 6
0000
0000
0000
0000
,  // measure 7
0000
0000
0000
0000
,  // measure 8
1001
0000
0000
0000
0000
0000
0001
0000
0001
0000
0000
0100
,  // measure 9
0000
0000
0100
0000
0000
0000
0010
0000
0000
1000
0000
0000
,  // measure 10
1001
0000
0000
0000
0000
0000
1000
0000
1000
0000
0000
0100
,  // measure 11
0000
0000
0100
0000
0000
0000
0010
0000
0000
0001
0000
0000
,  // measure 12
0101
0000
0000
0000
0000
0000
1000
0000
0100
0000
0000
0010
,  // measure 13
0000
0000
0010
0000
0000
0000
0001
0000
0000
0100
0000
0000
,  // measure 14
0101
0000
1000
0000
,  // measure 15
1010
0000
0000
0000
0000
0000
0010
0000
0010
0100
0000
0000
,  // measure 16
1000
MMMM
1000
MMMM
,  // measure 17
1000
MMMM
1000
MMMM
,  // measure 18
0010
MMMM
0010
MMMM
,  // measure 19
0010
MMMM
0010
MMMM
,  // measure 20
0001
MMMM
0001
MMMM
,  // measure 21
0001
MMMM
0001
MMMM
,  // measure 22
0100
MMMM
0100
MMMM
,  // measure 23
0100
0000
0000
0000
0000
0010
1000
0000
1000
0100
0000
0000
,  // measure 24
0010
0100
1000
0100
,  // measure 25
0010
0000
0000
0100
0000
0000
1000
0000
0001
0100
0000
0000
,  // measure 26
0001
0010
0001
0100
,  // measure 27
0001
0000
0000
0010
0000
0000
0100
0000
1000
0001
0000
0000
,  // measure 28
0100
0010
0001
0010
,  // measure 29
0100
0000
0000
0010
0000
0000
0001
0000
0010
0100
0000
0000
,  // measure 30
0001
0000
0000
0000
0000
0010
0100
0000
1000
0000
0000
0010
,  // measure 31
0000
0000
0010
0000
0000
1000
0100
0000
0000
0010
0000
0000
,  // measure 32
0011
0000
0000
0000
0000
0000
0000
0000
0000
0001
0000
0000
1000
0000
0000
0000
0010
0000
0000
0000
0000
0000
1000
0000
,  // measure 33
0000
0000
1000
0000
0000
0100
0010
0000
0000
0001
0000
0000
,  // measure 34
1002
0000
0000
0103
0000
0000
0010
0000
0100
0000
0000
1000
,  // measure 35
0000
0000
1000
0000
0000
0100
0001
0000
0000
1000
0000
0000
,  // measure 36
2100
0000
0000
3001
0000
0000
0100
0000
0010
0000
0000
0100
,  // measure 37
0000
0000
0100
0000
0000
0001
1000
0000
1000
0100
0000
0000
,  // measure 38
0210
0000
0000
0301
0000
0000
0100
0000
1000
0000
0000
0001
,  // measure 39
0000
0000
0001
0000
0000
0100
0001
0000
0000
0010
0000
0000
,  // measure 40
1100
0000
0000
0000
0000
0001
0100
0000
0100
1000
0000
0000
,  // measure 41
0100
0001
1000
0100
,  // measure 42
0110
0000
0000
0100
0000
0000
1000
0000
0000
0010
0000
0100
,  // measure 43
0000
0000
0100
0001
0000
1000
0100
0000
0000
0010
0000
0000
,  // measure 44
0110
0100
1100
1000
,  // measure 45
1010
0000
0000
0010
0000
0100
0000
0000
0000
0100
0000
0000
,  // measure 46
0101
0001
0011
0010
,  // measure 47
0110
0000
0000
0000
0000
0000
0100
0000
1000
0001
0000
0000
,  // measure 48
0101
0100
1100
0100
,  // measure 49
0101
0100
1100
0100
,  // measure 50
0110
0001
0110
1000
,  // measure 51
0110
0001
0110
1000
,  // measure 52
1010
0010
0011
0010
,  // measure 53
1010
0010
0011
0010
,  // measure 54
1001
0100
1001
0010
,  // measure 55
1001
0000
0000
0000
0000
0001
1000
0000
1000
0010
0000
0010
,  // measure 56
0100
0000
0000
0000
0000
0100
0001
0000
1000
0100
0000
0010
,  // measure 57
0000
0000
0000
0010
0000
0000
0000
0000
0000
0000
0100
0000
1000
0000
0000
0000
0100
0000
0010
0000
0000
0000
0001
0000
,  // measure 58
0100
0000
0000
0000
0000
0010
0100
0000
0001
0010
0000
0100
,  // measure 59
0000
0000
0000
0100
0000
0000
0000
0000
0000
0000
0010
0000
0001
0000
0000
0000
1000
0000
0010
0000
0000
0000
0010
0000
,  // measure 60
0100
0000
0000
0001
0000
0010
0100
0000
0010
0001
0000
0100
,  // measure 61
0000
0000
0000
0010
0000
0000
0000
0000
0000
0000
0100
0000
0010
0000
0000
0000
0001
0000
0010
0000
0000
0000
0010
0000
,  // measure 62
1000
0000
0000
0000
0000
0000
1000
0000
0000
0100
0000
0000
0000
0000
0000
0010
0000
0000
0001
0000
0000
0000
0100
0000
,  // measure 63
0010
0000
0000
0010
0000
0000
1000
0000
1000
0100
0000
0100
,  // measure 64
0001
0000
0000
0100
0000
0000
1100
0000
0000
1000
0000
0001
,  // measure 65
0100
0000
0000
0100
0000
1000
0100
0000
0000
0001
0000
0000
,  // measure 66
0101
0000
0000
1000
0000
0000
0100
0000
0000
0010
0000
0100
,  // measure 67
1000
0000
0000
0010
0000
1000
0100
0000
0000
0010
0000
0000
,  // measure 68
0011
0000
0000
0001
0000
0000
1000
0000
0010
0000
0000
1000
,  // measure 69
0100
0000
0000
0100
0000
0100
0001
0000
0100
1000
0000
0000
,  // measure 70
0001
0000
0000
0100
0000
0000
0110
0000
1000
0000
0000
1001
,  // measure 71
0000
0000
0001
0010
0000
0001
1000
0000
0001
0100
0000
0000
,  // measure 72
0110
0000
0000
0010
0000
0000
1000
0000
0100
0010
0000
0000
,  // measure 73
1000
0000
0000
1000
0000
1000
0010
0000
0010
0100
0000
0000
,  // measure 74
1000
0000
0000
1001
0000
0000
0001
0000
0100
0000
0000
0010
,  // measure 75
0000
0000
0100
0000
0000
0100
0001
0000
0000
1000
0000
0000
,  // measure 76
1100
0000
1000
0100
0001
0100
0000
0000
,  // measure 77
1001
0000
1001
0000
0000
0001
1000
0000
1000
0001
0000
0000
,  // measure 78
1001
0000
0100
0000
,  // measure 79
0010
0000
2020
0000
0000
3030
0000
0000
0000
0000
0000
0000
,  // measure 80
1000
0000
0000
0000
1000
0000
0100
0000
0000
0000
0000
0000
1200
0000
0000
0000
0000
0000
0310
0000
0000
0M00
0000
0000
,  // measure 81
0201
0000
0310
0M00
1200
0000
0310
0M00
,  // measure 82
0201
0000
0310
0000
0210
0000
0301
0M00
,  // measure 83
0210
0000
1300
0M00
0210
0000
0301
0M00
,  // measure 84
0210
0000
1300
0000
1020
0000
0130
00M0
,  // measure 85
0021
0000
0130
00M0
1020
0000
0130
00M0
,  // measure 86
0021
0130
1001
MMMM
,  // measure 87
1001
MMMM
1001
0000
;

//---------------dance-double - ----------------
#NOTES:
     dance-double:
     :
     Challenge:
     13:
     0.486126,0.601519,0.506995,0.042966,0.365208,396.000000,337.000000,59.000000,5.000000,0.000000,0.000000,0.486126,0.601519,0.506995,0.042966,0.365208,396.000000,337.000000,59.000000,5.000000,0.000000,0.000000:
00000000
00000000
00000000
00000000
,
00000000
00000000
00000000
00000000
,
00000000
00000000
00000000
00000000
,
00000000
00000000
00000000
00000000
,
00000000
00000000
00000000
00000000
,
00000000
00000000
00000000
00000000
,
00000000
00000000
00000000
00000000
,
00000000
00000000
00000000
00000000
,
00011000
00000000
00000000
00000000
00000000
00010000
02000000
00000000
03000000
00000000
00000000
10000000
,
00000000
00000000
10000000
00000000
00000000
00000000
00100000
00000000
00000000
00010000
00000000
00000000
,
00011000
00000000
00000000
00000000
00000000
00001000
00000200
00000000
00000300
00000000
00000001
00000000
,
00000000
00000001
00000000
00000000
00000000
00000000
00000010
00000000
00000000
00001000
00000000
00000000
,
00011000
00000000
00000000
00000000
00000000
00010000
02000000
00000000
03000000
00000000
00000000
10000000
,
00000000
00000000
10000000
00000000
00000000
00000000
00100000
00000000
00000000
00010000
00000000
00000000
,
00011000
00000000
00000000
00000000
,
00011000
00000000
00000000
00000000
,
10000000
00000000
00000001
00000000
,
10000000
00000000
00000001
00000000
,
00100000
00000000
00000010
00000000
,
01000000
00000000
00000100
00000000
,
10000000
00000000
00000001
00000000
,
10000000
00000000
00000001
00000000
,
10010000
00000000
00001001
00000000
,
10010000
00000000
00000000
00000000
00000000
10000000
01000000
00000000
01000000
00010000
00000000
00000000
,
00001000
00000100
00000001
00000100
,
00001000
00000100
00000001
00000010
,
00001000
00010000
00001000
00000010
,
00001000
00001000
00010000
00100000
,
10000000
01000000
00010000
01000000
,
10000000
10000000
01000000
00010000
,
00001000
00000000
00000000
00000000
00000000
00000100
00000010
00000000
00000001
00000000
00000000
00000010
,
00000000
00000000
00000010
00000000
00000000
00001000
00000100
00000000
00000000
00000010
00000000
00000000
,
00000001
00000000
00000000
00000000
00000000
00000000
00000000
00000000
00000000
00000100
00000000
00000000
00001000
00000000
00000000
00000000
00010000
00000000
00000000
00000000
00000000
00000000
00001000
00000000
,
00000100
00000000
00000100
00000000
00000000
00000100
00000010
00000000
00000000
00010000
00000000
00000000
,
00001000
00000000
00000000
00100000
00000000
00000000
01000000
00000000
00010000
00000000
00000000
01000000
,
00100000
00000000
00100000
00000000
00000000
00100000
00010000
00000000
00000000
10000000
00000000
00000000
,
00100000
00000000
00000000
00010000
00000000
00000000
00001000
00000000
00000100
00000000
00000000
00000001
,
00000010
00000000
00000010
00000000
00000000
00001000
00010000
00000000
00010000
00001000
00000000
00000000
,
00000010
00000000
00000000
00000001
00000000
00000000
00000100
00000000
00001000
00000000
00000000
00010000
,
00000000
00000000
00010000
00000000
00000000
01000000
10000000
00000000
00000000
01000000
00000000
00000000
,
00010000
00000000
00000000
00000000
00000000
00001000
00000010
00000000
00001000
00010000
00000000
00000000
,
00100000
10000000
01000000
00010000
,
00011000
00000000
00000000
00001000
00000000
00000000
00000100
00000000
00000000
00000001
00000000
00000100
,
00000000
00000000
00000100
00001000
00000000
00000000
00010000
00000000
00000000
01000000
00000000
00000000
,
11000000
10000000
10100000
00100000
,
00110000
00000000
00000000
00010000
00000000
00001000
00000000
00000000
00000000
00001000
00000000
00000000
,
00001100
00000100
00000101
00000001
,
00000011
00000000
00000000
00000000
00000000
00000000
00000010
00000000
00001000
00010000
00000000
00000000
,
01010000
00100000
00001100
00000010
,
01010000
00100000
00001100
00000010
,
00011000
00100000
00011000
00000010
,
00011000
00100000
00011000
00000010
,
00001010
00000100
00110000
01000000
,
00001010
00000100
00110000
01000000
,
10010000
00000000
00001001
00000000
,
10010000
00000000
00000000
00000000
00000000
10000000
00010000
00000000
00010000
00001000
00000000
00001000
,
00000001
00000000
00000000
00000000
00000000
00000001
00000100
00000000
00000100
00000010
00000000
00000001
,
00000000
00000000
00000000
00000001
00000000
00000000
00000000
00000000
00000000
00000000
00000010
00000000
00010000
00000000
00000000
00000000
00000100
00000000
00000010
00000000
00000000
00000000
00001000
00000000
,
00010000
00000000
00000000
00000000
00000000
01000000
00100000
00000000
00010000
01000000
00000000
00100000
,
00000000
00000000
00000000
00100000
00000000
00000000
00000000
00000000
00000000
00000000
10000000
00000000
01000000
00000000
00000000
00000000
00100000
00000000
00001000
00000000
00000000
00000000
00001000
00000000
,
00000100
00000000
00000000
00000001
00000000
00000010
00001000
00000000
00010000
00001000
00000000
01000000
,
00000000
00000000
00000000
00100000
00000000
00000000
00000000
00000000
00000000
00000000
10000000
00000000
01000000
00000000
00000000
00000000
01000000
00000000
00010000
00000000
00000000
00000000
00001000
00000000
,
00010000
00000000
00000000
00000000
00000000
00000000
00000010
00000000
00000000
00001000
00000000
00000000
00000000
00000000
00000000
00000001
00000000
00000000
00000100
00000000
00000000
00000000
00001000
00000000
,
00010000
00000000
00000000
01000000
00000000
00000000
10000000
00000000
10000000
01000000
00000000
01000000
,
00010000
00000000
00000000
00001000
00000000
00000000
00000110
00000000
00000000
00000001
00000000
00000010
,
00001000
00000000
00000000
00010000
00000000
00001000
00000010
00000000
00000000
00000001
00000000
00000000
,
00000101
00000000
00000000
00010000
00000000
00000000
00100000
00000000
00000000
10000000
00000000
01000000
,
00100000
00000000
00000000
01000000
00000000
10000000
00100000
00000000
00000000
00010000
00000000
00000000
,
00011000
00000000
00000000
00000010
00000000
00000000
00000100
00000000
00000010
00000000
00000000
00001000
,
00000100
00000000
00000000
00000100
00000000
00000100
00000001
00000000
00000100
00001000
00000000
00000000
,
00000001
00000000
00000000
00000100
00000000
00000000
00001000
00000000
00010000
00000000
00000000
01100000
,
00000000
00000000
01000000
00100000
00000000
00001000
00010000
00000000
00000010
00000100
00000000
00000000
,
00001001
00000000
00000000
00000001
00000000
00000000
00000010
00000000
00001000
00010000
00000000
00010000
,
00100000
10000000
01000000
00010000
,
00011000
00000000
00000000
00000100
00000000
00000000
00000001
00000000
00000010
00000100
00000000
00000010
,
00000001
00000100
00001000
00010000
,
00011000
00000000
00010000
01000000
10000000
00100000
00000000
00000000
,
00011000
00000000
00011000
00000000
00000000
00001000
00000100
00000000
00000001
00000010
00000000
00000000
,
00001001
00000000
00011000
00000000
,
10010000
00000000
20020000
00000000
00000000
30030000
00000000
00000000
00000000
00000000
00000000
00000000
,
10100000
00000000
00100000
10000000
00000000
00000000
11000000
00000000
00000000
00100000
00000000
00000000
,
00001100
00000010
00000101
00000010
,
01010000
00100000
00011000
00000001
,
00011000
10000000
00011000
00000001
,
00011000
10000000
10100000
01000000
,
00001010
00000100
00000011
00000100
,
00110000
01000000
10010000
00000000
,
00001001
00000000
10010000
00000000
,
00000000
00000000
00000000
00000000
,
00000000
00000000
00000000
00000000
;
