#TITLE:Take Me Out To The Ball Game;
#SUBTITLE:(Planet Remix);
#ARTIST:Captain Jack;
#TITLETRANSLIT:;
#SUBTITLETRANSLIT:;
#ARTISTTRANSLIT:;
#CREDIT:;
#BANNER:Take Me Out To The Ball Game (Planet Remix)-bn.PNG;
#BACKGROUND:Take Me Out To The Ball Game (Planet Remix)-bg.PNG;
#LYRICSPATH:;
#CDTITLE:Dancemania Speed 9.png;
#MUSIC:Take Me Out To The Ball Game (Planet Remix).mp3;
#OFFSET:-5.733;
#SAMPLESTART:33.920;
#SAMPLELENGTH:13.760;
#SELECTABLE:YES;
#BPMS:0.000=170.009;
#STOPS:;
#BGCHANGES:;

//---------------dance-single - ----------------
#NOTES:
     dance-single:
     :
     Hard:
     13:
     0.660,0.586,0.740,0.163,0.062:
0000
1001
0000
0110
,
0000
0000
1001
0000
0000
0010
1000
0010
,
0100
0001
0000
0001
0000
1000
0001
0100
,
0000
0110
0000
1000
0001
1000
0001
0000
,
1000
0010
0100
0010
1000
0100
0010
0001
,
0000
1000
0010
0100
0010
1000
0001
0100
,
0000
0001
1000
0001
0010
0100
1000
0001
,
0000
1000
0001
0000
1001
0000
1001
0000
,
0001
0100
0010
1000
0001
1000
0001
1000
,
0000
0001
0100
0001
0010
0001
1000
0010
,
0000
0100
0001
1000
0010
0100
0001
1000
,
0000
0010
0100
0000
0101
0000
1010
0000
,
0001
0100
0010
0100
0001
1000
0100
0010
,
0001
1000
0010
0100
0001
0010
0100
1000
,
0001
0100
0010
1000
0001
1000
0001
0000
,
1001
0110
0110
1001
,
0100
0001
0100
0010
1000
0010
0100
0001
,
0010
0001
0010
0001
1000
0010
0100
0001
,
0100
0010
1000
0001
1000
0001
0100
0000
,
1010
0110
0101
1001
,
2001
0000
3001
0000
0001
1000
0010
0100
,
0101
0000
1010
0000
0010
1000
1001
0000
,
1002
0000
0103
0000
0010
0100
0010
0001
,
1001
0000
0100
0010
0010
0000
1001
0000
,
0010
0000
0000
1000
0000
0000
0010
0000
0101
0000
0000
1000
0000
0000
0100
0000
,
0011
0000
0001
1000
1001
0000
0110
0000
,
0101
0000
0101
0000
1010
0000
0001
1000
,
0100
0000
0000
0100
0000
0000
0100
0000
1000
0000
0000
0001
0000
0000
1000
0000
,
1001
0000
0001
1000
0001
1000
0001
0000
,
1000
0010
1000
0010
0100
0010
0100
0000
,
1001
0000
1100
0000
0010
0100
0010
0000
,
1001
0000
0011
0000
0100
0001
1000
0001
,
2001
3100
1002
0103
,
1000
0000
0000
0110
0000
0000
0010
0000
1000
0000
0000
0101
0000
0000
0001
0000
,
0010
0100
1000
0000
1100
0000
0011
0000
,
1001
0110
1001
0110
,
2010
0000
3001
0000
1000
0010
1000
0000
,
1020
0000
0130
0000
0001
0001
0001
0000
,
0021
0000
0130
0000
0001
0010
0100
0000
,
1100
0000
0010
1000
0001
0000
1001
0000
,
0001
0000
0000
0100
0000
0000
0010
0000
1000
0000
0000
0001
0000
0000
0100
0000
,
0010
0000
1000
0001
1001
0000
0011
0000
,
1100
0000
1100
0000
0011
0000
0001
1000
,
0010
0000
0000
0010
0000
0000
0010
0000
0100
0000
0000
0000
0001
0000
1000
0000
,
1001
0000
0001
1000
0010
1000
0010
0100
,
0001
0000
0110
0000
1001
0000
0010
0100
,
1100
0000
0000
0000
0100
0000
0010
0000
0011
0000
0000
0001
0000
0000
0010
0000
,
1001
0000
0000
0000
0110
0000
0000
0000
0010
0000
0100
0000
0000
0100
0000
0000
,
2002
3003
0220
0330
,
1001
0000
0000
0010
0000
0000
0100
0000
1001
0000
0000
1000
0000
0000
0001
0000
,
2001
3010
1002
0103
,
0001
1000
0010
0100
0001
1000
0001
0000
,
1000
0001
0100
0010
1000
0001
0100
0010
,
0000
1000
0010
1000
0001
0100
0010
1000
,
0001
0010
0100
1000
0001
1000
0010
1000
,
0000
0010
1000
0000
1001
0000
0110
0000
,
0001
1000
0001
0010
0100
0010
0001
1000
,
0000
0001
0010
0001
0010
0100
1000
0001
,
0100
0001
1000
0001
0100
0010
1000
0001
,
0000
0100
0010
0000
0100
0000
1001
0000
,
2000
0001
0000
3001
0000
0001
1000
0001
,
0000
0002
0000
0100
0000
0103
0000
0000
,
2002
0000
3003
0000
0000
0010
0100
0010
,
0000
0100
0100
1001
,
0010
0100
0010
0000
0011
0000
1100
0000
,
0100
1000
0100
0000
1001
0000
0110
0000
,
1000
0001
0100
0010
0100
0001
0010
0001
,
0000
1000
0000
0010
0100
0001
1000
0000
;

//---------------dance-single - ----------------
#NOTES:
     dance-single:
     :
     Medium:
     10:
     0.508,0.456,0.365,0.077,0.062:
0000
0001
0000
1001
,
0000
0000
1000
0000
0000
1000
0001
1000
,
0010
0010
0100
0100
,
0010
0100
1001
1001
,
1000
1000
0000
0001
0000
1000
0001
1000
,
0000
0001
0000
0001
0000
1000
0001
1000
,
0000
0100
0000
0100
0000
0010
0001
0010
,
0000
0100
0010
0000
1001
0000
0110
0000
,
0001
1000
0000
0010
0000
0010
1000
0001
,
0000
0001
0000
1000
0000
1000
0100
0010
,
0000
0001
0000
0100
0000
0010
1000
0100
,
0000
1000
0001
0000
0110
0000
1001
0000
,
1000
0100
0000
0100
0000
0100
1000
0001
,
0000
0001
0000
1000
0010
1000
0100
0100
,
1000
0001
0000
0010
0000
0001
0100
0001
,
0000
1000
0010
0000
1010
0000
1100
0000
,
0001
1000
0000
0010
0000
0010
0100
0001
,
0000
0001
0000
1000
0010
1000
0001
0100
,
0001
1000
0000
0010
0000
0010
1000
0100
,
0000
0010
0001
0000
1100
0000
0011
0000
,
1001
0000
0010
0001
0100
0000
0010
1000
,
0001
0000
0010
0000
0100
0000
1000
1000
,
1000
0000
0010
1000
0001
0000
1000
0001
,
0100
0001
1000
1001
,
0100
0000
0000
0010
0000
0000
1000
0000
0001
0000
0000
0100
0000
0000
0010
0000
,
1000
0001
1000
1001
,
1100
0000
0000
0000
1100
0000
0000
0000
0001
0000
0000
1000
0000
0000
0010
0000
,
1000
0000
0000
0100
0000
0000
0010
0000
0001
0000
0000
0000
1000
0000
0000
0000
,
0001
0000
1000
0001
0010
0000
0100
0000
,
1000
0000
0001
0000
1000
0000
0010
1000
,
0001
0000
0000
0000
0010
0000
0000
0000
0001
0000
0000
1000
0000
0000
0010
0000
,
0100
0001
1000
0001
,
0010
1001
0100
1001
,
0010
0000
0000
0100
0000
0000
0100
0000
1000
0000
0000
0001
0000
0000
0100
0000
,
0001
1000
0010
0100
,
1001
0110
1001
0110
,
1001
0000
0000
0001
1000
0000
0010
0000
,
0200
0300
1001
0000
,
0001
0000
0000
0010
0001
0000
1000
0000
,
0020
1000
1000
1030
,
1000
0000
0000
1000
0000
0000
1000
0000
0001
0000
0000
0001
0000
0000
0001
0000
,
0200
0000
0300
0010
0100
0000
0010
0000
,
1100
0100
0110
0001
,
1000
0001
1000
0010
,
1001
0000
0010
0000
1000
0000
0001
0100
,
0010
0000
1000
0000
0001
0000
0010
0001
,
1000
0000
0000
0000
1001
0000
0000
0000
0010
0000
0000
0010
0000
0000
0010
0000
,
1000
0000
0000
0000
0010
0000
0000
0000
0100
0000
0001
0000
0000
1000
0000
0000
,
0020
0030
2002
3003
,
0010
0000
0000
0001
0000
0000
1000
0000
0001
0000
0000
0100
0000
0000
0010
0000
,
1000
0001
0100
0010
,
1010
1010
0101
0101
,
0001
1000
0000
0010
0000
0010
1000
0100
,
0000
0100
0000
1000
0001
1000
0010
1000
,
0010
0010
0000
0100
0000
0001
0001
1000
,
0000
0001
1000
0000
0010
0000
1010
0000
,
0001
1000
0000
0010
0000
1000
0001
0010
,
0000
0001
0000
1000
0001
0100
0010
0100
,
0001
1000
0000
0100
0000
1000
0010
1000
,
0000
0100
0100
0000
1000
0000
0001
0000
,
1000
0001
0000
0001
0000
0001
1000
0001
,
0000
0010
0000
0001
0000
1000
0000
0000
,
2002
0000
3003
0000
0000
0100
0100
0100
,
0000
0010
0100
0000
1001
0000
0110
0000
,
0001
1000
0000
1000
0000
0001
0100
0001
,
0000
0010
0000
0010
0001
1000
0100
0000
,
0010
0001
0100
0001
,
0100
0010
0010
1001
;

//---------------dance-single - ----------------
#NOTES:
     dance-single:
     :
     Easy:
     6:
     0.313,0.325,0.211,0.086,0.000: // measure 1
0000
0010
0000
1001
,  // measure 2
0000
0100
0000
1001
,  // measure 3
0010
0000
0100
0000
,  // measure 4
0010
0010
0010
0010
,  // measure 5
1000
0001
0100
0010
,  // measure 6
0000
1000
0001
0010
,  // measure 7
0000
0001
1000
0010
,  // measure 8
0000
0100
0010
0100
,  // measure 9
0010
0010
1000
0001
,  // measure 10
0000
1000
0001
0010
,  // measure 11
0000
0001
1000
0100
,  // measure 12
0000
0010
0001
1000
,  // measure 13
0001
1000
0010
0100
,  // measure 14
0001
0010
0100
1000
,  // measure 15
0001
1000
0010
0100
,  // measure 16
0001
1000
0100
0010
,  // measure 17
0001
1000
0010
0100
,  // measure 18
0010
1000
0001
0010
,  // measure 19
0100
1000
0001
1000
,  // measure 20
0001
0001
1000
1000
,  // measure 21
1001
0000
0001
0000
,  // measure 22
1000
0000
0001
1000
,  // measure 23
1010
0000
1001
0000
,  // measure 24
0110
0000
1000
0001
,  // measure 25
0010
0001
2000
3000
,  // measure 26
0001
0000
1000
0000
,  // measure 27
0001
1000
0010
0100
,  // measure 28
0010
1000
0001
0100
,  // measure 29
1001
0000
0100
0000
,  // measure 30
0001
1000
0001
0010
,  // measure 31
1100
0000
0011
0000
,  // measure 32
1000
0001
0100
0010
,  // measure 33
1001
0000
0110
0000
,  // measure 34
0011
0000
1100
0000
,  // measure 35
0001
0001
1000
1000
,  // measure 36
0010
0010
0100
0100
,  // measure 37
1001
0000
0010
0000
,  // measure 38
0100
0100
0100
0000
,  // measure 39
0110
0000
0001
0000
,  // measure 40
1000
1000
1000
0000
,  // measure 41
0002
0000
2003
0000
,  // measure 42
3020
0000
0230
0000
,  // measure 43
0310
0010
0100
0000
,  // measure 44
0100
0100
0010
0000
,  // measure 45
1010
0000
0001
0000
,  // measure 46
1000
1000
0001
0000
,  // measure 47
1010
0000
0001
0000
,  // measure 48
1000
0100
0100
0000
,  // measure 49
0011
0000
1100
0000
,  // measure 50
1001
0000
0110
0000
,  // measure 51
0010
0010
0100
0100
,  // measure 52
0010
0100
0001
1000
,  // measure 53
0001
1000
0001
1000
,  // measure 54
0000
0001
1000
0001
,  // measure 55
0000
1000
0001
1000
,  // measure 56
0000
0010
0100
0010
,  // measure 57
0000
1000
0001
1000
,  // measure 58
0000
0100
1000
0100
,  // measure 59
0000
1000
0001
1000
,  // measure 60
0000
0010
0100
0010
,  // measure 61
2000
0000
0000
0000
,  // measure 62
0002
0000
0000
3003
,  // measure 63
2002
0000
0000
0000
,  // measure 64
0000
0000
0000
3003
,  // measure 65
0001
0000
1000
0000
,  // measure 66
0001
0000
1000
0000
,  // measure 67
0001
0010
1000
0100
,  // measure 68
0001
0010
0100
0010
;

//---------------dance-single - ----------------
#NOTES:
     dance-single:
     :
     Beginner:
     4:
     0.203,0.227,0.096,0.058,0.000: // measure 1
0000
0010
0000
0000
,  // measure 2
0100
0000
0000
0000
,  // measure 3
0010
0000
0100
0000
,  // measure 4
0010
0000
0000
0000
,  // measure 5
1000
0000
1000
0000
,  // measure 6
0001
0000
0001
0000
,  // measure 7
1000
0000
0001
0000
,  // measure 8
1000
0000
0010
0000
,  // measure 9
0100
0000
0000
0000
,  // measure 10
0010
0000
0000
0000
,  // measure 11
0100
0000
0000
0000
,  // measure 12
0001
0000
1000
0000
,  // measure 13
0001
0001
0001
0000
,  // measure 14
0100
0100
0100
0000
,  // measure 15
0010
0010
0010
0000
,  // measure 16
1000
0000
0001
0000
,  // measure 17
1000
1000
1000
0000
,  // measure 18
0010
0010
0010
0000
,  // measure 19
0100
0000
0001
0000
,  // measure 20
1000
0000
0001
0000
,  // measure 21
2000
0000
3001
0000
,  // measure 22
1000
0000
0010
0000
,  // measure 23
0200
0000
0310
0000
,  // measure 24
0100
0000
0001
0000
,  // measure 25
1000
0000
0000
0000
,  // measure 26
0001
0000
0000
0000
,  // measure 27
1000
1000
1000
0000
,  // measure 28
0010
0010
0010
0000
,  // measure 29
0100
0000
0001
0000
,  // measure 30
1000
0000
0010
0000
,  // measure 31
0100
0000
0001
0000
,  // measure 32
1000
0000
0000
0000
,  // measure 33
1001
0000
0000
0000
,  // measure 34
0110
0000
0000
0000
,  // measure 35
1001
0000
1001
0000
,  // measure 36
1001
0000
0000
0000
,  // measure 37
0020
0000
0000
0000
,  // measure 38
0130
0000
0100
0000
,  // measure 39
0002
0000
0000
0000
,  // measure 40
1003
0000
1000
0000
,  // measure 41
0010
0000
0100
0000
,  // measure 42
0010
0000
1000
0000
,  // measure 43
0001
0001
0001
0000
,  // measure 44
1000
1000
1000
0000
,  // measure 45
0010
0000
0100
0000
,  // measure 46
0001
1000
0001
0000
,  // measure 47
1000
0000
0010
0000
,  // measure 48
0100
0001
0100
0000
,  // measure 49
0010
0000
0100
0000
,  // measure 50
1001
0000
1001
0000
,  // measure 51
0010
0000
0100
0000
,  // measure 52
2002
0000
0000
3003
,  // measure 53
0001
0000
1000
0000
,  // measure 54
0001
0000
1000
0000
,  // measure 55
0010
0000
0100
0000
,  // measure 56
0010
0010
0100
0000
,  // measure 57
0010
0000
1000
0000
,  // measure 58
0001
0000
1000
0000
,  // measure 59
0001
0000
1000
0000
,  // measure 60
0010
0010
0010
0000
,  // measure 61
0100
0000
0000
0000
,  // measure 62
1001
0000
0000
0000
,  // measure 63
0010
0000
0000
0000
,  // measure 64
0101
0000
0000
0000
,  // measure 65
0010
0000
0100
0000
,  // measure 66
0010
0000
0000
1000
,  // measure 67
0001
0001
1000
0000
,  // measure 68
1000
1000
0001
0000
;
