#TITLE:Sugar Free Venom;
#SUBTITLE:;
#ARTIST:f5ve feat. Kesha;
#TITLETRANSLIT:;
#SUBTITLETRANSLIT:;
#ARTISTTRANSLIT:;
#GENRE:SEQUENCE 01.7;
#CREDIT:chewi;
#BANNER:Sugar Free Venom.png;
#BACKGROUND:Sugar Free Venom-bg.png;
#LYRICSPATH:;
#CDTITLE:cdtitle.png;
#MUSIC:Sugar Free Venom.ogg;
#OFFSET:2.462000;
#SAMPLESTART:95.982;
#SAMPLELENGTH:12.000;
#SELECTABLE:YES;
#BPMS:0.000000=95.009003
;
#STOPS:
;
#BGCHANGES:4.000=Sugar Free Venom.mp4=1.000=1=0=1===CrossFade==,
188.000=Sugar Free Venom-bg.png=1.000=1=0=1===CrossFade==,
99999=-nosongbg-=1.000=0=0=0 // don't automatically add -songbackground-
;
#KEYSOUNDS:;
#ATTACKS:;

//---------------dance-single - chewi----------------
#NOTES:
     dance-single:
     chewi:
     Beginner:
     1:
     0.000000,0.000000,0.000000,0.000000,0.000000,0.000000,0.000000,0.000000,0.000000,0.000000,0.000000,0.000000,0.000000,0.000000,0.000000,0.000000,0.000000,0.000000,0.000000,0.000000,0.000000,0.000000:
0000
0000
0000
0000
,
0000
0000
0000
0000
,
0000
0000
0000
0000
,
0000
0000
0000
0000
,
0000
0000
0000
0000
,
0001
0000
1000
0000
,
0001
0000
0001
0000
,
0001
0000
1000
0000
,
0001
0000
1000
0000
,
0010
0000
0100
0000
,
0001
0000
1000
0000
,
0001
0000
0010
0000
,
0100
0000
1000
0000
,
0001
0000
0001
0000
,
0001
0000
0001
0000
,
0010
0000
1000
0000
,
0100
0000
0001
0000
,
0001
0000
1000
0000
,
0001
0000
0001
0000
,
0001
0000
1000
0000
,
0001
0000
1000
0000
,
1000
0000
0001
0000
,
1000
0000
1000
0000
,
1000
0000
0001
0000
,
1000
0000
0001
0000
,
0200
0000
0000
0000
,
0000
0300
0100
0000
,
0010
0000
0010
0000
,
1000
0000
0100
0000
,
0100
0000
0100
0000
,
0001
0000
0010
0000
,
1000
0000
0001
0000
,
1000
0000
1000
0000
,
0001
0000
1000
0000
,
0001
0000
0001
0000
,
0002
0000
0000
0003
,
2000
0000
0000
3000
,
0200
0000
0000
0300
,
0020
0000
0000
0030
,
0001
0000
1000
0000
,
0001
0000
0001
0000
,
0001
0000
1000
0000
,
0001
0000
1000
0000
,
1000
0000
0001
0000
,
1000
0000
1000
0000
,
1000
0000
0001
0000
,
1000
0000
0001
0000
,
0200
0000
0000
0000
,
0300
0000
0000
0000
;

//---------------dance-single - chewi----------------
#NOTES:
     dance-single:
     chewi:
     Easy:
     4:
     0.000000,0.000000,0.000000,0.000000,0.000000,0.000000,0.000000,0.000000,0.000000,0.000000,0.000000,0.000000,0.000000,0.000000,0.000000,0.000000,0.000000,0.000000,0.000000,0.000000,0.000000,0.000000:
0000
0000
0000
0000
,
0000
0000
0000
0000
,
0000
0000
0000
0000
,
0000
0000
0000
0000
,
0000
0000
0000
0000
,
0001
0001
1000
1000
,
0001
1000
0001
1000
,
0001
0010
1000
0100
,
0001
0010
1000
0010
,
0010
0000
0100
0000
,
0001
0000
1000
0000
,
0001
0000
0010
0000
,
0100
0000
1000
0000
,
0001
0100
0001
0000
,
0001
0010
0001
0000
,
0010
0100
1000
0000
,
0100
1000
0001
0010
,
0001
0001
1000
1000
,
0001
1000
0001
1000
,
0001
0010
1000
0100
,
0001
0010
1000
0010
,
1000
1000
0001
0001
,
1000
0001
1000
0001
,
1000
0100
0001
0010
,
1000
0100
0001
0100
,
0200
0000
0000
0000
,
0000
0300
0100
0100
,
0010
0010
0010
0000
,
1000
0001
0100
0000
,
0100
0100
0100
0000
,
0001
1000
0010
0000
,
1000
1000
0001
0001
,
1000
0001
1000
0000
,
0001
0001
1000
1000
,
0001
1000
0001
0000
,
0002
0000
0000
0003
,
2000
0000
0000
3000
,
0200
0000
0000
0300
,
0020
0000
0000
0030
,
0001
0001
1000
1000
,
0001
1000
0001
1000
,
0001
0010
1000
0100
,
0001
0010
1000
0010
,
1000
1000
0001
0001
,
1000
0001
1000
0001
,
1000
0100
0001
0010
,
1000
0100
0001
0100
,
0200
0000
0000
0000
,
0300
0000
0000
0000
;

//---------------dance-single - chewi----------------
#NOTES:
     dance-single:
     chewi:
     Medium:
     7:
     0.000000,0.000000,0.000000,0.000000,0.000000,0.000000,0.000000,0.000000,0.000000,0.000000,0.000000,0.000000,0.000000,0.000000,0.000000,0.000000,0.000000,0.000000,0.000000,0.000000,0.000000,0.000000:
0000
0000
0000
0000
,
0000
0000
0000
0000
,
0000
0000
0000
0000
,
0000
0000
0000
0000
,
0000
0000
0000
0000
,
1001
0110
1001
0110
,
0001
0000
0001
0000
1000
1000
1000
0000
,
0001
0010
1000
0100
,
0001
0010
1000
0010
,
0010
0010
0000
0000
0100
0100
0100
0000
,
0001
0001
0000
0000
1000
1000
1000
0000
,
0001
1000
0001
0010
,
0100
0010
0001
0010
,
0001
0000
0000
0001
0000
0000
0001
0000
0000
0000
0000
0000
0000
0000
0000
0000
,
0000
0000
1000
0000
0000
1000
0000
0000
1000
0000
0000
0000
0000
0000
0000
0000
,
0100
1000
0100
0010
,
0100
1000
0010
0100
,
1001
0110
1001
0110
,
0001
0000
0001
0000
1000
1000
1000
0000
,
0001
0010
1000
0100
,
0001
0010
1000
0010
,
0110
1001
0110
1001
,
0001
0000
0001
0000
1000
1000
1000
0000
,
0001
0010
1000
0100
,
0001
0010
1000
0010
,
0020
0000
0000
0000
,
0000
0000
0030
0000
,
1000
0010
1000
0000
0010
0000
0000
0000
,
0010
1000
0010
0000
1000
0000
0000
0000
,
0001
1000
0001
0000
0010
0000
0000
0000
,
0100
1000
0100
0000
1000
0000
0000
0000
,
1000
1000
1000
0000
0001
0001
0001
0000
,
1000
0000
0001
0000
0100
0000
0010
0000
1000
0000
1000
0000
0000
1000
0000
0000
,
0001
0001
0001
0000
1000
1000
1000
0000
,
0001
0000
0010
0000
0100
0000
1000
0000
0010
0000
0010
0000
0000
0010
0000
0000
,
0000
0000
0000
0000
0100
0001
1000
0010
,
0100
0001
0000
0000
1000
0100
0010
0001
,
1000
0100
0000
0000
0010
0001
1000
0010
,
0100
0001
0000
0000
1000
0000
0001
0000
,
1001
0110
1001
0110
,
0001
0000
0001
0000
1000
1000
1000
0000
,
0001
0010
1000
0100
,
0001
0010
1000
0010
,
0110
1001
0110
1001
,
0001
0000
0001
0000
1000
1000
1000
0000
,
0001
0010
1000
0100
,
0001
0010
1000
0010
,
0020
0000
0000
0000
,
0030
0000
0000
0000
;

//---------------dance-single - chewi----------------
#NOTES:
     dance-single:
     chewi:
     Hard:
     12:
     0.496457,0.558692,0.365810,0.016628,0.424007,418.000000,374.000000,44.000000,2.000000,0.000000,0.000000,0.496457,0.558692,0.365810,0.016628,0.424007,418.000000,374.000000,44.000000,2.000000,0.000000,0.000000:
// measure 0
0000
0000
0000
0000
,  // measure 1
0000
0000
0000
0000
,  // measure 2
0000
0000
0000
0000
,  // measure 3
0000
0000
0000
0000
,  // measure 4
0000
0000
0000
0000
,  // measure 5
1000
0010
0000
0000
0010
1000
0000
0000
1100
0000
1010
0000
1100
1000
0000
0000
,  // measure 6
0100
0010
0000
0000
0001
1000
0000
0000
0101
0000
0110
0000
0101
0001
0000
0000
,  // measure 7
0100
0001
0100
0001
0010
0000
0010
0001
0100
0000
0100
0001
0010
0100
0000
0000
,  // measure 8
1000
0010
1000
0010
0100
0000
0100
0010
1000
0001
1000
0100
1000
0100
0000
0000
,  // measure 9
1100
1100
0100
1000
1010
0110
0101
0110
,  // measure 10
0100
0000
0001
0000
1000
0001
1000
0001
1000
0000
0100
0000
0010
0100
0010
0100
,  // measure 11
0010
0010
0100
0100
0001
0100
1000
0100
,  // measure 12
1000
0000
1000
0000
0010
1000
0010
0100
0010
0000
0100
0000
0010
1000
0100
1000
,  // measure 13
0010
0000
0000
0010
0000
0000
0010
0000
1000
0000
1000
0000
1000
0000
1000
0000
,  // measure 14
0010
0000
0100
0000
0000
0100
0000
0000
0100
0000
0001
0000
1000
0000
0010
0000
,  // measure 15
1000
0000
0001
0000
0100
0000
0001
0000
1000
0001
0010
0001
1000
0000
0010
0000
,  // measure 16
1000
0001
0100
0001
1000
0000
0001
0000
0001
0000
0001
0000
0001
0000
0001
0000
,  // measure 17
0010
0001
0000
0000
0001
0010
0000
0000
0101
0000
0011
0000
0101
0001
0000
0000
,  // measure 18
0100
0010
0000
0000
1000
0001
0000
0000
1001
0000
1010
0000
1001
1000
0000
0000
,  // measure 19
0001
0010
0001
0010
0100
0000
1000
0010
0100
0000
0010
1000
0100
0010
0000
0000
,  // measure 20
0001
0010
0001
0010
0100
0000
0010
0100
1000
0100
1000
0010
0100
0010
0000
0000
,  // measure 21
0010
1000
0000
0000
1000
0010
0000
0000
1100
0000
1010
0000
1100
1000
0000
0000
,  // measure 22
0100
0010
0000
0000
0001
1000
0000
0000
1001
0000
0011
0000
1001
0001
0000
0000
,  // measure 23
1000
0010
1000
0010
0100
0000
0001
0010
0100
0000
0010
0001
0100
0010
0000
0000
,  // measure 24
1000
0010
1000
0010
0100
0000
0010
0100
0001
0100
0001
0010
0100
1000
0000
0000
,  // measure 25
0001
0001
0001
0001
,  // measure 26
0001
0000
0001
0000
0100
0100
0100
0100
,  // measure 27
0100
0001
1000
0010
1000
2000
3000
0000
,  // measure 28
0001
0000
0010
0000
1000
0000
0001
0000
0100
0000
1000
0000
0000
1000
0000
0000
,  // measure 29
0100
0001
1000
0010
0001
0001
0000
0000
,  // measure 30
1000
0001
0100
0001
1000
1000
0000
0000
,  // measure 31
0001
0100
0101
0101
0001
0010
0011
0011
,  // measure 32
0010
0000
0100
0000
0010
0000
0100
0000
0010
0000
0010
0000
0000
0010
0000
0000
,  // measure 33
0100
1000
1100
1100
0100
0010
0110
0110
,  // measure 34
0010
0000
0001
0000
1000
0000
0010
0000
0100
0000
0100
0000
0000
0100
0000
0000
,  // measure 35
0100
0000
0100
0000
0100
0001
0010
0100
,  // measure 36
0001
0010
1000
0000
0100
0010
0100
1000
,  // measure 37
0010
0100
0001
0100
0001
0100
1000
0100
,  // measure 38
0001
0100
0010
0100
0100
0010
0100
0010
,  // measure 39
0100
0001
0000
0000
0001
0100
0000
0000
0011
0000
0101
0000
0011
0001
0000
0000
,  // measure 40
0010
0100
0000
0000
1000
0001
0000
0000
1001
0000
1100
0000
1001
1000
0000
0000
,  // measure 41
0001
0100
0001
0100
0010
0000
1000
0100
0010
0000
0100
1000
0010
0100
0000
0000
,  // measure 42
0001
0100
0001
0100
0010
0000
0100
0010
1000
0010
1000
0100
0010
0100
0000
0000
,  // measure 43
0100
1000
0000
0000
1000
0100
0000
0000
1010
0000
1100
0000
1010
1000
0000
0000
,  // measure 44
0010
0100
0000
0000
0001
1000
0000
0000
1001
0000
0101
0000
1001
0001
0000
0000
,  // measure 45
1000
0100
1000
0100
0010
0000
0001
0100
0010
0000
0100
0001
0010
0100
0000
0000
,  // measure 46
1000
0100
1000
0100
0010
0000
0100
0010
0001
0010
0001
0100
0010
1000
0000
0000
,  // measure 47
0002
0000
0000
0000
,  // measure 48
0003
0000
0000
0000
;
