#VERSION:0.83;
#TITLE:Sonic Boom;
#SUBTITLE:{ZIv Contest 2025};
#ARTIST:Spencer Nilsen & "Pastiche" (Sandy Cressman, Jenny Meltzer, Becky West);
#TITLETRANSLIT:;
#SUBTITLETRANSLIT:;
#ARTISTTRANSLIT:;
#GENRE:;
#ORIGIN:;
#TAGS:;
#CREDIT:Marukomuru;
#BANNER:Sonic Boom-bn.png;
#BACKGROUND:Sonic Boom-bg.png;
#PREVIEWVID:;
#JACKET:Sonic Boom-jacket.png;
#CDIMAGE:;
#DISCIMAGE:;
#LYRICSPATH:;
#CDTITLE:cdtitle.png;
#MUSIC:Sonic Boom.ogg;
#OFFSET:0.003000;
#SAMPLESTART:33.847267;
#SAMPLELENGTH:15.000000;
#SELECTABLE:YES;
#BPMS:0.000000=187.000000
;
#STOPS:;
#DELAYS:;
#WARPS:;
#TIMESIGNATURES:0.000000=4=4
;
#TICKCOUNTS:0.000000=4
;
#COMBOS:0.000000=1
;
#SPEEDS:0.000000=1.000000=0.000000=0
;
#SCROLLS:0.000000=1.000000
;
#XSCROLLS:0.000000=0.000000 ;
#FAKES:;
#LABELS:0.000000=Song Start
;
#BGCHANGES:0.000=Sonic Boom.avi=1.000=1=0=0=StretchNoLoop==CrossFade==,
276.000=Sonic Boom-bg.png=1.000=1=0=1=StretchNormal==CrossFade==,
99999=-nosongbg-=1.000=0=0=0 // don't automatically add -songbackground-
;
#ATTACKS:
;

//---------------dance-single - Marukomuru----------------
#NOTEDATA:;
#CHARTNAME:Marukomuru;
#CHARTHASH:1794902875;
#CHARTTYPE:dance-single;
#STEPSTYPE:dance-single;
#BANNER:;
#DESCRIPTION:Marukomuru;
#CHARTSTYLE:Pad;
#DIFFICULTY:Beginner;
#METER:1;
#METERF:0.000000;
#LASTSECONDHINT:85.986313;
#RADARVALUES:0.132608,0.185099,0.000000,0.000000,0.000000,84.000000,84.000000,0.000000,0.000000,0.000000,0.000000,0.000000,0.000000,0.000000,0.132608,0.185099,0.000000,0.000000,0.000000,84.000000,84.000000,0.000000,0.000000,0.000000,0.000000,0.000000,0.000000,0.000000;
#CREDIT:Marukomuru;
#NOTES:
0000
0000
0000
0000
,
0000
0000
0000
0000
,
0000
0000
0000
0000
,
1000
0000
0000
0000
,
0001
0000
0000
0000
,
1000
0000
0000
0000
,
0001
0000
0000
0000
,
0010
0000
0000
0000
,
0100
0000
0000
0000
,
1000
0000
0000
0000
,
0001
0000
0000
0000
,
0100
0000
0000
0000
,
0010
0000
0000
0000
,
1000
0000
0001
0000
,
0010
0000
0000
0000
,
0100
0000
0000
0000
,
1000
0000
0000
0000
,
0010
0000
0000
0000
,
0100
0000
0000
0000
,
0001
0000
0000
0000
,
1000
0000
0000
0000
,
0001
0000
0010
0000
,
0100
0000
0000
0000
,
1000
0000
0000
0000
,
0001
0000
0000
0000
,
0010
0000
0000
0000
,
0100
0000
1000
0000
,
0001
0000
1000
0000
,
0001
0000
1000
0000
,
0001
0000
0000
0000
,
0000
0000
1000
0000
,
0010
0000
1000
0000
,
0010
0000
1000
0000
,
0010
0000
0000
0000
,
0000
0000
0000
0000
,
0100
0000
0000
0000
,
0001
0000
0000
0000
,
1000
0000
0000
0000
,
0100
0000
0000
0000
,
0010
0000
0000
0000
,
0001
0000
0000
0000
,
1000
0000
0000
0000
,
1000
0000
0000
0000
,
0001
0000
0000
0000
,
1000
0000
0000
0000
,
0010
0000
0010
0000
,
0010
0000
0000
0000
,
0100
0000
0001
0000
,
1000
0000
0000
0000
,
0001
0000
0000
0000
,
1000
0000
0001
0000
,
0010
0000
0100
0000
,
0010
0000
0100
0000
,
0010
0000
0000
0000
,
0000
0000
0001
0000
,
0100
0000
0010
0000
,
1000
0000
0100
0000
,
1000
0000
0000
0000
,
0000
0000
0001
0000
,
0100
0000
0010
0000
,
1000
0000
0100
0000
,
0001
0000
0000
0000
,
0000
0000
0100
0000
,
1000
0000
0001
0000
,
0100
0000
1000
0000
,
0100
0000
0001
0000
,
1000
0000
0100
0000
,
0010
0000
0000
0000
;

//---------------dance-single - Marukomuru----------------
#NOTEDATA:;
#CHARTNAME:Marukomuru;
#CHARTHASH:2933730462;
#CHARTTYPE:dance-single;
#STEPSTYPE:dance-single;
#BANNER:;
#DESCRIPTION:Marukomuru;
#CHARTSTYLE:Pad;
#DIFFICULTY:Easy;
#METER:3;
#METERF:0.000000;
#LASTSECONDHINT:85.825882;
#RADARVALUES:0.178390,0.221705,0.000000,0.154710,0.000000,113.000000,113.000000,0.000000,14.000000,0.000000,0.000000,0.000000,0.000000,0.000000,0.178390,0.221705,0.000000,0.154710,0.000000,113.000000,113.000000,0.000000,14.000000,0.000000,0.000000,0.000000,0.000000,0.000000;
#CREDIT:Marukomuru;
#NOTES:
0000
0000
0000
0000
,
0000
0000
0000
0000
,
0000
0000
0000
0000
,
0001
0000
1000
0000
,
0001
0000
1000
0000
,
0010
0000
1000
0000
,
0010
0000
1000
0000
,
0001
0000
0100
0000
,
0001
0000
0100
0000
,
0010
0000
0100
0000
,
0001
0000
0000
0000
0010
0000
0000
0100
,
0000
0000
0000
0000
1000
0000
0000
0010
,
0000
0000
0000
0000
0100
0000
0000
0001
,
0000
0000
0000
1000
0000
0000
0000
0100
,
0000
0000
0000
0000
1000
0000
0000
0002
,
0000
0200
0000
0000
0300
0000
1003
0000
,
0000
0000
0000
0000
0000
0000
0000
0020
,
0000
0000
0000
1030
,
0000
0000
0000
0000
0001
0000
0000
0010
,
0000
0000
0000
0000
0100
0000
0000
1000
,
0000
0000
0000
0000
0001
0000
0000
0100
,
0000
0000
0000
0010
0000
0000
0000
1000
,
0000
0000
0000
0000
0100
0000
0000
0020
,
0000
0002
0000
0000
0030
0000
1003
0000
,
0000
0000
0000
0000
,
1000
0000
0001
0000
,
1000
0000
0000
0000
0010
0000
0000
1000
,
0000
0000
0000
0000
0100
0000
0000
0001
,
0000
0000
0000
0000
0100
0000
0000
2000
,
0000
0000
0000
0000
,
3001
0000
0000
0000
1000
0000
0000
0010
,
0000
0000
0000
0000
0001
0000
0000
0010
,
0000
0000
0000
0000
1000
0000
0000
0002
,
0000
0000
0000
0000
,
1003
0000
0000
0000
,
0001
0000
0000
1000
0000
0000
0010
0000
,
0000
0000
0000
0000
,
0100
0000
0000
0001
0000
0000
0010
0000
,
0000
0000
0000
0000
,
0001
0000
0000
1000
0000
0000
0010
0000
,
0000
0000
0000
0000
,
2000
0000
0000
0000
0000
0000
0000
3001
,
0000
0000
0000
0000
1000
0000
0000
0010
,
0000
0000
0000
0000
0100
0000
0000
0001
,
0000
0000
0000
0000
0010
0000
0000
0100
,
0000
0000
0000
1000
0000
0000
0000
0001
,
0000
0000
0100
0000
0001
0000
0000
1000
,
0000
0020
0000
0000
0000
0000
0000
0000
,
0030
0000
0000
0000
0000
0000
0000
2000
,
0000
0000
0000
0000
,
3100
0000
0000
0000
0010
0000
0000
0001
,
0000
0000
0000
0000
0100
0000
0000
1000
,
0000
0000
0000
0000
0100
0000
0000
0002
,
0000
0000
0000
0000
,
1003
0000
0000
0000
0010
0000
0000
0100
,
0000
0000
0000
0000
0001
0000
0000
0010
,
0000
0000
0000
0000
1000
0000
0000
0020
,
0000
0000
0000
0000
,
0031
0000
0000
0000
0100
0000
0000
1000
,
0000
0000
0000
0000
0100
0000
0000
0001
,
0000
0000
0000
0000
1000
0000
0000
0200
,
0000
0000
0000
0000
,
0301
0000
0000
0000
0100
0000
0000
1000
,
0000
0000
0000
0000
0001
0000
0000
0100
,
0000
0000
0000
0000
1000
0000
0000
0200
,
0000
0000
0000
0000
,
0301
0000
0000
0000
1000
0000
0000
0100
;

//---------------dance-single - Marukomuru----------------
#NOTEDATA:;
#CHARTNAME:Marukomuru;
#CHARTHASH:799887637;
#CHARTTYPE:dance-single;
#STEPSTYPE:dance-single;
#BANNER:;
#DESCRIPTION:Marukomuru;
#CHARTSTYLE:Pad;
#DIFFICULTY:Medium;
#METER:9;
#METERF:0.000000;
#LASTSECONDHINT:87.269730;
#RADARVALUES:0.394668,0.563586,0.055254,0.596738,0.011051,250.000000,245.000000,5.000000,54.000000,0.000000,0.000000,2.000000,0.000000,0.000000,0.394668,0.563586,0.055254,0.596738,0.011051,250.000000,245.000000,5.000000,54.000000,0.000000,0.000000,2.000000,0.000000,0.000000;
#CREDIT:Marukomuru;
#NOTES:
0000
0000
0000
0000
,
0000
0000
0000
0000
,
0000
0000
0000
0000
,
1000
0000
0000
0000
0001
0001
0000
0000
,
1000
0000
0000
0000
0100
0100
0000
0000
,
1000
0000
0000
0000
0010
0010
0000
0000
,
0100
0000
0000
0000
0001
0001
0000
0000
,
0010
0000
0000
0000
0100
0100
0000
0000
,
1000
0000
0000
0000
0010
0010
0000
0000
,
0100
0000
0000
0000
0001
0001
0000
0000
,
1000
0000
0100
0000
0010
0001
0100
0020
,
0000
0030
1000
0000
0100
0010
0000
0002
,
0000
0003
1000
0000
0010
0100
0000
0002
,
0000
2003
0000
3020
0000
0230
0000
2300
,
0000
0000
3100
0000
0001
0000
1000
0100
,
0000
2000
0000
0000
0000
0000
3001
0000
,
0000
0000
0100
0000
0000
0000
0010
0020
,
0000
0000
1030
0000
0000
0000
0100
0200
,
0000
0000
1300
0000
0001
0010
0000
0200
,
0000
0300
1000
0000
0001
0100
0000
0020
,
0000
0030
1000
0000
0100
0010
0000
0002
,
0000
0203
0000
2300
0000
3020
0000
0032
,
0000
0003
0000
1000
0010
0100
0000
0001
,
0000
2000
0000
0000
0000
0000
3100
0000
,
0000
1000
0000
0001
,
0010
0100
0000
1000
0000
0010
0000
0100
,
0000
0000
0001
0000
1000
0100
0000
0001
,
0000
0000
0100
0000
1000
0001
0000
0100
,
0000
0000
1000
0000
0100
0001
0000
1000
,
0100
2000
0000
3002
0000
0203
0000
0320
,
0000
2030
0000
3100
1000
0100
0000
0001
,
0000
0000
0100
0000
1000
0001
0000
0100
,
0000
0000
1000
0000
0100
0001
0000
1000
,
0010
0000
0100
0002
0000
0023
0000
2030
,
0000
3200
0000
0302
0000
2003
0000
0000
,
3100
0000
0000
1000
0000
0000
0002
0000
,
0000
1000
0000
1003
,
0010
0000
0000
0100
0000
0000
0002
0000
,
0000
0010
0000
0013
,
0100
0000
0000
1000
0000
0000
0020
0000
,
0000
0100
0000
0130
,
0004
0000
0000
0000
0000
0000
0000
0000
0000
0003
1000
0000
0001
0000
4000
0000
,
0000
0000
0000
0000
0000
3000
0000
0000
0001
0000
1000
0000
0100
0000
0020
0000
,
0000
0030
0001
0000
0100
0010
0000
2000
,
0000
3000
0100
0000
0010
0001
0000
0011
,
0000
1001
0000
1010
0000
0110
0000
0101
,
0000
0000
0001
1000
0001
1000
0000
0200
,
0000
0020
0000
0000
0300
0000
0031
0000
,
0000
0000
1000
0000
0000
0000
0010
0200
,
0000
0000
0001
0000
0000
0000
0301
1000
,
0000
0100
0010
0100
1000
0010
0100
0001
,
0000
0000
1000
0000
0100
0001
0000
0100
,
0000
0000
1000
0000
0001
0100
0000
1000
,
0100
0020
0000
2030
0000
3200
0000
0320
,
0000
0032
0000
0103
0010
1000
0000
0100
,
0000
0000
0001
0000
0100
1000
0000
0001
,
0000
0000
0100
0000
1000
0100
0000
0001
,
0010
0000
0100
2000
0000
3020
0000
0032
,
0000
0203
0000
2300
3010
0100
0000
0001
,
0000
0000
0010
0000
1000
0010
0000
0001
,
0000
0000
1000
0000
0010
0001
0000
0010
,
1000
0200
0000
0302
0000
0023
0000
2030
,
0000
3200
0000
0310
0001
1000
0000
0010
,
0000
0000
0001
0000
0010
1000
0000
0001
,
0000
0000
0010
0000
1000
0010
0000
0002
,
0000
0000
1003
1000
0000
0010
0000
0100
,
0000
0001
0010
0100
1000
0010
0000
0002
,
0000
0000
0000
0000
,
0003
0000
0000
0000
;

//---------------dance-single - Marukomuru----------------
#NOTEDATA:;
#CHARTNAME:Marukomuru;
#CHARTHASH:406414697;
#CHARTTYPE:dance-single;
#STEPSTYPE:dance-single;
#BANNER:;
#DESCRIPTION:Marukomuru;
#CHARTSTYLE:Pad;
#DIFFICULTY:Hard;
#METER:13;
#METERF:0.000000;
#LASTSECONDHINT:88.553154;
#RADARVALUES:0.644098,0.648124,0.519383,0.353622,0.000000,408.000000,361.000000,47.000000,32.000000,0.000000,0.000000,0.000000,0.000000,0.000000,0.644098,0.648124,0.519383,0.353622,0.000000,408.000000,361.000000,47.000000,32.000000,0.000000,0.000000,0.000000,0.000000,0.000000;
#CREDIT:Marukomuru;
#NOTES:
0000
0000
0000
0000
,
0000
0000
0000
0000
,
0000
0000
0000
0000
,
0001
0000
0101
0000
0001
1000
0100
0000
,
1000
0000
1100
0000
1000
0001
0100
0000
,
0001
0000
0011
0000
0001
1000
0010
0000
,
1000
0000
1010
0000
1000
0001
0010
0000
,
0100
0000
0110
0000
0100
1000
0010
0000
,
0100
0000
0110
0000
0100
0001
0010
0000
,
0100
0000
0110
0000
0100
1000
0001
0000
,
0100
0010
1000
0100
0001
0100
1000
0001
,
0100
0000
0110
0000
1000
0100
0010
0001
,
0100
0000
0101
0000
0001
0010
0100
1000
,
0010
0000
1010
0000
1000
0001
0100
0010
,
1000
0000
1100
0000
0100
0010
0100
1000
,
0001
0000
0101
0000
0001
0100
1000
0000
,
0100
0000
0110
0000
1000
0100
0001
0200
,
2000
0000
0300
0000
3000
0001
0100
1000
,
0100
0000
0110
0000
1000
0100
0010
0100
,
1000
0000
1001
0000
0001
0100
0010
0100
,
0001
0000
0101
0000
0100
0010
1000
0100
,
0010
0001
0100
0001
0010
0001
0100
0001
,
1000
0000
1100
0000
0100
1000
0010
0100
,
0001
0000
0101
0000
1000
0100
1100
0000
,
1000
0000
1001
0000
0001
0100
0101
0000
,
1000
0100
0010
0100
1000
0010
0100
0010
,
1000
0000
1100
0000
1000
0100
0010
0110
,
0000
0000
0100
0000
1000
0001
0100
0110
,
0000
0000
0010
0000
1000
0100
0010
0110
,
0010
0002
0000
0203
0000
2300
0000
3020
,
0000
0032
0000
1003
0010
0100
0001
0101
,
0000
0000
0001
0000
1000
0100
0010
0110
,
0000
0000
0001
0000
0100
0010
1000
1010
,
1000
0000
0100
1000
0001
0100
0000
0110
,
0000
1010
0000
1100
1000
0001
0000
0100
,
0001
0000
0101
0000
0001
1000
0100
0000
,
1000
0000
1100
0000
1000
0001
0100
0000
,
0001
0000
0011
0000
0001
1000
0010
0000
,
1000
0000
1010
0000
1000
0001
0010
0000
,
0100
1000
0100
0000
1000
0001
1000
0000
,
0010
1000
0010
0000
0100
0001
0100
0000
,
0002
0000
0000
0000
0013
0100
1000
0001
,
0100
1000
0100
0001
1000
0100
0010
0001
,
0100
0000
0110
0000
1000
0100
0010
0100
,
1000
0000
1100
0000
0100
1000
0010
0100
,
0001
0010
0100
0010
0001
0010
0100
1000
,
0001
0000
1000
0010
0001
0010
1000
1010
,
0000
1001
0000
0000
1000
0001
1000
0000
,
0001
0100
0001
0000
1000
0100
1000
0200
,
0000
0000
1000
0000
1300
0010
0100
0001
,
0010
0100
1000
0001
0100
1000
0100
0110
,
0000
0000
1000
0000
0100
0010
0001
0011
,
0000
0000
0100
0000
0001
0100
1000
0100
,
0002
2003
0000
3200
0000
0302
0000
0023
,
0000
2030
0000
3100
1000
0010
0100
0110
,
0000
0000
0010
0000
0100
0001
0010
0110
,
0000
0000
0100
0000
1000
0001
0010
0100
,
2000
0000
3020
0032
0000
0203
0000
2300
,
0000
3020
0000
0130
0001
1000
0100
1100
,
0000
0000
1000
0000
0001
0100
0001
0101
,
0000
0000
1000
0000
0010
1000
0100
0010
,
0002
2003
0000
3200
0000
0302
0000
0023
,
0000
2030
0000
3100
0001
0100
1000
1100
,
0000
0000
0001
0000
0100
1000
0100
0101
,
0000
0000
1000
0000
0100
0001
0100
1000
,
0001
0100
1000
0002
0000
0023
0000
2030
,
0000
3002
0000
0103
1000
0100
0001
2000
,
0000
0000
0000
0000
,
0000
0000
0000
0000
,
3000
0000
0000
0000
;

//---------------dance-single - Marukomuru----------------
#NOTEDATA:;
#CHARTNAME:Marukomuru;
#CHARTHASH:3898731373;
#CHARTTYPE:dance-single;
#STEPSTYPE:dance-single;
#BANNER:;
#DESCRIPTION:Marukomuru;
#CHARTSTYLE:Pad;
#DIFFICULTY:Challenge;
#METER:15;
#METERF:0.000000;
#LASTSECONDHINT:88.633369;
#RADARVALUES:0.808280,0.648711,0.000000,2.210140,1.099545,512.000000,512.000000,0.000000,200.000000,0.000000,0.000000,0.000000,0.000000,0.000000,0.808280,0.648711,0.000000,2.210140,1.099545,512.000000,512.000000,0.000000,200.000000,0.000000,0.000000,0.000000,0.000000,0.000000;
#CREDIT:Marukomuru;
#OFFSET:0.003000;
#BPMS:0.000000=187.000000
;
#STOPS:;
#DELAYS:;
#WARPS:;
#TIMESIGNATURES:0.000000=4=4
;
#TICKCOUNTS:0.000000=4
;
#COMBOS:0.000000=1
;
#SPEEDS:0.000000=0.000000=0.000000=0
,0.062500=0.250000=8.000000=0
,8.000000=1.000000=4.000000=0
,12.000000=1.000000=0.000000=0
;
#SCROLLS:0.000000=0.000000
,8.000000=1.000000
,267.500000=0.330000
,280.000000=1.000000
;
#XSCROLLS:0.000000=0.000000 ;
#FAKES:;
#LABELS:0.000000=Song Start
;
#NOTES:
// measure 0
0000
0000
0000
0000
,  // measure 1
0000
0000
0000
0000
,  // measure 2
0000
0000
0000
0000
,  // measure 3
1000
0100
0010
0001
0100
0010
0100
0001
,  // measure 4
1000
0100
0010
0001
0100
0010
0100
0001
,  // measure 5
1000
0010
0100
0001
0010
0100
0010
0001
,  // measure 6
0100
0010
1000
0100
0010
0100
1000
0010
,  // measure 7
0100
0001
0010
0100
0010
0001
0100
0010
,  // measure 8
0001
0010
0100
0001
0010
0100
1000
0010
,  // measure 9
0100
1000
0100
0010
1000
0100
0010
0001
,  // measure 10
0010
0100
1000
0001
0100
1000
0001
0010
,  // measure 11
1000
0100
1000
0100
1000
0001
1000
0010
,  // measure 12
1000
0010
1000
0010
1000
0001
1000
0001
,  // measure 13
0010
0001
0010
0001
0100
0001
0100
0001
,  // measure 14
0100
0010
0100
0010
1000
0010
1000
0001
,  // measure 15
1000
0001
1000
0001
0010
0001
0010
0100
,  // measure 16
0010
0100
0010
0100
0010
0100
0010
0100
,  // measure 17
0010
0001
1000
0010
0100
0001
0010
0100
,  // measure 18
1000
0001
0100
1000
0001
0010
1000
0100
,  // measure 19
0010
0100
0010
0100
1000
0100
1000
0001
,  // measure 20
1000
0001
1000
0010
1000
0010
1000
0010
,  // measure 21
0100
0001
0100
0010
0100
0001
0100
0010
,  // measure 22
1000
0010
1000
0100
0010
0001
0100
0010
,  // measure 23
1000
0100
0010
0100
0010
0100
1000
0100
,  // measure 24
1000
0100
1000
0100
1000
0100
1000
0100
,  // measure 25
0010
0001
0100
0010
1000
0100
0010
0001
,  // measure 26
1000
0000
0100
0000
1000
0000
0001
0000
0200
0000
2000
0300
0002
3000
0020
0003
,  // measure 27
2000
0030
0200
3000
0002
0300
0200
0003
0002
0300
0200
0003
2000
0300
0002
3000
,  // measure 28
0200
0003
2000
0300
0200
3000
2000
0300
0200
3000
0002
0300
2000
0003
0200
3000
,  // measure 29
0002
0300
2000
0003
0020
3000
0002
0030
2000
0003
0200
3000
0002
0300
2000
0003
,  // measure 30
0020
3000
0002
0030
2000
0003
0200
3000
0002
0300
2000
0003
0020
3000
0002
0030
,  // measure 31
0200
0003
2000
0300
0200
3000
2000
0300
0200
3000
0002
0300
2000
0003
0200
3000
,  // measure 32
0002
0300
0200
0003
0002
0300
0200
0003
0002
0300
0200
0003
2000
0300
0002
3000
,  // measure 33
0200
0003
2000
0300
0002
3000
0020
0003
2000
0030
0002
3000
0200
0003
2000
0300
,  // measure 34
0002
3000
0020
0003
2000
0030
0002
3000
0200
0003
2000
0300
0002
3000
0020
0003
,  // measure 35
1000
0030
0100
0000
1000
0000
0001
0000
1000
0000
0001
0000
0010
0000
0001
0000
,  // measure 36
0010
0001
0010
0001
0010
0001
0010
0001
,  // measure 37
0100
0001
0100
0010
0100
0010
1000
0010
,  // measure 38
1000
0010
1000
0010
1000
0010
1000
0010
,  // measure 39
0100
0010
0100
1000
0100
1000
0100
0001
,  // measure 40
0100
0001
0100
0001
0100
0001
0100
0001
,  // measure 41
0100
0010
1000
0100
0010
0001
0100
0010
,  // measure 42
0001
0010
0100
0001
0010
1000
0001
0100
,  // measure 43
1000
0001
1000
0001
1000
0010
0100
0001
,  // measure 44
0010
0100
0010
0100
0010
0001
0100
1000
,  // measure 45
0001
0010
1000
0100
0001
1000
0010
0001
,  // measure 46
0100
0010
1000
0100
0010
0001
0100
0010
,  // measure 47
0001
0010
0100
0010
0001
0010
0100
1000
,  // measure 48
0100
0010
0100
1000
0100
0010
0100
1000
,  // measure 49
0100
0001
1000
0100
0010
0100
1000
0001
,  // measure 50
0100
0000
1000
0000
0001
0000
0010
0000
2000
0000
0200
3000
0020
0300
0002
0030
,  // measure 51
0200
0003
2000
0300
0200
3000
2000
0300
0200
3000
0002
0300
2000
0003
0200
3000
,  // measure 52
0002
0300
0200
0003
0002
0300
0200
0003
0002
0300
0200
0003
2000
0300
0002
3000
,  // measure 53
0200
0003
2000
0300
0002
3000
0020
0003
2000
0030
0002
3000
0200
0003
2000
0300
,  // measure 54
0002
3000
0020
0003
2000
0030
0002
3000
0200
0003
0020
0300
2000
0030
0200
3000
,  // measure 55
0002
0300
0200
0003
0002
0300
0200
0003
0002
0300
0200
0003
2000
0300
0002
3000
,  // measure 56
0200
0003
2000
0300
0200
3000
2000
0300
0200
3000
0002
0300
2000
0003
0200
3000
,  // measure 57
0002
0300
2000
0003
0020
3000
0002
0030
2000
0003
0200
3000
0002
0300
2000
0003
,  // measure 58
0020
3000
0002
0030
2000
0003
0200
3000
0002
0300
0200
0003
2000
0300
0020
3000
,  // measure 59
0002
0030
0020
0003
0002
0030
0020
0003
0002
0030
0020
0003
2000
0030
0002
3000
,  // measure 60
0020
0003
2000
0030
0020
3000
2000
0030
0020
3000
0002
0030
2000
0003
0020
3000
,  // measure 61
0002
0030
2000
0003
0200
3000
0002
0300
2000
0003
0020
3000
0002
0030
2000
0003
,  // measure 62
0200
3000
0002
0300
2000
0003
0020
3000
0002
0030
2000
0003
0200
3000
0002
0300
,  // measure 63
0020
0003
2000
0030
0020
3000
2000
0030
0020
3000
0002
0030
2000
0003
0020
3000
,  // measure 64
0002
0030
0020
0003
0002
0030
0020
0003
0002
0030
0020
0003
2000
0030
0002
3000
,  // measure 65
0020
0003
2000
0030
0020
3000
2000
0030
0020
3000
0002
0030
2000
0003
0020
3000
,  // measure 66
0200
0030
2000
0300
0002
3000
0020
0003
2000
0030
0200
3000
0002
0300
2000
0000
,  // measure 67
0000
0000
0000
0000
,  // measure 68
0000
0000
0000
0000
,  // measure 69
0003
3000
0000
0000
0000
0000
0000
0000
0000
0000
0000
0000
0000
0000
0000
0000
;
