#VERSION:0.83;
#TITLE:Sexual (Li Da Di);
#SUBTITLE:[Thunderpuss 2000 Edit];
#ARTIST:Amber;
#TITLETRANSLIT:;
#SUBTITLETRANSLIT:;
#ARTISTTRANSLIT:;
#GENRE:Tribal House;
#ORIGIN:;
#TAGS:;
#CREDIT:chewi;
#BANNER:Sexual (Li Da Di) [Thunderpuss 2000 Edit].png;
#BACKGROUND:Sexual (Li Da Di) [Thunderpuss 2000 Edit]-bg.png;
#PREVIEWVID:;
#JACKET:Sexual (Li Da Di) [Thunderpuss 2000 Edit]-jacket.png;
#CDIMAGE:;
#DISCIMAGE:;
#LYRICSPATH:;
#CDTITLE:cdtitle.png;
#MUSIC:Sexual (Li Da Di) [Thunderpuss 2000 Edit].ogg;
#OFFSET:1.835000;
#SAMPLESTART:62.272999;
#SAMPLELENGTH:12.000000;
#SELECTABLE:YES;
#BPMS:0.000000=131.029007
,60.000000=65.514999
,72.000000=131.029007
;
#STOPS:;
#DELAYS:;
#WARPS:;
#TIMESIGNATURES:0.000000=4=4
;
#TICKCOUNTS:0.000000=4
;
#COMBOS:0.000000=1
;
#SPEEDS:0.000000=1.000000=0.000000=0
;
#SCROLLS:0.000000=1.000000
;
#FAKES:;
#LABELS:0.000000=Song Start
;
#BGCHANGES:4.000=Sexual (Li Da Di) [Thunderpuss 2000 Edit].mp4=1.000=1=0=1===CrossFade==,
232.000=Sexual (Li Da Di) [Thunderpuss 2000 Edit]-bg.png=1.000=1=0=1===CrossFade==,
99999=-nosongbg-=1.000=0=0=0 // don't automatically add -songbackground-
;
#KEYSOUNDS:;
#ATTACKS:
;

//---------------dance-single - ----------------
#NOTEDATA:;
#CHARTNAME:;
#CHARTHASH:3207397328;
#STEPSTYPE:dance-single;
#BANNER:;
#DESCRIPTION:;
#CHARTSTYLE:;
#DIFFICULTY:Beginner;
#METER:1;
#METERF:0.000000;
#LASTSECONDHINT:109.895905;
#RADARVALUES:0.000000,0.000000,0.000000,0.000000,0.000000,0.000000,0.000000,0.000000,0.000000,0.000000,0.000000,0.000000,0.000000,0.000000,0.000000,0.000000,0.000000,0.000000,0.000000,0.000000,0.000000,0.000000,0.000000,0.000000,0.000000,0.000000,0.000000,0.000000;
#CREDIT:chewi;
#NOTES:
0000
0000
0000
0000
,
0000
0000
0000
0000
,
0000
0000
0000
0000
,
0000
0000
0000
0000
,
0000
0000
0000
0000
,
1000
0000
1000
0000
,
0001
0000
0001
0000
,
0100
0000
0000
0000
,
0010
0000
0000
0000
,
1000
0000
0000
0000
,
0001
0000
0000
0000
,
0010
0000
0000
0000
,
0100
0000
0000
0000
,
1000
0000
0000
0000
,
0001
0000
0000
0000
,
1001
0000
0000
0000
,
0001
0000
0000
0000
,
1000
0000
0000
0000
,
0000
1000
0000
1000
,
0000
0001
0000
0001
,
0000
0100
0000
0100
,
0000
0010
0000
0010
,
0000
1000
0000
1000
,
0000
0100
0000
0100
,
0100
0000
0000
0000
,
0010
0000
0000
0000
,
0001
0000
0000
0000
,
0010
0000
0000
0000
,
0100
0000
0000
0000
,
1000
0000
0000
0000
,
0010
0000
0000
0000
,
0100
0000
0000
0000
,
0200
0000
0000
0300
,
0100
0000
0000
0000
,
0020
0000
0000
0030
,
0010
0000
0000
0000
,
0100
0000
0100
0000
,
0010
0000
0010
0000
,
1000
0000
1000
0000
,
0001
0000
0001
0000
,
0002
0000
0000
0003
,
0001
0000
0000
0000
,
2000
0000
0000
3000
,
1000
0000
0000
0000
,
0020
0000
0000
0030
,
0010
0000
0000
0000
,
0200
0000
0000
0300
,
0100
0000
0000
0000
,
0100
0000
0000
0000
,
0010
0000
0000
0000
,
1000
0000
0000
0000
,
0100
0000
0000
0000
,
0010
0000
0000
0000
,
0001
0000
0000
0000
,
1000
0000
0000
0000
,
0001
0000
0000
0000
,
2002
0000
0000
0000
,
0000
0000
0000
0000
,
3003
0000
0000
0000
;

//---------------dance-single - ----------------
#NOTEDATA:;
#CHARTNAME:;
#CHARTHASH:263304636;
#STEPSTYPE:dance-single;
#BANNER:;
#DESCRIPTION:;
#CHARTSTYLE:;
#DIFFICULTY:Easy;
#METER:4;
#METERF:0.000000;
#LASTSECONDHINT:109.895905;
#RADARVALUES:0.000000,0.000000,0.000000,0.000000,0.000000,0.000000,0.000000,0.000000,0.000000,0.000000,0.000000,0.000000,0.000000,0.000000,0.000000,0.000000,0.000000,0.000000,0.000000,0.000000,0.000000,0.000000,0.000000,0.000000,0.000000,0.000000,0.000000,0.000000;
#CREDIT:chewi;
#NOTES:
0000
0000
0000
0000
,
0000
0000
0000
0000
,
0000
0000
0000
0000
,
0000
0000
0000
0000
,
0000
0000
0000
0000
,
1000
0000
1000
0000
,
0001
0000
0001
0000
,
0100
0001
0100
0000
,
0001
0100
0001
0000
,
0100
0010
0100
0000
,
0010
0100
0010
0000
,
0010
1000
0010
0000
,
1000
0010
1000
0000
,
0001
1000
0001
0000
,
1000
0001
1000
0000
,
1001
0000
0000
0000
,
0110
0000
0000
0000
,
1001
0000
0000
0000
,
0000
1000
0000
1000
,
0000
0001
0000
0001
,
0000
0100
0000
0100
,
0000
0010
0000
0010
,
0000
1000
0000
1000
,
0000
0010
0000
0010
,
0010
0000
0100
0000
,
0010
0100
0001
0000
,
0010
0000
0100
0000
,
0010
0100
1000
0000
,
0001
0000
0010
0000
,
0100
0010
0001
0000
,
0100
0000
0010
0000
,
0100
0010
0100
0000
,
0100
0001
0100
0000
,
0001
0100
0001
0000
,
0100
0000
0001
0000
,
0010
0000
1000
0000
,
0100
0000
0001
0000
,
0100
0000
1000
0000
,
0010
0000
0001
0000
,
0100
0000
1000
0000
,
0100
1000
0100
0000
,
1000
0100
1000
0000
,
0100
0000
1000
0000
,
0010
0000
0001
0000
,
0100
0000
1000
0000
,
0100
0000
0001
0000
,
0010
0000
1000
0000
,
0100
0000
0001
0000
,
0100
0001
0100
0000
,
0001
0100
0001
0000
,
0100
0010
0100
0000
,
0010
0100
0010
0000
,
0010
1000
0010
0000
,
1000
0010
1000
0000
,
0001
1000
0001
0000
,
1000
0001
1000
0000
,
2002
0000
0000
0000
,
0000
0000
0000
0000
,
3003
0000
0000
0000
;

//---------------dance-single - ----------------
#NOTEDATA:;
#CHARTNAME:;
#CHARTHASH:3494350513;
#STEPSTYPE:dance-single;
#BANNER:;
#DESCRIPTION:;
#CHARTSTYLE:;
#DIFFICULTY:Medium;
#METER:7;
#METERF:0.000000;
#LASTSECONDHINT:109.895905;
#RADARVALUES:0.000000,0.000000,0.000000,0.000000,0.000000,0.000000,0.000000,0.000000,0.000000,0.000000,0.000000,0.000000,0.000000,0.000000,0.000000,0.000000,0.000000,0.000000,0.000000,0.000000,0.000000,0.000000,0.000000,0.000000,0.000000,0.000000,0.000000,0.000000;
#CREDIT:chewi;
#NOTES:
0000
0000
0000
0000
,
0000
0000
0000
0000
,
0000
0000
0000
0000
,
0000
0000
0000
0000
,
0000
0000
0000
0000
,
1000
0100
1000
0100
,
0010
0001
0010
0001
,
0101
0000
0100
0100
0100
0000
0001
0001
,
0001
0100
0001
0010
,
0100
0000
0100
0100
0100
0000
0010
0010
,
0010
0100
1000
0010
,
0100
0010
0100
0010
,
1000
0001
1000
0001
,
1001
0000
0110
0000
,
1001
0110
1001
0110
,
2002
0000
0000
3003
,
0202
0000
0000
0000
0000
0000
0000
0000
0303
0000
0000
0000
0000
0100
0000
0000
,
0220
0000
0000
0000
0330
0010
0100
0010
,
0100
0100
0010
0010
,
2000
3002
2003
3200
,
0310
0010
0001
0001
,
0020
0230
2300
3002
,
1003
0000
1000
1000
1000
0000
0001
0001
,
0001
0000
0000
0000
0000
0000
0000
0000
0000
0000
0000
0000
0000
0000
0000
0000
0000
0000
0000
0000
0000
0000
0000
0000
0000
0000
0000
0000
0000
0000
0000
0000
0000
0000
0000
0000
0000
0000
0000
0000
0000
0000
0000
0000
0000
0000
0000
0000
1000
0000
0000
0000
0000
0000
0000
0000
0000
0000
0000
0000
0000
0000
0000
0000
0000
0000
0000
0000
0000
0000
0000
0000
0001
0000
0000
0000
0000
0000
0000
0000
0000
0000
0000
0000
0000
0000
0000
0000
0000
0000
0000
0000
0000
0000
0000
0000
1000
0000
0000
0000
0000
0000
0000
0000
0000
0000
0000
0000
0000
0000
0000
0000
0000
0000
0000
0000
0000
0000
0000
0000
0001
0000
0000
0000
0000
0000
0000
0000
0000
0000
0000
0000
0000
0000
0000
0000
0000
0000
0000
0000
0000
0000
0000
0000
1000
0000
0000
0000
0000
0000
0000
0000
0000
0000
0000
0000
0000
0000
0000
0000
0000
0000
0000
0000
0000
0000
0000
0000
0001
0000
0000
0000
0000
0000
0000
0000
0000
0000
0000
0000
0000
0000
0000
0000
0000
0000
0000
0000
0000
0000
1000
0000
,
1001
1000
0001
1000
,
0010
0100
0010
0100
,
0001
0100
0001
0100
,
0010
1000
0010
1000
,
0001
0010
0100
1000
,
0001
0010
0100
1000
,
1000
0100
0010
0001
,
1000
0100
0010
0001
,
0012
0103
0102
0013
,
0012
0103
0010
0100
,
0100
0001
0000
0000
0100
0001
0000
0000
,
1000
0010
0000
0000
1000
0010
0000
0000
,
1000
0001
0000
0000
1000
0001
0000
0000
,
0010
0100
0000
0000
0010
0100
0000
0000
,
0100
0100
0010
0010
,
0001
1000
1000
0001
,
2100
3010
2010
3100
,
2100
3010
0100
0010
,
0010
1000
0000
0000
0010
1000
0000
0000
,
0001
0100
0000
0000
0001
0100
0000
0000
,
0001
1000
0000
0000
0001
1000
0000
0000
,
0100
0010
0000
0000
0100
0010
0000
0000
,
0010
0010
0100
0100
,
1000
0001
0001
1000
,
1010
0000
0010
0010
0010
0000
1000
1000
,
1000
0010
1000
0100
,
0010
0000
0100
0100
0100
0000
0010
0010
,
0020
0032
0203
0320
,
2030
3100
0010
0100
,
1000
0010
1000
0010
,
1010
0000
0101
0000
,
1001
0110
1001
0110
,
2002
0000
0000
0000
,
0000
0000
0000
0000
,
3003
0000
0000
0000
;

//---------------dance-single - ----------------
#NOTEDATA:;
#CHARTNAME:;
#CHARTHASH:3855362510;
#STEPSTYPE:dance-single;
#BANNER:;
#DESCRIPTION:;
#CHARTSTYLE:;
#DIFFICULTY:Hard;
#METER:11;
#METERF:0.000000;
#LASTSECONDHINT:109.895905;
#RADARVALUES:0.453795,0.570887,0.259494,0.178961,0.174487,355.000000,326.000000,29.000000,20.000000,0.000000,0.000000,0.000000,0.000000,0.000000,0.453795,0.570887,0.259494,0.178961,0.174487,355.000000,326.000000,29.000000,20.000000,0.000000,0.000000,0.000000,0.000000,0.000000;
#CREDIT:chewi;
#NOTES:
// measure 0
0000
0000
0000
0000
,  // measure 1
0000
0000
0000
0000
,  // measure 2
0000
0000
0000
0000
,  // measure 3
0000
0000
0000
0000
,  // measure 4
0000
0000
0000
0000
,  // measure 5
1000
0100
1000
0100
0010
0001
0010
0001
,  // measure 6
1000
0010
1000
0010
0100
0001
0100
0001
,  // measure 7
0101
0000
0100
0001
0010
0000
0100
1000
,  // measure 8
0010
0000
0100
0001
0010
0100
1000
0010
,  // measure 9
0100
0000
0010
1000
0100
0000
0010
0001
,  // measure 10
0100
0000
0010
1000
0100
0010
0001
0100
,  // measure 11
0010
0100
0010
0100
0010
0100
0010
0100
,  // measure 12
0001
1000
0001
1000
0001
1000
0001
1000
,  // measure 13
1100
0000
0000
0100
0110
0000
0000
0010
,  // measure 14
0011
0001
0101
0100
0110
0010
1010
1000
,  // measure 15
2002
0000
0000
0000
0000
0000
0000
0003
,  // measure 16
0020
0000
0000
0000
0000
0000
0000
0000
0000
0000
0000
0000
3000
0230
0000
0000
,  // measure 17
0002
0000
0000
0000
0000
0000
0000
0000
0303
0100
0001
0100
0001
1000
0010
1000
,  // measure 18
0020
0000
0000
0000
0230
0000
0000
0000
0310
0000
0000
0010
0000
0000
0010
0000
,  // measure 19
2000
0000
0000
0000
3002
0000
0000
0000
1003
0000
0000
1000
0000
0000
1000
0000
,  // measure 20
0002
0000
0000
0000
0023
0000
0000
0000
0130
0000
0000
0100
0000
0000
0100
0000
,  // measure 21
0020
0000
0000
0000
0032
0000
0000
0000
1003
0000
0000
1000
0000
0000
1000
0000
,  // measure 22
0001
0000
1000
1000
1000
0100
0001
0100
,  // measure 23
0010
0001
0010
0100
1000
0010
1000
0010
,  // measure 24
1000
0000
0000
0001
0000
0000
0010
0000
0010
0000
0000
0100
0000
0000
1000
0000
,  // measure 25
0010
0000
0000
0100
0000
0000
0010
0000
0010
0000
0000
1000
0000
1000
0100
0000
,  // measure 26
1000
0000
0000
0001
0000
0000
0100
0000
0100
0000
0000
0010
0000
0000
1000
0000
,  // measure 27
0100
0000
0000
0010
0000
0000
0100
0000
0100
0000
0000
1000
0000
1000
0010
0000
,  // measure 28
1010
0000
0000
0000
0100
0000
0001
0000
0010
0000
0000
0100
0000
0100
0010
0000
,  // measure 29
0011
0000
0000
0000
0001
0000
0000
0000
0010
0100
0000
0100
1000
0000
0010
0000
,  // measure 30
0100
0010
0100
0010
1000
0001
1000
0001
,  // measure 31
0101
0000
0000
0000
1010
0000
0000
0000
0101
0000
0000
1001
0000
0000
1100
0000
,  // measure 32
0011
0000
0000
0010
0001
0000
0100
0000
0100
0000
0000
0010
1000
0000
0100
0000
,  // measure 33
0110
0000
0000
0010
0100
0000
1000
0000
1100
0000
0000
0001
0100
0000
0010
0000
,  // measure 34
1000
0000
0000
0100
0000
0000
1000
0000
0010
0000
0000
0010
0000
0000
0010
0000
,  // measure 35
1000
1000
0000
0100
0000
0000
0001
0100
,  // measure 36
1000
0000
0001
0000
0000
0000
0100
0000
0010
0000
0000
0010
0000
0000
0010
0000
,  // measure 37
0100
0010
0000
0100
0000
0000
0010
0001
,  // measure 38
0010
0000
1000
0000
0000
0000
0100
0000
1000
0000
0000
1000
0000
0000
1000
0000
,  // measure 39
0001
1000
0001
1000
0010
1000
0010
1000
,  // measure 40
1100
0000
0000
0100
1000
0000
0010
0000
0010
0000
0000
0100
0001
0000
0010
0000
,  // measure 41
0110
0000
0000
0100
0010
0000
0001
0000
0011
0000
0000
1000
0010
0000
0100
0000
,  // measure 42
0001
0000
0000
0010
0000
0000
0001
0000
0100
0000
0000
0100
0000
0000
0100
0000
,  // measure 43
0001
0001
0000
0010
0000
0000
1000
0010
,  // measure 44
0001
0000
1000
0000
0000
0000
0010
0000
0100
0000
0000
0100
0000
0000
0100
0000
,  // measure 45
0010
0100
0000
0010
0000
0000
0100
0001
,  // measure 46
0101
0000
0010
0100
0110
0000
0100
1000
,  // measure 47
1100
1000
1010
0010
0110
0100
0101
0001
,  // measure 48
1001
0000
0100
1000
0010
0000
0100
0001
,  // measure 49
0010
0000
0100
1000
0010
0100
0001
0010
,  // measure 50
0100
0000
0010
0001
0100
0000
0010
1000
,  // measure 51
0200
0320
0032
2003
,  // measure 52
3020
0000
0130
0010
1000
0000
0100
0010
,  // measure 53
0001
0000
0100
0010
1000
0010
0100
0001
,  // measure 54
0100
0001
0100
0001
0010
0001
0010
0001
,  // measure 55
0010
0100
0010
0100
1000
0100
1000
0100
,  // measure 56
2200
0000
0000
0000
,  // measure 57
0000
0000
0000
0000
,  // measure 58
3300
0000
0000
0000
;
