#TITLE:Pure Fish;
#SUBTITLE:;
#ARTIST:Gammer & Klubfiller;
#TITLETRANSLIT:;
#SUBTITLETRANSLIT:;
#ARTISTTRANSLIT:;
#CREDIT:;
#BANNER:Pure Fish-bn.png;
#BACKGROUND:Pure Fish-bg.png;
#LYRICSPATH:;
#CDTITLE:cd.png;
#MUSIC:Pure Fish.mp3;
#OFFSET:-5.700;
#SAMPLESTART:60.770;
#SAMPLELENGTH:12.000;
#SELECTABLE:YES;
#BPMS:0.000=169.980,64.000=42.495,72.000=169.980;
#STOPS:132.000=1.059
,193.000=0.706
,225.000=0.353
;
#BGCHANGES:;

//---------------dance-single - ----------------
#NOTES:
     dance-single:
     :
     Hard:
     13:
     0.626,0.592,0.601,0.185,0.222: // measure 1
1001
0000
0001
1000
0001
0000
0001
1000
,  // measure 2
0001
0000
0001
1000
0001
0000
0001
1000
,  // measure 3
0001
0000
0001
1000
0001
0000
0001
1000
,  // measure 4
0001
0000
0001
1000
0001
0000
0001
1000
,  // measure 5
0010
0000
0010
1000
0010
0000
0010
1000
,  // measure 6
0010
0000
0010
1000
0010
0000
0010
1000
,  // measure 7
0010
0000
0010
1000
0010
0000
0010
1000
,  // measure 8
0010
0100
0100
0100
,  // measure 9
0010
0000
0100
0010
0100
0000
0001
0100
,  // measure 10
0001
0000
0010
0001
0010
0000
0100
1000
,  // measure 11
0100
0000
1000
0001
1000
0000
0001
0100
,  // measure 12
0001
0000
0100
0010
0100
0000
0001
0100
,  // measure 13
0010
0000
1000
0001
0100
0000
0001
0100
,  // measure 14
0010
0000
1000
0100
0010
0000
0001
0100
,  // measure 15
0010
0000
1000
0001
0100
0000
0001
1000
,  // measure 16
0010
0000
0100
0000
0000
0010
0000
0000
,  // measure 17
2000
0000
3002
0000
,  // measure 18
0203
0000
0320
0000
,  // measure 19
1030
0000
0000
0010
0000
0000
1000
0000
0000
0010
0000
0000
1000
0000
0000
0010
,  // measure 20
0000
0000
1010
0000
0000
0110
0000
0000
0110
0000
0000
0110
0000
0000
1001
0000
,  // measure 21
0000
0000
0001
0000
0000
0100
0000
0000
0001
0000
0000
1000
0000
0000
0100
0000
,  // measure 22
0010
0000
0000
1100
0000
0000
1100
0000
0000
1100
0000
0000
1100
0000
0000
0000
,  // measure 23
0001
0000
0000
1000
0000
0000
0100
0000
0000
0010
0000
0000
0001
0000
0000
1000
,  // measure 24
0000
0000
1100
0000
0000
1100
0000
0000
1100
0000
0000
1100
0000
0000
1010
0000
,  // measure 25
0000
0000
0001
0000
0000
0100
0000
0000
0001
0000
0000
1000
0000
0000
0010
0000
,  // measure 26
1000
0000
0000
0010
0000
0000
1001
0000
0000
0011
0000
0000
1001
0000
0000
0000
,  // measure 27
1010
1010
1001
1001
,  // measure 28
1100
1100
1001
1001
,  // measure 29
0110
0110
1001
1001
,  // measure 30
0011
0011
1100
1100
,  // measure 31
1000
0001
1000
0001
1000
0001
1000
0001
,  // measure 32
1000
0010
0100
0010
0100
0010
0100
0010
,  // measure 33
0100
0001
0100
0010
1000
0100
1000
0001
,  // measure 34
1001
0000
0000
0000
1001
0000
0000
0001
1000
0000
0001
0000
0100
0000
0010
0000
,  // measure 35
0100
0000
0000
0000
1001
0000
0000
1000
0100
0000
1000
0000
2001
0000
0000
0000
,  // measure 36
3010
0000
0000
0000
1001
0000
0000
0001
0100
0000
0010
0000
0100
0000
0001
0000
,  // measure 37
0010
0000
0000
0000
1100
0000
0000
1000
0001
0000
0100
0000
0001
0000
0001
0000
,  // measure 38
2001
0000
0000
0000
3100
0000
0000
1000
0010
0000
0100
0000
0001
0000
1000
0000
,  // measure 39
0001
0000
0000
0000
1001
0000
0000
0100
1000
0000
0010
0000
0102
0000
0000
0000
,  // measure 40
1003
0000
0000
0000
0101
0000
0000
1000
0001
0000
1000
0000
0010
0000
0100
0000
,  // measure 41
0001
0000
0000
0000
1100
0000
0000
1000
0001
0000
0100
0000
0002
0000
0000
0000
,  // measure 42
0003
0000
0000
0000
1001
0000
0000
0100
0010
0000
0010
0000
0100
0000
0010
0000
,  // measure 43
0110
0000
0000
0000
1001
0000
0000
1000
0001
0000
0100
0000
1002
0000
0000
0000
,  // measure 44
1003
0000
0000
0000
0110
0000
0000
0010
0100
0000
0001
0000
0100
0000
0010
0000
,  // measure 45
2000
0000
0000
0000
3001
0000
0000
1000
0010
0000
0100
0000
0010
0000
0010
0000
,  // measure 46
0020
0000
0000
0000
0130
0000
0000
0001
0100
0000
0010
0000
1000
0000
0010
0000
,  // measure 47
0100
0000
0000
0000
1001
0000
0000
0001
1000
0000
0100
0000
1200
0000
0000
0000
,  // measure 48
1300
0000
0000
0000
1001
0000
0000
0001
0100
0000
0010
0000
0100
0000
0010
0000
,  // measure 49
0100
0000
0000
0000
0002
0000
0000
0000
0003
0000
0000
0000
1001
0000
0000
0001
,  // measure 50
1000
0000
0010
0000
1000
0000
0010
0000
0100
0000
0000
0000
1001
0000
0001
0100
,  // measure 51
0001
0000
0100
0000
0002
0000
0000
0000
1003
0000
0000
0000
1001
0000
0000
1000
,  // measure 52
0010
0000
0100
0000
0001
0000
1000
0000
0010
0000
0000
0000
1001
0000
1000
0001
,  // measure 53
1000
0000
0100
0000
0010
0000
0001
0000
1000
0000
0000
0000
1001
0000
0000
0001
,  // measure 54
0100
0000
0001
0000
1000
0000
0010
0000
0100
0000
0000
0000
1001
0000
1000
0010
,  // measure 55
1000
0000
0001
0000
0020
0000
0000
0000
0031
0000
0000
0000
1001
0000
0000
0100
,  // measure 56
0010
0000
0100
0000
0001
0000
0100
0000
0010
0000
0000
0000
1001
0000
0001
1000
,  // measure 57
0010
0000
0010
0000
1001
0000
0000
0000
1001
0000
0001
0100
0001
0000
0010
0000
,  // measure 58
0100
0000
1000
0000
0001
0000
1000
0000
0100
0000
0010
0100
1000
0000
0001
0000
,  // measure 59
2000
0000
0000
0000
3001
0000
0000
0000
1001
0000
0001
0100
0001
0000
1000
0000
,  // measure 60
0010
0000
0100
0000
0001
0000
1000
0000
0001
0000
1000
0100
0010
0000
0001
0000
,  // measure 61
1000
0000
1000
0000
2000
0000
0000
0000
3001
0000
0000
0010
0100
0000
1000
0000
,  // measure 62
0001
0000
0100
0000
0010
0000
0000
0000
1001
0000
0000
1000
0001
0000
0100
0000
,  // measure 63
0020
0000
0000
0000
1030
0000
0000
0000
0100
0000
0000
1000
0100
0000
0010
0000
,  // measure 64
0001
0100
0020
0000
2030
0000
0000
0000
,  // measure 65
3001
0000
0000
0000
;

//---------------dance-single - ----------------
#NOTES:
     dance-single:
     :
     Medium:
     7:
     0.379,0.444,0.203,0.092,0.000: // measure 1
1000
0001
0100
0110
,  // measure 2
1000
0001
0010
0011
,  // measure 3
0001
1000
0100
1100
,  // measure 4
1000
0001
0010
0101
,  // measure 5
0002
2003
3010
1010
,  // measure 6
0020
0230
0301
0101
,  // measure 7
0200
0320
1030
0001
,  // measure 8
2002
0000
0000
3003
,  // measure 9
0001
0000
1000
0000
0010
0000
1000
0010
,  // measure 10
1000
0000
0010
0000
0100
0000
0001
1000
,  // measure 11
0001
0000
0010
0000
0100
0000
1000
0010
,  // measure 12
1000
0000
0001
0000
0100
0000
0010
1000
,  // measure 13
0010
0000
0001
0000
1000
0000
0001
1000
,  // measure 14
0001
0000
0010
0000
0100
0000
1000
0001
,  // measure 15
1000
0010
0100
0010
,  // measure 16
2000
0000
3001
0000
,  // measure 17
0001
0000
1000
0000
,  // measure 18
0010
0000
0100
0000
,  // measure 19
1000
0000
0001
0000
,  // measure 20
1000
0001
1000
0000
,  // measure 21
0010
0000
0100
0000
,  // measure 22
0010
0100
0010
0000
,  // measure 23
1000
0000
0001
0000
,  // measure 24
1000
0001
1000
0000
,  // measure 25
0010
0000
0100
0000
,  // measure 26
0010
0100
0010
0000
,  // measure 27
0100
0000
0100
0000
,  // measure 28
0100
0000
0100
0000
,  // measure 29
0100
0000
0100
0000
,  // measure 30
0100
0000
0100
0000
,  // measure 31
0100
0100
0010
0010
,  // measure 32
1000
1000
0001
0001
,  // measure 33
0100
0010
0100
0001
,  // measure 34
1000
0010
0100
0010
,  // measure 35
1001
0010
1000
0001
,  // measure 36
1001
0001
0010
0100
,  // measure 37
1010
0010
0100
0001
,  // measure 38
1001
0010
1000
0001
,  // measure 39
1001
0010
1000
0001
,  // measure 40
1001
0010
0100
0001
,  // measure 41
1000
0100
0010
1001
,  // measure 42
0000
0000
0001
0000
1000
0000
0010
0100
,  // measure 43
0001
0000
1000
0000
0010
0100
0010
0000
,  // measure 44
1001
0100
0010
0001
,  // measure 45
1000
0000
0010
1000
0010
0000
0100
0001
,  // measure 46
0100
0000
0010
0000
0100
0000
0001
1000
,  // measure 47
0010
0000
0100
0000
0001
0010
0100
0000
,  // measure 48
1001
0000
0010
0000
1000
0001
1000
0000
,  // measure 49
0010
0100
0000
0010
,  // measure 50
1000
0001
1000
0000
0010
1000
0010
0000
,  // measure 51
0100
0001
0100
0000
0010
0000
1000
0000
,  // measure 52
0001
0010
0001
0000
1000
0010
1000
0000
,  // measure 53
0010
0100
0010
0000
0100
0000
0001
0000
,  // measure 54
1000
0010
1000
0000
0001
0100
0001
0000
,  // measure 55
0100
0010
1000
0000
1001
0000
0010
0000
,  // measure 56
0100
0001
1000
0000
0010
0100
0001
0000
,  // measure 57
1000
0010
1000
0000
0001
0000
1000
0000
,  // measure 58
0001
0000
1001
0000
0001
1000
0001
1000
,  // measure 59
0001
1001
0010
0100
,  // measure 60
0010
0000
0110
0000
0010
0100
0010
0100
,  // measure 61
0010
1001
0010
1000
,  // measure 62
0001
1000
0010
0000
0100
0000
0001
0000
,  // measure 63
1000
1001
0010
0100
,  // measure 64
0001
1000
0002
0000
,  // measure 65
1003
0000
0000
0000
;

//---------------dance-single - ----------------
#NOTES:
     dance-single:
     :
     Easy:
     5:
     0.258,0.296,0.065,0.028,0.000: // measure 1
0010
0000
0100
0000
,  // measure 2
0001
0000
1000
0000
,  // measure 3
0001
0000
1000
0000
,  // measure 4
0010
0000
0100
0000
,  // measure 5
0010
0000
0100
0000
,  // measure 6
0001
0000
1000
0000
,  // measure 7
0001
0000
1000
0000
,  // measure 8
1001
0000
0000
0000
,  // measure 9
1000
0000
0001
0001
,  // measure 10
0100
0000
0010
0010
,  // measure 11
0100
0000
1000
1000
,  // measure 12
0001
0000
0010
0010
,  // measure 13
0001
0000
1000
1000
,  // measure 14
0010
0000
0001
1000
,  // measure 15
0001
0000
1000
0010
,  // measure 16
0100
0000
0010
0000
,  // measure 17
0100
0000
0010
0000
,  // measure 18
0100
0000
0001
0000
,  // measure 19
1000
0000
0001
0000
,  // measure 20
1000
0000
0010
0000
,  // measure 21
0100
0000
0010
0000
,  // measure 22
0100
0000
0001
0000
,  // measure 23
1000
0000
0010
0000
,  // measure 24
0100
0000
0010
0000
,  // measure 25
0100
0000
0010
0000
,  // measure 26
0100
0000
0001
0000
,  // measure 27
2002
0000
0000
0000
,  // measure 28
0000
0000
0000
0000
,  // measure 29
0000
0000
0000
0000
,  // measure 30
0000
0000
0000
0000
,  // measure 31
3003
1000
1000
1000
,  // measure 32
0001
0001
0001
0001
,  // measure 33
0100
0100
0010
0010
,  // measure 34
0100
0010
0100
0010
,  // measure 35
0100
0010
1000
0001
,  // measure 36
0000
1000
0001
1000
,  // measure 37
0010
0100
1000
0001
,  // measure 38
0000
0001
0010
0001
,  // measure 39
0010
0100
1000
0001
,  // measure 40
0000
1000
0010
0100
,  // measure 41
0010
1000
0001
1000
,  // measure 42
0000
0001
1000
0001
,  // measure 43
0001
1000
0001
1000
,  // measure 44
1001
1000
0001
1000
,  // measure 45
1000
0010
0100
0010
,  // measure 46
0100
0010
0010
0100
,  // measure 47
0100
0010
0100
0010
,  // measure 48
1001
0001
0010
0001
,  // measure 49
1000
0001
0000
0001
,  // measure 50
0000
0001
0001
1000
,  // measure 51
0010
1000
0010
1000
,  // measure 52
0000
0001
1000
0010
,  // measure 53
0100
0010
1000
0001
,  // measure 54
0000
1000
0001
0010
,  // measure 55
0100
0010
0001
1000
,  // measure 56
0000
0010
0100
0010
,  // measure 57
0100
1001
1000
1000
,  // measure 58
0001
0001
1000
0010
,  // measure 59
0100
1001
0001
0010
,  // measure 60
0100
1000
0001
1000
,  // measure 61
0010
1001
1000
1000
,  // measure 62
0001
0001
1000
0001
,  // measure 63
1000
0001
1000
1000
,  // measure 64
0010
0100
0020
0000
,  // measure 65
0130
0000
0000
0000
;
