#VERSION:0.83;
#TITLE:パラソルサイダー;
#SUBTITLE:;
#ARTIST:MORE MORE JUMP!;
#TITLETRANSLIT:Parasol Cider;
#SUBTITLETRANSLIT:;
#ARTISTTRANSLIT:;
#GENRE:;
#ORIGIN:;
#CREDIT:;
#BANNER:Parasol Cider_banner.png;
#BACKGROUND:Parasol Cider_bg.png;
#PREVIEWVID:;
#JACKET:Parasol Cider_jk.png;
#CDIMAGE:;
#DISCIMAGE:;
#LYRICSPATH:;
#CDTITLE:;
#MUSIC:Parasol_Cider.ogg;
#OFFSET:-0.015000;
#SAMPLESTART:55.242271;
#SAMPLELENGTH:15.000000;
#SELECTABLE:YES;
#BPMS:0.000=176.000;
#STOPS:;
#DELAYS:;
#WARPS:;
#TIMESIGNATURES:0.000=4=4;
#TICKCOUNTS:0.000=4;
#COMBOS:0.000=1;
#SPEEDS:0.000=1.000=0.000=0;
#SCROLLS:0.000=1.000;
#FAKES:;
#LABELS:0.000=Song Start;
#BGCHANGES:;
#KEYSOUNDS:;
#ATTACKS:
;

//---------------dance-single - ----------------
#NOTEDATA:;
#CHARTNAME:;
#STEPSTYPE:dance-single;
#DESCRIPTION:;
#CHARTSTYLE:;
#DIFFICULTY:Hard;
#METER:14;
#RADARVALUES:0.684379,0.816011,0.514066,0.492191,0.306252,438.000000,391.000000,47.000000,45.000000,0.000000,0.000000,0.000000,0.000000,0.000000,0.684379,0.816011,0.514066,0.492191,0.306252,438.000000,391.000000,47.000000,45.000000,0.000000,0.000000,0.000000,0.000000,0.000000;
#CREDIT:Karl with a K;
#NOTES:
// measure 0
0000
0000
0000
0000
,  // measure 1
0000
0000
0000
0000
,  // measure 2
0000
0000
0000
0000
,  // measure 3
0000
0000
0000
0000
,  // measure 4
0000
0000
0000
0000
,  // measure 5
0000
0000
0000
0000
,  // measure 6
0000
1000
0100
0011
0000
0000
0101
0000
,  // measure 7
0001
1000
0100
1000
0001
0100
0010
0110
,  // measure 8
0000
0000
0001
0000
1001
0000
0000
0000
1000
0000
0000
0100
0000
0000
1000
0000
,  // measure 9
0001
0000
0010
0000
0001
1000
0001
0000
1000
0000
0000
0001
0000
0000
1000
0000
,  // measure 10
0010
1000
0010
1000
0010
0000
1000
0000
0001
0000
0000
0100
0000
0000
0001
0000
,  // measure 11
1000
0000
0010
0000
1000
0001
1000
0000
0001
0000
0000
1000
0000
0000
0001
0010
,  // measure 12
0001
0000
0010
0000
0100
0000
1000
0000
0001
0000
0000
0010
0000
0000
0001
0000
,  // measure 13
1000
0000
0100
0000
1000
0001
1000
0000
0001
0000
0000
1000
0000
0000
0001
0000
,  // measure 14
0100
0001
1000
0001
0100
0000
0001
0000
1000
0000
0100
0010
0001
0000
1000
0010
,  // measure 15
0100
0000
0001
1000
0100
0000
0110
0000
0000
0000
1001
0000
0000
0000
1010
0000
,  // measure 16
0000
0000
1000
0010
1000
0000
0100
0000
2000
0000
0000
0000
3002
0000
0000
0000
,  // measure 17
0023
0230
2300
3002
,  // measure 18
0203
0302
2003
3001
,  // measure 19
0001
1000
0100
0000
0200
0000
0320
0000
,  // measure 20
0031
1000
0001
0000
0200
0000
0320
0000
,  // measure 21
1030
0001
1000
0000
0200
0000
0320
0000
,  // measure 22
0031
1000
0001
0100
0010
0000
1000
0000
,  // measure 23
1000
0000
0001
0000
0100
0000
0000
0000
0001
0000
0000
0001
1000
0000
0001
0000
,  // measure 24
0010
0000
0100
0000
0100
0000
1000
0000
0001
0000
0000
0100
0001
0000
1000
0000
,  // measure 25
0010
0000
0100
0000
0001
0000
1000
0000
0001
0000
0000
0010
0001
0000
1000
0000
,  // measure 26
0020
0000
0000
0000
1030
0000
0001
0000
1000
0000
0000
0010
1000
0000
0001
0000
,  // measure 27
0100
0000
0010
0000
1000
0000
0001
0000
1000
0000
0000
0100
1000
0000
0020
0000
,  // measure 28
0000
0000
0130
0000
0001
0000
1000
0000
1000
0000
0000
0100
1000
0000
0001
0000
,  // measure 29
0010
0000
0100
0000
1000
0000
0001
0000
1000
0000
0000
0010
1000
0000
0001
0000
,  // measure 30
0020
0000
0000
0000
0031
0000
1000
0000
0001
0000
0000
0010
0001
0000
1000
0000
,  // measure 31
0100
0000
0010
0000
0001
0000
1000
0000
0001
1000
0001
1000
0010
0000
0100
0000
,  // measure 32
0001
0000
1001
0000
2010
0000
3001
2000
,  // measure 33
0100
0000
3001
1000
0012
0000
1003
0002
,  // measure 34
0100
0000
1003
0000
2100
0000
3001
2000
,  // measure 35
0010
0000
3001
1000
0102
0000
1003
0200
,  // measure 36
0010
0000
1300
0000
0011
0000
0000
1010
,  // measure 37
0000
0000
1001
1100
0000
0101
0000
0000
,  // measure 38
0110
0000
0000
0010
0000
0000
0100
0000
0020
1000
0000
1030
0100
0000
0020
0001
,  // measure 39
0000
0031
0100
0000
0010
1000
0001
1000
0100
0000
0001
0000
0100
0000
0000
0000
,  // measure 40
0110
0000
2100
3001
,  // measure 41
0012
0103
1010
1010
,  // measure 42
0010
0100
1000
0100
0210
0000
0301
0000
,  // measure 43
2010
0000
3200
0000
0310
1000
0010
0100
,  // measure 44
0100
0000
1000
0000
0001
0000
0011
0000
0000
0000
0010
0000
0001
0000
0100
0001
,  // measure 45
0100
0000
0010
0000
1000
0000
1010
0000
0000
0000
0010
0000
1000
0000
0100
1000
,  // measure 46
0100
0000
0010
0000
0001
0000
0011
0000
0000
0000
0010
0001
1000
0000
0100
0000
,  // measure 47
0011
0000
0001
1000
0001
0000
1010
0000
0000
0000
0110
0000
0001
0000
0101
0000
,  // measure 48
0000
0000
0100
0000
0001
0000
1000
0100
2000
0000
0000
0000
3001
0000
0000
0000
,  // measure 49
0102
0013
1100
1100
,  // measure 50
0100
0010
1000
0010
0120
0000
0031
0000
,  // measure 51
2100
0000
3020
0000
0130
1000
0200
0000
,  // measure 52
0310
1000
0011
0000
0101
0000
1010
0000
,  // measure 53
1100
0000
0100
0110
0000
0011
0000
2002
,  // measure 54
3003
0001
0100
2000
0000
3100
0010
0100
,  // measure 55
0001
1000
0100
0010
1000
0010
0100
0001
,  // measure 56
0000
0000
0100
0000
0110
0000
0000
0000
0001
0000
0000
0010
0000
0000
0100
0000
,  // measure 57
0001
0000
0100
0000
0010
0001
1000
0000
0010
0000
0000
0100
0000
0000
1000
0000
,  // measure 58
0100
0010
0100
0010
0100
0000
0001
0000
1000
0000
0000
0100
0000
0000
0010
0000
,  // measure 59
1000
0000
0010
0000
0001
1000
0001
0000
1000
0000
0000
0010
0000
0000
0100
0010
,  // measure 60
0100
0000
1000
0000
0100
0000
0001
0000
1000
0000
0000
0100
0000
0000
0001
0000
,  // measure 61
0100
0000
1000
0000
0001
0100
0010
0000
1000
0000
0000
0100
0000
0000
0001
0000
,  // measure 62
0100
0010
0100
0010
0100
0000
1000
0000
0000
0000
0101
0000
0100
0000
1000
0000
,  // measure 63
0001
0000
0010
0000
1000
0000
2001
0000
0000
0000
3100
0010
0100
0000
0001
0000
,  // measure 64
0000
0000
0100
2000
0002
0000
0000
0000
0000
0000
0000
0000
0000
0000
3003
0000
;

//---------------dance-single - ----------------
#NOTEDATA:;
#CHARTNAME:;
#STEPSTYPE:dance-single;
#DESCRIPTION:;
#CHARTSTYLE:;
#DIFFICULTY:Medium;
#METER:11;
#RADARVALUES:0.500003,0.603139,0.142188,0.262502,0.098438,320.000000,307.000000,13.000000,24.000000,0.000000,0.000000,0.000000,0.000000,0.000000,0.500003,0.603139,0.142188,0.262502,0.098438,320.000000,307.000000,13.000000,24.000000,0.000000,0.000000,0.000000,0.000000,0.000000;
#CREDIT:Karl with a K;
#NOTES:
0000
0000
0000
0000
,
0000
0000
0000
0000
,
0000
0000
0000
0000
,
0000
0000
0000
0000
,
0000
0000
0000
0000
,
0000
0000
0000
0000
,
0000
1000
0001
0010
0000
0000
0001
0000
,
0100
0000
0010
0000
1000
0000
0001
0010
,
0000
0000
0001
0000
1000
0000
0000
0000
0001
0000
0000
0100
0000
0000
0001
0000
,
1000
0000
0010
0000
1000
0000
0001
0000
1000
0000
0000
0100
0000
0000
1000
0000
,
0001
0000
0010
0000
0001
0000
1000
0000
0001
0000
0000
0100
0000
0000
0010
0000
,
1000
0000
0010
0000
0100
0000
0001
0000
1000
0000
0000
0100
0000
0000
0010
0000
,
0001
0000
0010
0000
0010
0000
0100
0000
1000
0000
0000
0010
0000
0000
1000
0000
,
0001
0000
0100
0000
0001
0000
1000
0000
0001
0000
0000
0010
0000
0000
0001
0000
,
1000
0000
0100
0000
1000
0000
0001
0000
1000
0000
0000
1000
0010
0000
0000
0010
,
0100
0000
0000
0100
0001
0000
1000
0000
0000
0000
0110
0000
0000
0000
1010
0000
,
0000
0010
1000
0000
0001
0000
0010
0000
,
0100
1000
0001
1000
,
0100
1000
0001
1000
,
1000
0001
0100
0001
,
1000
0100
1000
0000
0100
0000
1000
0000
,
0001
0100
0001
0000
0100
0000
0001
0000
,
1000
0100
0010
0000
0001
0000
1000
0000
,
0001
0100
0010
0000
1000
0000
1000
0000
,
0001
1000
0001
0000
1000
0000
0100
0010
,
0001
0010
0100
0000
1000
0000
0001
0100
,
0010
0000
0100
0001
1000
0000
0001
1000
,
0000
0100
1000
0001
0010
0000
0100
1000
,
0000
0001
0100
0000
0100
0000
0001
0000
,
1000
0100
1000
0000
0010
0000
1000
0001
,
0010
0000
0001
0000
0100
0000
0001
0010
,
0000
0100
1000
0001
0200
0000
0301
0000
,
1000
0000
1001
0000
0001
0000
0000
0001
,
0010
0000
0000
0010
0100
0000
0000
0100
,
1000
0000
0001
0000
1000
0000
0000
1000
,
0010
0000
0000
0010
0100
0000
0000
0100
,
0001
0000
1000
0000
0010
0000
0000
1000
,
0000
0000
0100
0100
0000
0000
0010
0000
,
0001
0000
0000
0001
0000
0000
0100
0000
0010
0000
0000
1000
0000
0000
0100
0000
,
0000
0010
0000
0000
0001
0000
0000
0000
0100
0000
0000
0000
0100
0000
0000
0000
,
0110
0000
2000
3020
,
0230
0302
0013
0010
,
0001
1000
0001
1000
0002
0000
0023
0000
,
0230
2300
3010
0010
,
0100
0010
0100
0010
0000
1000
1000
0000
,
0100
0010
0010
0010
0000
0001
0001
0000
,
0100
0010
0010
0010
0000
1000
0001
0000
,
1000
0000
0100
0010
0000
0110
0000
2002
,
0000
3003
1001
0000
2000
0000
3200
0000
,
0320
0032
0103
0100
,
0001
1000
0001
1000
0002
0000
0203
0000
,
0320
2030
3100
0100
,
0010
0100
0010
0000
2001
0000
3100
0000
,
1002
0000
0103
0010
0000
0110
0000
1001
,
0000
1000
0100
0020
0000
0000
0130
0000
,
1000
0000
0001
0000
1000
0001
0100
0010
,
0000
0000
0000
0000
0110
0000
0000
0000
0001
0000
0000
0100
0000
0000
0010
0000
,
1000
0000
0100
0000
1000
0000
0010
0000
1000
0000
0000
0100
0000
0000
1000
0000
,
0001
0000
0010
0000
0001
0000
0100
0000
0001
0000
0000
0100
0000
0000
0010
0000
,
1000
0000
0100
0000
0010
0000
0001
0000
1000
0000
0000
0100
0000
0000
0010
0000
,
0001
0000
0100
0000
0010
0000
1000
0000
1000
0000
0000
0010
0000
0000
0100
0000
,
0001
0000
0010
0000
0100
0000
1000
0000
0001
0000
0000
0010
0000
0000
0100
0000
,
1000
0010
0100
0010
0000
1000
0100
0000
,
0010
0001
0100
0010
0000
0100
0010
0100
,
0000
0001
2002
0000
0000
0000
0000
3003
;

//---------------dance-single - ----------------
#NOTEDATA:;
#CHARTNAME:;
#STEPSTYPE:dance-single;
#DESCRIPTION:;
#CHARTSTYLE:;
#DIFFICULTY:Easy;
#METER:6;
#RADARVALUES:0.235939,0.354787,0.087501,0.251564,0.000000,151.000000,143.000000,8.000000,23.000000,0.000000,0.000000,0.000000,0.000000,0.000000,0.235939,0.354787,0.087501,0.251564,0.000000,151.000000,143.000000,8.000000,23.000000,0.000000,0.000000,0.000000,0.000000,0.000000;
#CREDIT:Karl with a K;
#NOTES:
0000
0000
0000
0000
,
0000
0000
0000
0000
,
0000
0000
0000
0000
,
0000
0000
0000
0000
,
0000
0000
0000
0000
,
0000
0000
0000
0000
,
0000
0000
0000
1000
0000
0000
0100
0000
,
1000
0000
0001
0000
0100
0000
0000
0100
,
0000
0010
1000
0001
,
1000
0000
0001
1000
,
0001
0000
1000
0100
,
1000
0000
0001
0100
,
0010
0000
1000
0010
,
1000
0000
0001
0010
,
0001
0000
1000
0001
,
0100
0000
0000
0001
0000
0000
0000
1000
,
0000
0000
0002
0000
,
0003
0000
2000
0000
,
3000
0000
0200
0000
,
0300
0000
0020
0000
,
0030
0000
0002
0000
,
0003
0000
0200
0000
,
0300
0000
0020
0000
,
0030
0000
2000
0000
,
3001
0000
1000
0000
,
1000
0100
0010
0000
,
0001
0010
0001
0000
,
1000
0001
1000
0000
,
0010
0100
0001
0000
,
1000
0100
1000
0000
,
0001
0001
0001
0000
,
0010
0001
0100
0000
,
0110
0110
2000
0000
,
0000
0000
3200
0000
,
0000
0000
0320
0000
,
0000
0000
0032
0000
,
0000
0000
0000
0000
1003
0000
0000
1000
,
0000
0000
0001
0000
0000
0001
0000
0000
,
1000
0000
0001
0100
,
0010
1000
0100
0010
,
0010
0000
0002
0000
,
1000
0000
0023
0000
,
0100
0000
0032
0000
,
1000
0000
0203
0000
,
0310
0000
0000
1000
0000
0000
1000
0000
,
1000
0000
0000
0001
0000
0000
0001
0000
,
0001
0000
0000
1000
0000
0000
0001
0000
,
1000
0000
0000
0010
0000
0010
0000
0010
,
0000
0000
2000
0000
,
0001
0000
3020
0000
,
0100
0000
2030
0000
,
0001
0000
3200
0000
,
0310
0000
1001
0000
,
0110
0000
0000
1001
0000
0000
0000
0110
,
0000
0000
0000
1001
0000
0000
1000
0000
,
0100
0000
1000
0000
0001
0000
0000
0100
,
0000
0010
1000
0001
,
0010
0000
0001
1000
,
0010
0000
1000
0100
,
0010
0000
0001
0100
,
0010
1000
0100
0010
,
0001
0000
0100
0010
,
1000
0000
1000
0000
0000
0001
0000
0000
,
1000
0000
0000
0002
0000
0000
0000
1003
,
0000
0000
2002
0000
0000
0000
0000
3003
;

//---------------dance-single - ----------------
#NOTEDATA:;
#CHARTNAME:;
#STEPSTYPE:dance-single;
#DESCRIPTION:;
#CHARTSTYLE:;
#DIFFICULTY:Beginner;
#METER:3;
#RADARVALUES:0.139063,0.245959,0.065625,0.000000,0.000000,89.000000,83.000000,6.000000,0.000000,0.000000,0.000000,0.000000,0.000000,0.000000,0.139063,0.245959,0.065625,0.000000,0.000000,89.000000,83.000000,6.000000,0.000000,0.000000,0.000000,0.000000,0.000000,0.000000;
#CREDIT:Karl with a K;
#NOTES:
0000
0000
0000
0000
,
0000
0000
0000
0000
,
0000
0000
0000
0000
,
0000
0000
0000
0000
,
0000
0000
0000
0000
,
0000
0000
0000
0000
,
0000
0000
0000
0000
,
0000
0000
0000
0000
,
0000
0000
1000
0000
,
0000
0000
1000
0000
,
0000
0000
0001
0000
,
0000
0000
0001
0000
,
0000
0000
1000
0000
,
0000
0000
1000
0000
,
0000
0000
0001
0000
,
0000
0000
0000
0000
,
0000
0000
1000
0000
,
0000
0000
0100
0000
,
0000
0000
1000
0000
,
0000
0000
0100
0000
,
0000
0000
0010
0000
,
0000
0000
0001
0000
,
0000
0000
0010
0000
,
0000
0000
0001
0000
,
0000
0000
0001
0000
,
0001
0000
0001
0000
,
0000
0000
0100
0000
,
0100
0000
0100
0000
,
0000
0000
0010
0000
,
0010
0000
0010
0000
,
0000
0000
1000
0000
,
1000
0000
1000
0000
,
1001
0000
1000
0000
,
0000
0000
0100
0000
,
0000
0000
0010
0000
,
0000
0000
0100
0000
,
0000
0000
1000
0000
,
0000
0000
0000
0000
,
0000
0000
0001
0000
,
0001
0000
0100
0000
,
0110
0000
1000
1000
,
1000
0000
0001
0001
,
0000
0000
0001
0001
,
0001
0000
1000
1000
,
0000
0000
0010
0000
,
0100
0000
0001
0000
,
1000
0000
0010
0000
,
1000
0000
0100
0000
,
0010
0000
0001
0001
,
0001
0000
0010
0010
,
0000
0000
0100
0100
,
0100
0000
1000
1000
,
0000
0000
1001
0000
,
1001
0000
0000
0000
,
0000
0000
0000
0000
,
1000
0000
0001
0000
,
0000
0000
1000
0000
,
0100
0000
1000
0000
,
0100
0000
0010
0000
,
0001
0000
0010
0000
,
0001
0000
1000
0000
,
0010
0000
0100
0000
,
0001
0000
0000
0000
,
1001
0000
0000
0000
,
0000
0110
0000
0000
;
