#VERSION:0.83;
#TITLE:Only One;
#SUBTITLE:;
#ARTIST:BoA;
#TITLETRANSLIT:;
#SUBTITLETRANSLIT:;
#ARTISTTRANSLIT:;
#GENRE:K-Pop;
#ORIGIN:;
#TAGS:;
#CREDIT:;
#BANNER:Only One.png;
#BACKGROUND:Only One-bg.png;
#PREVIEWVID:;
#JACKET:Only One-jacket.png;
#CDIMAGE:;
#DISCIMAGE:;
#LYRICSPATH:;
#CDTITLE:cdtitle.png;
#MUSIC:Only One.ogg;
#OFFSET:0.018569;
#SAMPLESTART:53.009354;
#SAMPLELENGTH:21.330963;
#SELECTABLE:YES;
#BPMS:0.000000=90.010002
;
#STOPS:;
#DELAYS:;
#WARPS:;
#TIMESIGNATURES:0.000000=4=4
;
#TICKCOUNTS:0.000000=4
;
#COMBOS:0.000000=1
;
#SPEEDS:0.000000=1.000000=0.000000=0
;
#SCROLLS:0.000000=1.000000
;
#XSCROLLS:0.000000=0.000000 ;
#FAKES:;
#LABELS:0.000000=Song Start
;
#BGCHANGES:0.000=Only One.mp4=1.000=0=0=0=StretchNoLoop====,
8.000=Only One.mp4=1.000=1=0=1===CrossFade==,
177.000=Only One-bg.png=0.800=1=0=1===CrossFade==,
99999.000=-nosongbg-=1.000=0=0=0=StretchNoLoop====,
99999=-nosongbg-=1.000=0=0=0 // don't automatically add -songbackground-
;
#KEYSOUNDS:;
#ATTACKS:
;

//---------------dance-single - Classic 4 | Modern 6----------------
#NOTEDATA:;
#CHARTNAME:;
#CHARTHASH:3657072001;
#STEPSTYPE:dance-single;
#BANNER:;
#DESCRIPTION:Classic 4 | Modern 6;
#CHARTSTYLE:;
#DIFFICULTY:Easy;
#METER:6;
#METERF:6.000000;
#LASTSECONDHINT:116.301842;
#RADARVALUES:0.204786,0.218150,0.041672,0.375044,0.000000,172.000000,167.000000,5.000000,45.000000,0.000000,0.000000,0.000000,0.000000,0.000000,0.204786,0.218150,0.041672,0.375044,0.000000,172.000000,167.000000,5.000000,45.000000,0.000000,0.000000,0.000000,0.000000,0.000000;
#CREDIT:DDRDAIKENKAI;
#NOTES:
// measure 0
0000
0000
0000
0000
,  // measure 1
0000
0000
0000
0000
,  // measure 2
0000
0000
0000
0000
,  // measure 3
0000
0000
0000
0000
,  // measure 4
1001
1000
0100
0010
,  // measure 5
0002
0000
1003
0000
0000
0100
1000
0000
,  // measure 6
0020
1030
0010
0100
,  // measure 7
0010
0000
0020
0000
0030
0100
0010
0000
,  // measure 8
2000
3001
1000
0100
,  // measure 9
0020
0000
0031
0000
0000
0100
0001
0000
,  // measure 10
0010
0110
0100
0110
,  // measure 11
0020
0032
2003
3020
,  // measure 12
0230
0000
0010
0000
0000
0010
0310
0000
,  // measure 13
2000
0001
0002
3003
,  // measure 14
0001
0100
1000
0100
,  // measure 15
0001
0010
0100
0110
,  // measure 16
0200
0000
1000
0000
0000
1000
1300
0000
,  // measure 17
0020
0000
1000
0000
1000
2000
3030
0000
,  // measure 18
2000
3001
0002
1003
,  // measure 19
0200
0000
0320
0000
0032
0000
2003
0010
,  // measure 20
3020
0000
0130
0000
0010
0000
1000
0001
,  // measure 21
2000
0000
0100
0000
0010
0010
3010
0000
,  // measure 22
1000
0000
0100
0000
0010
0000
0001
0100
,  // measure 23
0002
0010
0020
0033
,  // measure 24
0001
0000
0010
0000
0100
0000
1000
0001
,  // measure 25
2000
0000
0000
0000
0002
0000
3003
0001
,  // measure 26
0001
0100
0010
1000
,  // measure 27
0020
0000
0100
0000
0100
0100
0130
0000
,  // measure 28
0010
1000
0001
0010
,  // measure 29
0200
0000
0320
0000
0031
1000
0001
0000
,  // measure 30
0100
0010
1000
0100
,  // measure 31
0020
0000
0230
0000
1300
0001
1000
0000
,  // measure 32
0010
0001
0010
1000
,  // measure 33
0100
0000
0020
0000
0000
0001
0031
0000
,  // measure 34
2000
3001
0100
0010
,  // measure 35
0100
0000
0001
0000
1000
0001
1000
0000
,  // measure 36
0200
0000
0310
0000
0000
0100
0010
0000
,  // measure 37
0002
0000
1003
0000
0000
0001
1000
0000
,  // measure 38
0020
0000
0130
0000
0000
0010
0100
0000
,  // measure 39
0001
0000
1001
0000
0100
0100
0200
0000
,  // measure 40
0320
0000
0031
0000
1000
0001
2000
0000
,  // measure 41
3200
0000
0310
0000
0100
1000
0200
0000
,  // measure 42
0320
0000
0000
0000
0130
0000
1000
0001
,  // measure 43
2000
0000
0000
0200
0000
3300
0000
0000
;

//---------------dance-single - Classic 5 | Modern 9----------------
#NOTEDATA:;
#CHARTNAME:;
#CHARTHASH:4265214004;
#STEPSTYPE:dance-single;
#BANNER:;
#DESCRIPTION:Classic 5 | Modern 9;
#CHARTSTYLE:;
#DIFFICULTY:Medium;
#METER:9;
#METERF:9.000000;
#LASTSECONDHINT:116.301842;
#RADARVALUES:0.289319,0.327226,0.108346,0.350041,0.100012,243.000000,230.000000,13.000000,42.000000,0.000000,0.000000,0.000000,0.000000,0.000000,0.289319,0.327226,0.108346,0.350041,0.100012,243.000000,230.000000,13.000000,42.000000,0.000000,0.000000,0.000000,0.000000,0.000000;
#CREDIT:DDRDAIKENKAI;
#NOTES:
// measure 0
0000
0000
0000
0000
,  // measure 1
0000
0000
0000
0000
,  // measure 2
0000
0000
0000
0000
,  // measure 3
0000
0000
0000
0000
,  // measure 4
1002
0000
0103
0000
0000
0010
1000
0000
,  // measure 5
0100
0000
0000
0100
0010
0000
0000
0000
0000
0000
0001
0000
1000
0000
0000
0000
,  // measure 6
0200
0000
1300
0000
0000
0010
1000
0000
,  // measure 7
0001
0000
0000
0000
1000
0000
0000
1000
0000
0000
0100
0000
1000
0000
0000
0000
,  // measure 8
0020
0000
0130
0000
0001
0010
1000
0000
,  // measure 9
0010
0000
0000
0010
0001
0000
0000
0000
0000
0000
0100
0000
0010
0000
0000
0010
,  // measure 10
1000
0100
0010
0000
0010
0001
1000
0000
,  // measure 11
0010
0010
1000
1000
0001
1000
1001
0000
,  // measure 12
2000
0000
3100
0100
0010
0001
0100
0000
,  // measure 13
0020
0000
1030
0001
2000
0000
3100
0000
,  // measure 14
0010
0001
0010
0000
0100
1000
0100
0000
,  // measure 15
1000
0000
0000
0000
0010
0000
0000
0110
0000
0000
0100
0000
0002
0000
0000
0000
,  // measure 16
0103
0001
0100
0000
0010
1000
0010
0000
,  // measure 17
1000
0100
0010
0001
0010
0020
0030
0100
,  // measure 18
0100
1000
0100
0000
1000
0001
1000
0000
,  // measure 19
0010
0000
0000
0010
1000
0000
0000
1000
0001
0000
0001
0000
1002
0000
1000
0000
,  // measure 20
1003
0100
0010
0100
1000
0001
0100
0100
,  // measure 21
0020
0000
0100
0000
1030
0001
1001
0000
,  // measure 22
1000
0100
1000
1000
0001
0010
0001
0001
,  // measure 23
0200
0000
0000
0000
0310
0000
0000
0110
0000
0000
0010
0000
1000
0000
0000
0000
,  // measure 24
0100
1000
0100
0100
0010
0100
0010
0010
,  // measure 25
0002
0000
0000
0000
0103
0000
0000
0020
0000
0000
1030
0000
1001
0000
0001
0000
,  // measure 26
0100
0001
1000
1000
0200
0000
0310
0010
,  // measure 27
0100
0000
0000
0000
0010
0000
0000
0011
0000
0000
1000
0000
2001
0000
0001
0000
,  // measure 28
3001
0000
0100
0000
0001
0000
0000
1000
0000
0000
0100
0000
1000
0000
0000
0000
,  // measure 29
0020
0000
0000
0230
0000
0000
0302
0000
0000
2003
0000
0000
3200
0000
0010
0000
,  // measure 30
0310
0000
0001
0000
0100
0000
0000
0010
0000
0000
1000
0000
0100
0000
0010
0000
,  // measure 31
0020
0000
0000
0032
0000
0000
2003
0000
0000
3020
0000
0000
0230
0000
0001
0000
,  // measure 32
0301
0000
1000
0000
0001
0000
0000
0100
0000
0000
0001
0000
1000
0000
0000
1000
,  // measure 33
0000
0100
0020
0000
0000
0001
0031
0010
,  // measure 34
0010
0000
0000
0100
0000
0000
1000
0000
0002
0000
0000
0000
0103
0000
0000
0020
,  // measure 35
0000
0000
1030
0000
0001
0000
0000
0200
0000
0000
0301
0000
1001
0000
0000
0000
,  // measure 36
0002
0000
1003
0001
1000
0100
0100
0000
,  // measure 37
0020
0000
0000
0000
0031
0000
0000
0020
0000
0000
0130
0000
0110
0000
0000
0000
,  // measure 38
2000
0000
3001
1000
0100
1000
1000
0000
,  // measure 39
0010
0000
0000
0000
1010
0000
0000
2000
0000
0000
3100
0000
0110
0000
0000
0000
,  // measure 40
0020
0000
0001
0000
0000
0100
0032
0000
,  // measure 41
0203
0000
0010
0000
0010
0000
0310
1000
,  // measure 42
0002
0000
1000
0000
0000
0100
2003
0000
,  // measure 43
3200
0000
0000
0320
0000
0000
0032
0000
0000
0000
0003
0000
0000
0000
0000
0000
;

//---------------dance-single - Classic 8 | Modern 12----------------
#NOTEDATA:;
#CHARTNAME:;
#CHARTHASH:609890188;
#STEPSTYPE:dance-single;
#BANNER:;
#DESCRIPTION:Classic 8 | Modern 12;
#CHARTSTYLE:;
#DIFFICULTY:Hard;
#METER:12;
#METERF:12.000000;
#LASTSECONDHINT:116.301842;
#RADARVALUES:0.481008,0.454480,0.175020,0.591736,0.641742,404.000000,383.000000,21.000000,71.000000,0.000000,0.000000,0.000000,0.000000,0.000000,0.481008,0.454480,0.175020,0.591736,0.641742,404.000000,383.000000,21.000000,71.000000,0.000000,0.000000,0.000000,0.000000,0.000000;
#CREDIT:DDRDAIKENKAI;
#NOTES:
// measure 0
0000
0000
0000
0000
,  // measure 1
0000
0000
0000
0000
,  // measure 2
0000
0000
0000
0000
,  // measure 3
0000
0000
0000
0000
,  // measure 4
1002
0000
0000
0000
0103
0000
0010
0100
0010
0000
1000
0000
0001
0000
0000
0000
,  // measure 5
0100
0000
0000
0100
0001
0000
0000
0000
0000
0000
0100
0000
1001
0000
0001
1000
,  // measure 6
0001
0000
0010
0001
0000
0100
0000
0010
0000
2000
0000
0000
3100
0000
0100
0000
,  // measure 7
0010
0000
0000
0010
0001
0000
0000
1000
0100
0000
1000
0000
1001
0000
0000
0000
,  // measure 8
1000
0000
0000
0010
0000
0000
1000
0000
0001
0000
0000
0100
0000
0000
0001
0000
1000
0000
0000
0100
0000
0000
1000
0000
0001
0000
0000
0000
0000
0000
0000
0000
,  // measure 9
0011
0000
0001
0100
0000
0010
0000
2000
0000
0000
3100
0000
0110
0000
0000
0100
,  // measure 10
0010
0000
0000
0001
0000
0000
0100
0000
0010
0000
0000
0000
0000
0000
0000
0000
0010
0000
0000
1000
0000
0000
0100
0000
0010
0000
0000
0000
0000
0000
0000
0000
,  // measure 11
0001
0000
1000
0010
0000
1000
0000
0001
0000
0001
1000
0000
1001
0000
1000
0100
,  // measure 12
1000
0000
0010
0000
1000
0001
0000
1000
0000
0010
0000
0200
0000
0000
0301
0000
,  // measure 13
1000
0000
0100
0000
0010
0100
0000
2000
0000
0000
3001
0000
0101
0000
0001
0010
,  // measure 14
0001
0000
0100
0000
0010
1000
0000
0010
0000
2000
0000
0000
3001
0000
1000
0000
,  // measure 15
1100
0000
0000
0100
0010
0000
0001
0200
0010
0000
0310
0000
0110
0000
0100
0010
,  // measure 16
0200
0000
0301
0000
1000
0001
0000
0100
0000
0010
0000
2000
0000
0000
3100
1000
,  // measure 17
0001
0000
0100
0000
0001
1000
0000
0010
0000
0020
0000
0000
0130
0000
0001
1000
,  // measure 18
0001
0000
0100
0000
0001
1000
0000
0002
0000
2003
0000
0000
3100
0000
0010
0000
,  // measure 19
0021
0000
0000
0031
0200
0000
0000
0301
1000
0000
0010
0000
1000
0100
1000
0001
,  // measure 20
2000
0000
3001
0000
0200
0000
0301
0020
0000
0031
0000
0000
1000
0100
0010
0001
,  // measure 21
2000
0000
3001
1000
0100
1000
0100
0000
0020
0000
0031
0000
2001
0000
3001
0010
,  // measure 22
0002
0000
0103
0000
0020
0000
1030
0002
0000
1003
0200
0000
1300
0001
0100
0001
,  // measure 23
2000
0000
3001
0100
0010
0100
0010
0000
2000
0000
3100
0000
1100
0000
1000
0001
,  // measure 24
0020
0000
0031
0000
1000
0000
0100
0020
0000
0032
0000
1003
0010
1000
0001
0200
,  // measure 25
0000
0000
0301
0010
0001
0100
0001
2000
0000
0000
3010
0000
0110
0000
0100
0010
,  // measure 26
0200
0000
0301
0020
0000
0130
2000
0000
3020
0000
0130
0000
0201
0000
0301
0020
,  // measure 27
0000
0031
0200
0000
0320
0000
1030
0200
0000
1300
0020
0000
0130
0001
1000
0001
,  // measure 28
2000
0000
3001
0000
0010
0000
0010
0001
0000
0001
0000
0000
0010
0001
1000
0100
,  // measure 29
2000
0000
0000
3020
0100
0000
0130
0001
1000
0100
1000
0000
1002
0000
1003
0100
,  // measure 30
2000
0000
3010
0000
0200
0000
0301
2000
0000
3001
0020
0000
0031
1000
0010
1000
,  // measure 31
0002
0000
0000
0203
0010
0000
0310
1000
0001
0010
0001
0000
0021
0000
0031
1000
,  // measure 32
0200
0000
1300
0000
1001
0000
0001
0020
0000
0032
0000
1003
0010
0000
1000
0002
,  // measure 33
0000
0000
0203
0000
2300
0000
3100
0001
0100
0010
0100
0000
0110
0000
0010
1000
,  // measure 34
0020
0000
1030
0200
0000
0310
0002
0000
0203
0000
0310
0000
1020
0000
1030
0020
,  // measure 35
0000
1030
0002
0000
0103
0000
0001
0020
0000
0031
1000
0000
1001
0000
0000
0000
,  // measure 36
0001
0000
0001
0000
1000
0100
0000
1000
0001
1000
0000
0010
0100
0001
0010
0000
,  // measure 37
0100
0000
0100
0000
0010
0001
0000
1000
0010
1000
0000
0001
1000
0100
1000
0000
,  // measure 38
0010
0000
0010
0000
0100
0010
0000
0100
0001
0100
0000
0010
1000
0001
1000
0000
,  // measure 39
0100
0000
0100
0000
0010
0001
0000
0001
1000
0001
0100
0000
0220
0000
0330
0000
,  // measure 40
1000
0100
1000
0010
0000
1000
0100
0000
0010
0100
0010
0001
0000
1000
0100
0000
,  // measure 41
1000
0010
1000
0001
0000
1000
0100
0000
0010
0100
0010
0001
0000
0100
0001
0000
,  // measure 42
0100
0010
1000
0001
0000
1000
0100
0000
0010
0100
0010
0001
0000
0100
0001
0000
,  // measure 43
0020
0000
0000
0032
0000
0000
0200
0000
0000
0000
0303
0000
0000
0000
0000
0000
;
