#TITLE:EVERGREEN;
#SUBTITLE:;
#ARTIST:Cranky;
#TITLETRANSLIT:;
#SUBTITLETRANSLIT:;
#ARTISTTRANSLIT:;
#GENRE:;
#CREDIT:;
#MUSIC:EVERGREEN.ogg;
#BANNER:EVERGREEN.png;
#BACKGROUND:EVERGREEN-bg.png;
#CDTITLE:;
#SAMPLESTART:28.167;
#SAMPLELENGTH:13.241;
#SELECTABLE:YES;
#OFFSET:-0.029;
#BPMS:0.000=145.000000;
#STOPS:;
#BGCHANGES:;
#FGCHANGES:;

//--------------- dance-single - ----------------
#NOTES:
     dance-single:
     :
     Easy:
     5:
     0,0,0,0,0:
0000
0000
0000
0000
,
0000
0000
0000
0000
,
0000
0000
0000
0000
,
0000
0000
0000
0000
,
0000
0000
0000
0000
,
0000
0000
0000
0000
,
0000
0000
0000
0000
,
0000
0000
0000
0000
,
0000
0000
0000
0000
,
1000
0010
1000
0200
,
0000
0000
0301
0001
,
0001
0100
0001
0010
,
2000
3000
0002
0003
,
0010
0000
0000
0100
0000
0000
0010
0000
,
0000
0001
0100
1000
,
0100
0001
0100
0001
,
0010
1000
0010
1000
,
0100
0000
0000
0001
0000
0000
0100
0000
,
0000
0001
0000
0000
0010
0000
0010
0000
,
0010
0000
0000
1000
0000
0000
0010
0000
,
0000
1000
0000
0000
0100
0000
0100
0000
,
0100
0000
0000
1000
0000
0000
0100
0000
,
0000
1000
0000
0000
0010
0000
0010
0000
,
0010
0000
0000
0001
0000
0000
0010
0000
,
0000
0001
0000
0000
1000
0000
1000
0000
,
1000
0000
0000
0100
0000
0000
0010
0000
,
0000
0100
0000
0000
1000
0000
0001
0000
,
0001
0000
0000
0010
0000
0000
0100
0000
,
0000
0010
0000
0000
0001
0000
0100
0000
,
0100
0000
0000
0010
0000
0000
0100
0000
,
0000
1000
0000
0000
0100
0000
0010
0000
,
0010
0000
0000
0001
0000
0000
0010
0000
,
0000
0100
0000
0000
0010
0000
0001
0000
,
0001
0010
0001
0000
,
1000
0100
1000
0000
,
0010
0100
0010
0000
,
1000
0100
0010
0001
,
0010
1000
0010
0000
,
0100
0001
0100
0000
,
1000
0001
1000
0000
,
0100
0010
1000
0001
,
0010
1000
0000
1000
,
0100
0010
0100
0000
,
0010
0001
0000
0001
,
0010
0100
0010
0000
,
1000
0000
0000
0100
0000
0000
0010
0000
,
0000
0001
0000
0000
0010
0000
0100
0000
,
0010
0000
0000
0100
0000
0000
1000
0000
,
0010
0100
0001
1000
,
0010
0000
0000
0100
0000
0000
0000
0000
,
0000
0000
0000
0000
,
1000
0000
0000
0001
0000
0000
0000
0000
,
0000
0000
0000
0000
,
0001
0000
0000
0010
0000
0000
0100
0000
,
0000
1000
0000
0000
0100
0000
0010
0000
,
1000
0000
0000
0100
0000
0000
1000
0000
,
0001
0000
0000
0010
0000
0000
0001
0000
,
1000
0000
0000
0100
0000
0000
0010
0000
,
0000
0001
0000
0000
0010
0000
0100
0000
,
0001
0000
0000
0100
0000
0000
0001
0000
,
1000
0000
0000
0010
0000
0000
1000
0000
,
0001
0010
0001
0000
,
1000
0100
1000
0000
,
0100
0010
0100
0000
,
0001
0010
0100
1000
,
0100
0001
0100
0000
,
0010
1000
0010
0000
,
0001
1000
0001
0000
,
1000
0010
0001
0100
,
2000
0000
0000
0000
,
3000
0000
0000
0000
0000
0000
0000
0000
;

//--------------- dance-single - ----------------
#NOTES:
     dance-single:
     :
     Medium:
     9:
     0,0,0,0,0:
0000
0000
0000
0000
,
0000
0000
0000
0000
,
0000
0000
0000
0000
,
0000
0000
0000
0000
,
0000
0000
0000
0000
,
0000
0000
0000
0000
,
0000
0000
0000
0000
,
0000
0000
0000
0000
,
0002
0023
0230
2300
,
3100
0001
0100
0000
0001
0100
0002
0000
,
0000
0000
0023
0032
,
0013
1000
0010
0000
1000
0010
2000
0000
,
3200
0000
0302
0023
,
2030
0000
0000
3020
0000
0000
0000
0000
,
0100
0000
1000
0030
,
0100
0010
0001
0100
,
1000
0000
0010
0000
0100
0010
0100
0000
,
0001
0000
0010
0100
0000
1000
0100
0000
,
0010
0001
0000
0010
1000
0000
0100
0000
,
1000
0000
0100
0010
0000
0001
0010
0000
,
0100
1000
0000
0100
0001
0000
0010
0000
,
0001
0000
1000
0010
0000
0100
0001
0000
,
1000
0001
0000
0010
1000
0000
0100
0000
,
1000
0000
0001
0100
0000
0010
1000
0000
,
0001
1000
0000
0100
0001
0000
0010
0000
,
1000
0010
1000
0001
0000
0010
1000
0100
,
1000
0010
0000
0001
0010
1000
0010
0000
,
0001
0100
0001
1000
0000
0100
0010
0100
,
0001
0010
0000
0100
1000
0010
0100
0000
,
0001
1000
0010
1000
0000
0100
0010
0001
,
0010
0100
0000
1000
0010
0100
0010
0000
,
1000
0001
0100
0001
0000
0010
0001
0100
,
0001
1000
0010
0000
1000
0001
0100
0000
,
0010
0100
0010
0100
1000
0100
0001
0000
,
0100
0010
1000
0000
0010
0100
0001
0000
,
1000
0001
1000
0001
0100
0010
0100
0000
,
1000
0100
1000
0000
0001
0010
0001
0000
,
0010
1000
0010
1000
0100
0001
0010
0000
,
1000
0010
0001
0000
0010
0100
1000
0000
,
0001
0100
0010
0100
0001
0010
0100
0000
,
2000
3200
0320
0032
,
0103
1000
0100
0000
1000
0100
2000
0000
,
0100
0001
3100
0010
,
0001
0010
0001
0000
0010
0001
0010
0000
,
0200
0010
0320
0100
,
1030
0000
0100
0010
0000
0001
0010
0000
,
0000
1000
0100
0000
0001
0010
0000
0100
,
0010
0000
0001
0100
0000
0010
1000
0000
,
0100
0001
0100
0000
0010
1000
0010
0000
,
1010
0000
0000
0101
0000
0000
0000
0000
,
0000
0000
0000
0110
,
0011
0000
0000
1100
0000
0000
0000
0000
,
0000
0000
0000
0000
,
0001
0000
0000
1000
0000
0000
0010
0000
,
0000
0100
0000
0000
0010
0000
0110
0000
,
1000
0000
0000
0100
0000
0000
0010
0000
0000
0000
0001
0000
0100
0000
0010
0000
,
0001
0000
0000
0010
0000
0000
0100
0000
0000
0000
1000
0000
0010
0000
0001
0000
,
0100
0000
0000
0001
0000
0000
1000
0000
,
0000
0010
0000
0000
0100
0000
1001
0000
,
0001
0000
0000
0100
0000
0000
0010
0000
0000
0000
1000
0000
0100
0000
0010
0000
,
1000
0000
0000
0010
0000
0000
0100
0000
0000
0000
0001
0000
0010
0000
0100
0000
,
1000
0001
1000
0001
0010
1000
0100
0000
,
1000
0010
0001
0000
0001
0100
1000
0000
,
0001
0010
0001
0010
1000
0100
0001
0000
,
0010
0100
0010
0000
1000
0001
1000
0000
,
0010
0100
0010
0100
1000
0100
0010
0000
,
0001
0100
1000
0000
1000
0010
0001
0000
,
0010
0001
0010
0001
1000
0001
0010
0000
,
0100
1000
0100
1000
0010
0001
0100
0000
,
0020
0000
0000
0000
,
0030
0000
0000
0000
;

//--------------- dance-single - ----------------
#NOTES:
     dance-single:
     :
     Hard:
     15:
     0,0,0,0,0:
0000
0000
0000
0000
,
0000
0000
0000
0000
,
0000
0000
0000
0000
,
0000
0000
0000
0000
,
0000
0000
0000
0000
,
0000
0000
0000
0000
,
0000
0000
0000
0000
,
0000
0000
0000
0000
,
2000
3200
0320
0032
,
0013
0100
1000
0100
0010
0100
2000
0000
,
0000
0000
3200
2300
,
3100
0010
0001
0010
0100
0010
0002
0000
,
0023
0000
0230
0302
,
0023
0000
0000
2030
0000
0000
0100
0000
,
0020
0030
0002
3003
,
0010
0100
0010
0100
1000
0100
1000
0100
,
0010
0000
0001
0000
0010
0000
0001
0000
0010
0100
0010
0100
0010
0000
0001
1000
,
0001
0010
1000
0010
0100
1000
0001
0010
,
0100
0001
0100
1000
0100
0010
0100
0000
,
1000
0010
0001
0100
0010
0001
1000
0100
,
0010
1000
0100
0001
0010
0100
0010
0000
,
1000
0010
0001
0100
1000
0100
0001
0010
,
1000
0010
1000
0001
0100
0010
1000
0000
,
0001
0010
1000
0100
0001
0100
1000
0010
,
0001
0010
0001
1000
0001
0100
0010
0000
,
0001
0100
0001
0010
0100
0010
0100
0001
,
0100
0010
0100
0010
0001
0100
0010
0000
,
1000
0010
1000
0100
0010
0100
0010
1000
,
0010
0100
0010
0100
1000
0010
0100
0000
,
0001
0100
0010
1000
0010
0100
0001
1000
,
0010
1000
0001
0100
0001
1000
0010
0000
,
1000
0010
0100
0001
0100
0010
1000
0010
,
1000
0001
0100
0001
1000
0001
0100
0000
,
0010
0000
1000
0000
0010
0000
1000
0100
0000
0010
0000
0100
0010
0000
0010
0001
,
0000
0010
0000
0100
1000
0000
1000
0100
0000
0010
0000
0100
0010
0000
0001
0000
,
0010
0000
1000
0000
0100
0000
0001
0010
0000
0100
0000
0010
0100
0000
1000
0001
,
1000
0001
0100
0010
0200
1000
1300
0000
,
0100
0000
0001
0000
0100
0000
0010
0100
0000
1000
0000
0100
0010
0000
0001
0010
,
0001
0000
1000
0000
0001
0000
1000
0100
1000
0100
0000
0010
0001
0000
0010
0000
,
1000
0000
0100
0000
0010
0000
0001
0010
0000
0100
0000
1000
0100
0000
0010
0000
,
0002
0023
0230
2300
,
3001
0010
0100
0010
0001
0010
0200
0000
,
0010
0001
0320
0032
,
1003
0100
0010
0100
1000
0100
0020
0000
,
2030
0100
3002
0010
,
0203
0000
0001
0001
0000
0010
0320
0000
,
0000
1000
1000
0000
0100
0100
0000
1000
,
1030
0000
0010
0100
0000
0001
1000
0100
,
0020
0000
0001
0000
1000
0000
0130
0000
,
0001
0010
0001
0010
0000
0000
1000
0100
1000
0100
0000
0000
0000
0000
0000
0000
,
0000
0000
0000
1001
,
0001
0100
0001
0100
0000
0000
1000
0010
1000
0010
0000
0000
0000
0000
0000
0000
,
0000
0000
0000
0000
,
0100
0000
0000
0010
0000
0000
1000
0000
,
0000
0000
0001
0000
0000
0000
0000
0000
1000
0001
1000
0001
1000
0000
0100
0010
,
0100
0000
1000
0100
0000
0010
0001
0000
0100
0000
0001
0000
1000
0000
0100
0000
,
0010
0000
0001
0010
0000
0100
1000
0000
0001
0000
0100
0000
0001
0000
0100
0000
,
0110
0000
0001
0101
0000
1000
1100
0000
,
0001
1001
0000
0010
0100
0001
1000
0000
,
0001
0000
1000
0010
0000
0100
0001
0000
0010
0000
0001
0000
0100
0000
0010
0000
,
1000
0000
0001
0100
0000
0010
1000
0000
0100
0000
0001
0000
0010
0000
1000
0000
,
0100
0000
0001
0000
0100
0000
0001
0010
0000
0100
0000
0010
0100
0000
0100
1000
,
0000
0100
0000
0010
0001
0000
0001
0010
0000
0100
0000
0010
0100
0000
1000
0000
,
0100
0000
0001
0000
0010
0000
1000
0100
0000
0010
0000
0100
0010
0000
0001
1000
,
0001
1000
0010
0100
0020
0001
0031
0000
,
0010
0000
1000
0000
0010
0000
0100
0010
0000
0001
0000
0010
0100
0000
1000
0100
,
1000
0000
0001
0000
1000
0000
0001
0010
0001
0010
0000
0100
1000
0000
0100
0000
,
0001
0000
0010
0000
0100
0000
1000
0100
0000
0010
0000
0001
0010
0000
0100
0000
,
1000
0000
0100
0000
0001
0000
0100
0000
1000
0100
0000
0010
0001
0000
0010
0000
,
0200
0000
0000
0000
,
0300
0000
0000
0000
;
