#TITLE:But Does it Djent;
#SUBTITLE:;
#ARTIST:Jared Dines;
#TITLETRANSLIT:;
#SUBTITLETRANSLIT:;
#ARTISTTRANSLIT:;
#GENRE:;
#CREDIT:;
#BANNER:But Does it Djent-banner.png;
#BACKGROUND:But Does it Djent-bg.png;
#LYRICSPATH:;
#CDTITLE:;
#MUSIC:But-Does-it-Djent.ogg;
#OFFSET:0.000000;
#SAMPLESTART:69.642860;
#SAMPLELENGTH:15.000000;
#SELECTABLE:YES;
#BPMS:0.000000=140.000000
,260.000000=120.000000
;
#STOPS:
;
#BGCHANGES:;
#KEYSOUNDS:;
#ATTACKS:;

//---------------dance-single - XO DS- JA- BU- RH- JU-----------------
#NOTES:
     dance-single:
     :
     Hard:
     16:
     0.689928,0.777268,0.167226,0.441477,0.715729,722.000000,697.000000,25.000000,66.000000,0.000000,0.000000,0.689928,0.777268,0.167226,0.441477,0.715729,722.000000,697.000000,25.000000,66.000000,0.000000,0.000000:
// measure 0
0000
0000
0000
0000
,  // measure 1
0000
0000
0000
0000
,  // measure 2
0000
0000
0000
0000
,  // measure 3
0000
0000
0000
0000
,  // measure 4
0000
0000
0000
0000
,  // measure 5
2001
0000
0000
0000
0000
0000
0000
0000
3010
0000
0000
0100
0000
0000
0001
1000
,  // measure 6
0100
0010
0100
0000
1000
0001
1000
0000
0010
0100
0010
1000
0000
0001
0010
0000
,  // measure 7
0210
0000
1000
0300
,  // measure 8
1001
0000
0000
0000
0000
0000
0000
0000
1000
0100
1000
0100
0010
0001
0010
0000
,  // measure 9
2001
0000
0000
0000
3001
0100
0010
0000
0001
0000
0010
0100
0002
0000
0000
0000
,  // measure 10
1003
0100
2000
0000
0000
0000
3100
0010
1000
0000
0000
0010
0000
0000
0001
0000
,  // measure 11
1000
0001
0100
0001
1000
0010
0100
0010
0001
0000
0010
0100
0001
1000
0100
1000
,  // measure 12
0000
0000
0001
0010
0001
0000
0010
0100
0001
0000
0100
1000
0001
0100
0010
1000
,  // measure 13
0001
0000
0000
0000
0001
0010
0100
0000
0001
0000
0100
0010
0002
0000
0000
0000
,  // measure 14
1003
0010
2000
0000
0000
0000
3010
0100
1000
0000
0000
0100
0000
0000
0001
0000
,  // measure 15
1000
0001
0010
0001
1000
0100
0010
0100
0001
0000
0100
0010
0001
1000
0010
1000
,  // measure 16
0000
0000
0001
0100
0001
0000
0100
0010
0001
0000
0010
0100
0001
1000
0100
0010
,  // measure 17
0002
0000
0000
0000
0103
0000
0001
0000
1000
0000
0100
1000
0100
0010
0001
0000
,  // measure 18
0000
1000
0000
1000
0001
0000
0100
0000
0010
1000
0000
0010
1000
0000
0010
1000
,  // measure 19
0001
0000
0001
0000
0010
0000
0001
0000
1000
0000
0010
1000
0010
0100
0001
0000
,  // measure 20
1000
0001
0000
0001
1000
0100
0000
0100
0002
0000
0103
0010
0200
0000
1300
0000
,  // measure 21
1001
0000
0000
0000
0001
0000
1000
0000
0001
0000
0010
0001
0010
0100
1000
0000
,  // measure 22
0000
0001
0000
0001
1000
0000
0100
0000
0010
0001
0000
0010
0001
0000
0010
0001
,  // measure 23
1000
0000
1000
0000
0010
0000
1000
0000
0001
0000
0100
0001
0100
0001
1000
0000
,  // measure 24
1100
0000
0000
0101
0000
0000
1100
0000
1000
0100
0010
0100
1000
0001
0100
0010
,  // measure 25
2000
0000
0000
0000
3010
0000
1000
0000
0001
0000
0010
0001
0010
0100
1000
0000
,  // measure 26
0000
0001
0000
0001
1000
0000
0010
0000
0100
0001
0000
0100
0001
0000
0100
0001
,  // measure 27
1000
0000
1000
0000
0100
0000
1000
0000
0001
0000
0100
0001
0100
0010
1000
0000
,  // measure 28
0001
1000
0000
1000
0001
0000
0010
0000
2000
0000
3010
0100
0020
0000
0031
0000
,  // measure 29
1001
0000
0001
0000
0100
0000
0001
0000
1000
0000
0100
1000
0100
0010
0001
0000
,  // measure 30
0000
1000
0000
1000
0001
0000
0010
0000
0100
1000
0000
0100
1000
0000
0100
1000
,  // measure 31
0001
0000
0001
0000
0100
0000
0001
0000
1000
0000
0010
1000
0010
0100
0001
0000
,  // measure 32
0001
0010
0100
0000
1000
0000
0001
0100
0001
0010
0100
0000
1000
0010
0100
0010
,  // measure 33
1000
0001
1000
0000
0001
1000
0001
0000
1000
0100
1000
0000
0001
0100
0001
0000
,  // measure 34
0000
0000
1000
0010
1000
0000
0001
0000
0010
0100
0010
0000
0001
1000
0001
0000
,  // measure 35
1000
0001
1000
0000
0001
1000
0001
0000
1000
0010
1000
0000
0001
0010
0001
0000
,  // measure 36
1000
0000
0100
1000
0200
0000
1300
0000
0010
0100
0010
0000
0110
0000
0000
0000
,  // measure 37
0001
1000
0001
0000
1000
0001
1000
0000
0001
0010
0001
0000
1000
0010
1000
0000
,  // measure 38
0000
0000
0001
0100
0001
0000
1000
0000
0100
0010
0100
0000
1000
0001
1000
0000
,  // measure 39
0001
1000
0001
0000
1000
0001
1000
0000
0001
0100
0001
0000
1000
0100
1000
0000
,  // measure 40
0001
0000
0100
0001
0200
0000
0310
0000
0100
0010
0100
0000
1000
0100
0010
0000
,  // measure 41
2001
0000
0000
0000
3001
1000
0010
0000
0001
0000
0010
0100
0002
0000
0000
0000
,  // measure 42
1003
0100
2000
0000
0000
0000
3100
0010
1000
0000
0000
0001
0000
0000
0100
0000
,  // measure 43
1000
0001
0100
0001
1000
0010
0100
0010
0001
0000
0010
0100
0001
1000
0100
0000
,  // measure 44
1000
0000
0001
0010
0001
0000
0010
0100
0001
0000
0100
1000
0010
0000
0100
0000
,  // measure 45
2001
0000
0000
0000
3001
1000
0100
0000
0001
0000
0100
0010
0002
0000
0000
0000
,  // measure 46
1003
0010
2000
0000
0000
0000
3010
0100
1000
0000
0000
0001
0000
0000
0010
0000
,  // measure 47
1000
0001
0010
0001
1000
0100
0010
0100
0001
0000
0100
0010
0001
1000
0010
0000
,  // measure 48
1000
0000
0001
0100
0001
0000
0100
0010
0001
0000
0010
1000
0001
0010
0100
0010
,  // measure 49
0002
0000
0103
0002
1000
0000
0023
0100
,  // measure 50
0100
0000
0000
0000
0000
0000
0000
0000
0031
0000
0000
0000
1000
0100
1000
0100
,  // measure 51
2000
0000
3100
2000
0001
0000
3020
0000
,  // measure 52
0130
0002
0000
0000
1003
0001
1001
0000
,  // measure 53
2000
0000
3100
2000
0001
0000
3020
0100
,  // measure 54
0100
0000
0000
0000
0000
0000
0000
0000
1030
0000
0000
0000
0001
0100
0001
0100
,  // measure 55
0002
0000
0103
0002
1000
0000
0023
0000
,  // measure 56
0130
2000
0000
0000
3001
1000
1001
0001
,  // measure 57
2000
0000
3010
0200
0001
0000
0302
1000
,  // measure 58
0010
0000
0000
0000
0000
0000
0000
0000
1003
0000
0000
0000
0001
0010
0001
0010
,  // measure 59
0001
1000
0010
1000
0002
0000
0100
0000
1003
0000
0002
0000
0203
0000
0302
0000
,  // measure 60
1003
0000
0002
0000
0000
0000
0000
0000
1003
0100
0010
0100
1000
0001
0010
0000
,  // measure 61
0002
0000
0013
0200
1000
0000
2300
0001
,  // measure 62
0010
0000
0000
0000
0000
0000
0000
0000
3001
0000
0000
0000
1000
0010
1000
0010
,  // measure 63
2000
0000
3100
0020
0001
0000
0230
0000
,  // measure 64
1300
0000
0002
0000
0000
0000
0000
0000
1003
0010
0100
0001
1000
0100
0010
0001
,  // measure 65
0200
0000
0000
0300
,  // measure 66
0001
0100
0001
0100
0010
1000
0100
0010
0000
0010
0100
1000
0001
1000
0001
1000
,  // measure 67
0001
0010
0000
0001
0000
0000
1000
0010
0000
1000
0000
0000
0010
0100
0000
0010
0000
0000
1000
0001
0000
1000
0000
0000
,  // measure 68
0001
0100
0000
0001
0000
0000
1000
0100
0000
1000
0000
0000
0100
0010
0000
0100
0000
0000
1000
0001
0000
1000
0000
0000
,  // measure 69
0001
0010
0000
0100
0000
0000
1000
0010
0000
0100
0000
0000
0010
0100
0000
0010
0000
0000
1000
0100
0000
1000
0000
0000
,  // measure 70
0001
0100
0000
0001
0000
0000
0010
0100
0000
1000
0000
0000
0001
1000
0001
1000
0000
0000
0110
0000
0000
0000
0000
0000
,  // measure 71
1000
0100
0000
1000
0000
0000
0001
0100
0000
0001
0000
0000
0100
0010
0000
0100
0000
0000
0001
1000
0000
0001
0000
0000
,  // measure 72
1000
0010
0000
1000
0000
0000
0001
0010
0000
0001
0000
0000
0010
0100
0000
0010
0000
0000
0001
1000
0000
0001
0000
0000
,  // measure 73
1000
0010
0000
0100
0000
0000
0001
0010
0000
0100
0000
0000
0010
0100
0000
0010
0000
0000
0001
0100
0000
0001
0000
0000
,  // measure 74
1000
0100
0000
1000
0000
0000
0010
0100
0000
0001
0000
0000
1000
0001
1000
0001
0000
0000
0110
0000
0000
0001
0000
0000
,  // measure 75
0102
1000
0100
1003
,  // measure 76
2100
0001
0100
3001
,  // measure 77
0201
0010
2300
3002
,  // measure 78
0023
0000
0130
0000
0110
0000
1001
1000
,  // measure 79
2100
0001
0100
3001
,  // measure 80
0102
1000
0100
1003
,  // measure 81
1200
0010
0302
2003
,  // measure 82
3020
0000
0000
0000
0000
0000
0032
0000
0000
0000
0000
0000
0103
0010
0100
0010
0000
0000
0220
0000
0000
0000
0000
0000
,  // measure 83
0330
0000
0000
0000
;

//---------------dance-single - XO- DS- JA- JU-----------------
#NOTES:
     dance-single:
     :
     Medium:
     12:
     0.413766,0.470491,0.107025,0.294318,0.137126,433.000000,417.000000,16.000000,44.000000,0.000000,0.000000,0.413766,0.470491,0.107025,0.294318,0.137126,433.000000,417.000000,16.000000,44.000000,0.000000,0.000000:
0000
0000
0000
0000
,
0000
0000
0000
0000
,
0000
0000
0000
0000
,
0000
0000
0000
0000
,
0000
0000
0000
0000
,
1001
0000
0000
0000
0000
0000
0000
0000
0001
0000
0000
0100
0000
0000
0001
0000
,
1000
0100
0010
0100
1000
0001
0100
0010
,
0110
0000
0100
0000
,
1001
0000
0000
0000
1000
0100
0010
0100
,
1000
0000
0001
0100
0010
0100
0001
0000
,
1000
0000
0100
0000
0000
0000
0100
0000
0010
0000
0000
0001
0000
0000
1000
0000
,
0001
0000
1000
0100
0010
0100
1000
0000
,
0001
0100
0001
0100
0010
0100
0001
0001
,
1000
0000
0001
0010
0100
0010
0001
0000
,
1000
0000
0010
0000
0000
0000
0010
0000
0100
0000
0000
0001
0000
0000
1000
0000
,
0001
0000
1000
0010
0100
0010
1000
0000
,
0001
0010
0001
0010
0100
0010
0001
0001
,
1000
0000
0100
1000
0001
0100
0010
0100
,
0000
0100
0000
0000
0010
0000
0100
0000
0001
0000
0000
1000
0100
0000
1000
0000
,
1000
0000
0010
1000
0001
0010
0100
0010
,
0000
0010
0000
0000
0100
0000
0000
0010
0002
0000
0000
0000
1003
0000
1000
0000
,
0001
0000
0010
0001
1000
0010
0100
0010
,
0000
0010
0000
0000
0100
0000
0010
0000
1000
0000
0000
0001
0010
0000
0001
0000
,
0001
0000
0100
0001
1000
0100
0010
0100
,
0001
0000
0000
0100
0000
0000
1000
0000
0001
0000
0000
0000
1001
0000
0000
0000
,
2000
0000
0100
0000
3001
0100
0010
0100
,
0000
0100
0000
0000
0010
0000
0100
0000
1000
0000
0000
0100
0010
0000
1000
0000
,
2000
0000
0010
0000
3001
0010
0100
0010
,
0000
0010
0000
0000
0100
0000
0010
0000
1000
0000
0010
0000
0001
0000
1000
0000
,
0001
0001
0010
0001
0100
0010
0100
0001
,
0000
0001
0000
0000
0100
0000
0010
0000
0001
0000
0000
0010
0100
0000
0001
0000
,
1000
1000
0010
0100
0001
0010
0010
0100
,
1000
0010
0100
0001
0010
1000
0010
0001
,
1000
0001
0000
0000
0001
1000
0000
0000
1000
0001
0000
0000
0001
1000
0000
0000
,
0000
0000
0001
0000
0100
0000
0010
0000
1000
0010
0000
0000
0100
0001
0000
0000
,
1000
0001
0000
0000
0001
1000
0000
0000
1000
0001
0000
0000
0001
1000
0000
0000
,
0002
0000
0000
0023
0000
0000
0130
0000
1000
0000
0100
0000
0010
0000
0000
0000
,
0001
1000
0000
0000
1000
0001
0000
0000
0001
1000
0000
0000
1000
0001
0000
0000
,
0000
0000
1000
0000
0100
0000
0010
0000
0001
0010
0000
0000
0100
1000
0000
0000
,
0001
1000
0000
0000
1000
0001
0000
0000
0001
1000
0000
0000
1000
0001
0000
0000
,
2000
0000
0000
3020
0000
0000
0130
0000
0001
0000
0010
0000
0100
0000
0100
0000
,
1000
0000
0001
0010
0100
0010
0001
0000
,
1000
0000
0010
0000
0000
0000
0010
0000
0100
0000
0000
0001
0000
0000
1000
0000
,
0001
0000
1000
0010
0100
0010
1000
0000
,
0001
0010
0001
0010
0100
0010
0001
0001
,
1000
0000
0001
0100
0010
0100
0001
0000
,
1000
0000
0100
0000
0000
0000
0100
0000
0010
0000
0000
0001
0000
0000
1000
0000
,
0001
0000
1000
0100
0010
0100
1000
0000
,
0001
0100
0001
0100
0010
0100
0001
0001
,
2000
0000
0000
3200
0000
0000
0320
0000
,
1000
0000
0031
1000
,
0002
0000
0000
0203
0000
0000
0320
0000
,
0000
0032
0000
0000
0013
0000
0010
0100
,
0002
0000
0000
0023
0000
0000
0230
0000
,
0001
0000
1300
0001
,
2000
0000
0000
3020
0000
0000
0230
0000
,
0000
2300
0000
0000
3100
0000
0001
0000
,
2000
0000
0000
3020
0000
0000
0230
0000
,
1000
0000
0301
0010
,
0002
0000
0000
0023
0000
0000
0230
0000
,
0000
0302
0000
0000
1003
0000
0010
0000
,
0002
0000
0000
0203
0000
0000
0320
0000
,
0001
0000
1030
0010
,
2000
0000
0000
3020
0000
0000
0230
0000
,
0000
2300
0000
0000
3001
0000
0010
0000
,
2000
0000
0000
0000
,
3001
0000
0000
0000
1000
0000
0000
0100
0000
0010
0000
0000
0001
0000
0000
0000
,
1000
0100
1000
0000
0001
0100
0001
0000
,
1000
0100
1000
0000
0001
0100
0001
0000
,
1000
0010
1000
0000
0001
0010
0001
0000
,
1000
0010
1000
0000
0001
0000
0011
0000
,
1000
0010
0100
0000
0001
0010
0100
0000
,
1000
0010
0100
0000
0001
0010
0100
0000
,
1000
0100
0010
0000
0001
0100
0010
0000
,
1000
0100
0010
0000
0001
0000
0101
0000
,
2100
0000
0001
3100
,
0102
0000
1000
0103
,
2100
0000
0010
3100
,
0102
0000
0013
1001
,
0102
0000
1000
0103
,
2100
0000
0001
3100
,
0102
0000
0010
0103
,
2100
0000
3010
0110
;

//---------------dance-single - ----------------
#NOTES:
     dance-single:
     :
     Easy:
     7:
     0.221694,0.276760,0.113714,0.214050,0.000000,232.000000,215.000000,17.000000,32.000000,0.000000,0.000000,0.221694,0.276760,0.113714,0.214050,0.000000,232.000000,215.000000,17.000000,32.000000,0.000000,0.000000:
0000
0000
0000
0000
,
0000
0000
0000
0000
,
0000
0000
0000
0000
,
0000
0000
0000
0000
,
0000
0000
0000
0000
,
1001
0000
1000
0000
,
0001
0000
0100
0000
,
0110
0000
0110
0000
,
1001
0000
0000
0000
,
1000
0100
0010
0000
,
0001
0100
0010
0010
,
1000
0010
0100
0000
,
0001
0010
0100
1000
,
0001
0100
0010
0000
,
1000
0100
0010
0010
,
0001
0010
0100
0000
,
1000
0010
0100
0001
,
1000
0000
1000
0000
,
0001
0100
0001
0000
,
1000
0000
0001
0000
,
1000
0100
0010
0010
,
0001
0000
0001
0000
,
1000
0100
1000
0000
,
0001
0000
1000
0000
,
0001
0100
0010
0010
,
2000
3000
0002
0003
,
1000
0100
0010
0000
,
0001
0001
1000
0000
,
0001
0100
0010
0010
,
1000
1000
0100
0000
,
1000
0010
0100
0000
,
0001
0001
0100
0100
,
0001
0010
0100
1000
,
0001
0001
1000
1000
,
0001
0001
1000
1000
,
0100
0100
0010
0010
,
0001
0001
0100
0110
,
1000
1000
0001
0001
,
1000
1000
0001
0001
,
0100
0100
0010
0010
,
1000
1000
0100
0010
,
0001
0100
0010
0000
,
1000
0100
0010
0010
,
0001
0010
0100
0000
,
1000
0010
0100
0001
,
1000
0100
0010
0000
,
0001
0100
0010
0010
,
1000
0010
0100
0000
,
0001
0010
0100
1000
,
0002
0000
0103
0000
,
0002
0000
1003
0000
,
2000
0000
3100
0000
,
2000
0000
3010
0010
,
0200
0000
0301
0000
,
2000
0000
3100
0000
,
0020
0000
0031
0000
,
2000
0000
3010
0000
,
2000
0000
3010
0000
,
2000
0000
3001
0000
,
0002
0000
0013
0000
,
0002
0000
0103
0100
,
0020
0000
1030
0000
,
0002
0000
0103
0000
,
0020
0000
1030
0000
,
0002
0000
0013
0100
,
0110
0000
0000
0000
,
0000
0000
0000
0000
,
1000
1000
1000
0000
,
0001
0001
0001
0000
,
0100
0100
0100
0000
,
0010
0010
0010
0000
,
1000
1000
1000
0000
,
0001
0001
0001
0000
,
0010
0010
0010
0000
,
0100
0100
0100
0100
,
2002
0000
0000
3003
,
0220
0000
0000
0330
,
2002
0000
0000
3003
,
0000
0000
0110
0110
,
0220
0000
0000
0330
,
2002
0000
0000
3003
,
0220
0000
0000
0330
,
2002
3003
1001
1001
;

//---------------dance-single - ----------------
#NOTES:
     dance-single:
     :
     Beginner:
     3:
     0.074535,0.164551,0.107025,0.000000,0.000000,78.000000,62.000000,16.000000,0.000000,0.000000,0.000000,0.074535,0.164551,0.107025,0.000000,0.000000,78.000000,62.000000,16.000000,0.000000,0.000000,0.000000:
0000
0000
0000
0000
,
0000
0000
0000
0000
,
0000
0000
0000
0000
,
0000
0000
0000
0000
,
0000
0000
0000
0000
,
1000
0000
0000
0000
,
0000
0000
0000
0000
,
0001
0000
0000
0000
,
0001
0000
0000
0000
,
1000
0000
0000
0000
,
1000
0000
0000
0000
,
0001
0000
0000
0000
,
0001
0000
0000
0000
,
1000
0000
0000
0000
,
1000
0000
0000
0000
,
0001
0000
0000
0000
,
0001
0000
0000
0000
,
1000
0000
0000
0000
,
0000
0000
0000
0000
,
1000
0000
0000
0000
,
0000
0000
0000
0000
,
0001
0000
0000
0000
,
0000
0000
0000
0000
,
0001
0000
0000
0000
,
0000
0000
0000
0000
,
0010
0000
0000
0000
,
0000
0000
0000
0000
,
0010
0000
0000
0000
,
0000
0000
0000
0000
,
0100
0000
0000
0000
,
0000
0000
0000
0000
,
0100
0000
0000
0000
,
0000
0000
0000
0000
,
1000
0000
0000
0000
,
1000
0000
0000
0000
,
0001
0000
0000
0000
,
0001
0000
0000
0000
,
1000
0000
0000
0000
,
1000
0000
0000
0000
,
0001
0000
0000
0000
,
0001
0000
0000
0000
,
1000
0000
0000
0000
,
0100
0000
0000
0000
,
0010
0000
0000
0000
,
0001
0000
0000
0000
,
0001
0000
0000
0000
,
0100
0000
0000
0000
,
0010
0000
0000
0000
,
1000
0000
0000
0000
,
1000
0000
0000
0000
,
0000
0000
0000
0000
,
0001
0000
0000
0000
,
0000
0000
0000
0000
,
1000
0000
0000
0000
,
0000
0000
0000
0000
,
0001
0000
0000
0000
,
0000
0000
0000
0000
,
0100
0000
0000
0000
,
0010
0000
0000
0000
,
1000
0000
0000
0000
,
0000
0000
0000
0000
,
0100
0000
0000
0000
,
0010
0000
0000
0000
,
0001
0000
0000
0000
,
0000
0000
0000
0000
,
0001
0000
0000
0000
,
0000
0000
0000
0000
,
1001
0000
0000
0000
,
1001
0000
0000
0000
,
0110
0000
0000
0000
,
0110
0000
0000
0000
,
1001
0000
0000
0000
,
1001
0000
0000
0000
,
0110
0000
0000
0000
,
0110
0000
0000
0000
,
1001
0000
0000
0000
,
1001
0000
0000
0000
,
1001
0000
0000
0000
,
1001
0000
0000
0000
,
0110
0000
0000
0000
,
0110
0000
0000
0000
,
0110
0000
0000
0000
,
0110
0000
0000
0000
;
