#TITLE:Bang Bang;
#SUBTITLE:(Kill My Heart);
#ARTIST:Speedman;
#TITLETRANSLIT:;
#SUBTITLETRANSLIT:;
#ARTISTTRANSLIT:;
#CREDIT:;
#BANNER:Bang Bang (Kill My Heart)-bn.PNG;
#BACKGROUND:Bang Bang (Kill My Heart)-bg.PNG;
#LYRICSPATH:Bang Bang (Kill My Heart).lrc;
#CDTITLE:Super Eurobeat 114.png;
#MUSIC:Bang Bang (Kill My Heart).mp3;
#OFFSET:-6.131;
#SAMPLESTART:42.750;
#SAMPLELENGTH:12.000;
#SELECTABLE:YES;
#BPMS:0.000=156.980,224.000=78.490;
#STOPS:;
#BGCHANGES:;

//---------------dance-single - ----------------
#NOTES:
     dance-single:
     :
     Easy:
     5:
     0.246,0.254,0.104,0.114,0.000: // measure 1
0010
0010
0010
0000
,  // measure 2
0100
0100
0100
0000
,  // measure 3
0001
0001
0001
0000
,  // measure 4
1000
0010
0100
0001
,  // measure 5
1000
1000
0001
0000
,  // measure 6
0100
0100
0010
0000
,  // measure 7
1000
1000
0001
0000
,  // measure 8
0010
0100
1000
0001
,  // measure 9
1000
0000
0001
0000
,  // measure 10
1000
0010
0100
0001
,  // measure 11
1000
0000
0001
0000
,  // measure 12
1001
0000
0010
0000
,  // measure 13
1001
0000
0001
0000
,  // measure 14
1000
1000
0010
0100
,  // measure 15
0001
0000
1000
0000
,  // measure 16
0001
0000
1000
0000
,  // measure 17
0020
0000
0130
0000
,  // measure 18
0200
0000
0310
0000
,  // measure 19
0200
0000
0301
0000
,  // measure 20
1000
0001
1000
0000
,  // measure 21
0020
0000
0130
0000
,  // measure 22
2000
0000
3001
0000
,  // measure 23
1000
0001
0100
0010
,  // measure 24
1001
0000
0000
0000
,  // measure 25
0010
0010
0100
0010
,  // measure 26
1001
0000
0000
0000
,  // measure 27
1000
1000
0001
1000
,  // measure 28
0001
0001
1000
0001
,  // measure 29
1000
0010
0100
0001
,  // measure 30
1001
0000
0000
0000
,  // measure 31
0001
0001
1000
0001
,  // measure 32
1000
0010
0100
0010
,  // measure 33
0100
0100
0010
0100
,  // measure 34
1001
0000
0000
0000
,  // measure 35
0001
0010
0100
1000
,  // measure 36
1000
0001
0100
0010
,  // measure 37
0100
0100
0010
0100
,  // measure 38
1001
0000
0000
0001
,  // measure 39
0002
0000
2003
0000
,  // measure 40
3020
0000
0000
0030
,  // measure 41
1000
0001
1000
0000
,  // measure 42
0010
0100
0010
0000
,  // measure 43
1000
0001
0010
0000
,  // measure 44
0100
0100
1000
1000
,  // measure 45
0001
0010
0100
0000
,  // measure 46
1000
0010
0100
0000
,  // measure 47
0001
1000
0010
0000
,  // measure 48
1000
1000
0001
0001
,  // measure 49
2000
0000
0000
0000
,  // measure 50
3002
0000
0000
0000
,  // measure 51
0203
0000
0000
0000
,  // measure 52
0320
0000
0000
0000
,  // measure 53
0130
0100
0000
0000
,  // measure 54
0010
0010
0000
0000
,  // measure 55
1000
1000
0001
1000
,  // measure 56
0001
0000
0000
0000
,  // measure 57
1000
0000
0010
0000
,  // measure 58
0100
0000
0010
0000
,  // measure 59
1001
0000
0110
0000
,  // measure 60
0011
0000
1100
0000
;

//---------------dance-single - ----------------
#NOTES:
     dance-single:
     :
     Medium:
     8:
     0.389,0.451,0.171,0.303,0.000: // measure 1
1000
0000
0010
0000
1000
0010
1000
0000
,  // measure 2
0100
0000
0001
0000
0100
0001
0100
0000
,  // measure 3
0010
0000
0100
0000
0010
0100
0010
0000
,  // measure 4
0020
0130
0200
0310
,  // measure 5
0001
0000
1000
0000
0001
1000
0001
0000
,  // measure 6
0010
0000
0001
0000
0010
0001
0010
0000
,  // measure 7
0100
0000
0001
0000
0100
0001
0001
0000
,  // measure 8
2000
0000
0010
3000
0020
0000
0130
0000
,  // measure 9
0001
0000
1000
0000
0001
0000
0001
1000
,  // measure 10
0000
0010
1000
0000
0010
0000
0100
0000
,  // measure 11
0101
0000
1010
0000
0100
0000
0001
0010
,  // measure 12
0002
2003
3020
0230
,  // measure 13
0302
0000
1003
0000
0010
0000
1000
0010
,  // measure 14
0000
0010
1000
0010
1000
0000
0101
0000
,  // measure 15
0001
0000
1000
0000
0010
0000
0100
0001
,  // measure 16
0010
0100
0001
1000
,  // measure 17
1001
0000
0000
0001
0000
1000
0010
0000
,  // measure 18
1000
0010
0000
1000
0000
0000
0000
0000
,  // measure 19
0001
0100
0000
0101
0000
0000
0000
0000
,  // measure 20
0000
0001
0000
0001
0000
0001
0000
0000
,  // measure 21
0010
1000
0000
1010
0000
0000
0000
0000
,  // measure 22
0100
0001
0000
0101
0000
0000
0000
0000
,  // measure 23
0001
0001
1000
1000
,  // measure 24
2002
0000
0000
3003
,  // measure 25
1001
0000
0110
0000
0010
0100
0000
0002
,  // measure 26
0000
1000
1000
1003
,  // measure 27
0001
1000
0001
0000
0010
0100
0010
0000
,  // measure 28
0010
0010
0100
0100
,  // measure 29
0110
0000
1001
0000
0001
1000
0000
0020
,  // measure 30
0000
1000
1000
1030
,  // measure 31
1000
0001
0100
0010
,  // measure 32
0100
0000
0010
0100
0010
0000
1000
0000
,  // measure 33
0011
0000
1100
0000
0100
1000
0000
0002
,  // measure 34
0000
0010
0010
0013
,  // measure 35
0001
0010
0001
0000
0100
1000
0100
0000
,  // measure 36
0100
0100
1000
1000
,  // measure 37
1100
0000
0011
0000
0001
0010
0000
0200
,  // measure 38
0000
0010
0010
0310
,  // measure 39
0010
0001
1000
0100
,  // measure 40
1000
0100
1000
0000
0100
0010
0100
0010
,  // measure 41
0010
0000
0100
0000
0010
0100
0010
0000
,  // measure 42
1000
0000
0001
0000
1000
0001
1000
0000
,  // measure 43
0100
0000
1000
0000
0100
1000
0100
0000
,  // measure 44
0200
1300
2000
3100
,  // measure 45
0001
0000
0010
0000
0001
0010
0001
0000
,  // measure 46
0100
0000
0001
0000
0100
0001
0100
0000
,  // measure 47
1000
0000
0001
0000
1000
0001
0001
0000
,  // measure 48
0020
0000
0100
0030
0200
0000
1300
0000
,  // measure 49
0002
1003
0010
0010
,  // measure 50
0020
0000
0000
0030
,  // measure 51
0100
0010
1000
0001
,  // measure 52
2000
0000
0000
3000
,  // measure 53
0010
0100
0001
0010
,  // measure 54
0200
0000
0000
0300
,  // measure 55
0010
0100
0001
1000
,  // measure 56
2000
0000
0000
3000
,  // measure 57
2000
3000
0020
0030
,  // measure 58
0200
0300
0002
0003
,  // measure 59
2020
3030
0200
0300
,  // measure 60
0020
0030
1001
0000
;

//---------------dance-single - ----------------
#NOTES:
     dance-single:
     :
     Hard:
     11:
     0.590,0.564,0.379,0.427,0.133: // measure 1
0100
0000
1000
0100
0000
0000
1000
0000
0010
1000
0000
0000
0020
0000
0000
0000
,  // measure 2
1030
0000
0001
1000
0000
0000
0001
0000
1000
0001
0000
0000
0020
0000
0000
0000
,  // measure 3
0130
0000
1000
0100
0000
0000
1000
0000
0010
1000
0000
0000
0020
0000
0000
0000
,  // measure 4
1030
0010
0100
0001
0100
0001
1000
0100
,  // measure 5
0010
0000
0100
0010
0000
0000
1000
0000
0001
0100
0000
0000
0201
0000
0000
0000
,  // measure 6
0301
0000
0010
0001
0000
0000
0100
0000
0010
1000
0000
0000
1002
0000
0000
0000
,  // measure 7
0103
0000
0001
0100
0000
0000
0010
0000
1000
0001
0000
0000
1020
0000
0000
0000
,  // measure 8
1030
1000
0001
0001
0100
0100
0010
0000
,  // measure 9
2001
0000
0010
0000
3001
0000
1000
0010
,  // measure 10
0000
0010
1000
0100
1000
0000
1010
0000
,  // measure 11
0102
0000
1003
0000
0001
1000
0100
0010
,  // measure 12
0001
0000
1000
0010
1000
0000
0001
0100
,  // measure 13
0001
0000
0201
0000
0010
0000
0301
0100
,  // measure 14
0000
0010
1000
0100
0010
0000
0011
0000
,  // measure 15
2001
0000
3010
0000
0100
1000
0010
0100
,  // measure 16
0000
0001
0100
0010
0100
0001
0100
0010
,  // measure 17
2000
0000
3001
1000
0010
0100
0001
1000
,  // measure 18
0010
0100
0000
0002
0000
0023
0000
0230
,  // measure 19
0000
0300
1000
0000
0110
0000
1001
0000
,  // measure 20
0001
1000
0010
1000
0000
0010
1000
0100
,  // measure 21
2000
0000
3001
0100
0010
0100
0001
0010
,  // measure 22
0100
1000
0000
1010
0000
1001
0000
0010
,  // measure 23
1000
0010
1000
0010
0100
0001
0100
0010
,  // measure 24
0200
0000
0000
0300
,  // measure 25
2001
0000
3010
0000
0010
0100
0000
0110
,  // measure 26
0000
0001
0100
0010
0000
0100
0010
0100
,  // measure 27
0001
1000
0100
0010
0002
0000
1003
0010
,  // measure 28
1000
0100
1000
0010
0200
0000
0301
0000
,  // measure 29
0120
0000
1030
0000
0010
1000
0000
1010
,  // measure 30
0000
0000
1000
0000
0001
1000
0010
1000
,  // measure 31
0001
0100
0010
0100
0002
0000
0013
0100
,  // measure 32
0000
0100
0010
0100
0010
0000
1001
0000
,  // measure 33
2010
0000
3010
0000
0100
0001
0000
0101
,  // measure 34
0000
1000
0010
2000
0000
3001
0100
0010
,  // measure 35
0100
0001
0100
0010
0100
0000
0101
0000
,  // measure 36
0010
1000
0100
1000
0010
0000
1001
0000
,  // measure 37
1020
0000
0130
0000
0001
0100
0000
0011
,  // measure 38
0000
1000
0100
2000
0000
3001
0100
0001
,  // measure 39
2000
0000
3001
0000
1000
0001
0100
0000
,  // measure 40
0010
0100
0010
0000
1001
0000
0100
0001
0100
0001
0100
0000
0010
0000
1000
0100
,  // measure 41
1000
0000
0010
1000
0000
0000
0010
0000
0100
0010
0000
0000
0200
0000
0000
0000
,  // measure 42
0301
0000
0010
0001
0000
0000
0010
0000
0001
0010
0000
0000
0200
0000
0000
0000
,  // measure 43
1300
0000
0010
1000
0000
0000
0010
0000
0100
0010
0000
0000
0200
0000
0000
0000
,  // measure 44
0301
1000
0010
1000
0100
0010
0001
0100
,  // measure 45
0010
0000
1000
0100
0000
0000
1000
0000
0010
0100
0000
0000
0201
0000
0000
0000
,  // measure 46
0310
0000
1000
0010
0000
0000
0100
0000
0001
0010
0000
0000
1002
0000
0000
0000
,  // measure 47
1003
0000
0001
1000
0000
0000
0010
0000
1000
0001
0000
0000
2001
0000
0000
0000
,  // measure 48
3100
0100
1000
1000
0010
0010
0100
0000
,  // measure 49
1002
0000
0013
0000
1000
0001
1000
0000
,  // measure 50
0020
0000
1030
0000
0001
0100
0001
0000
,  // measure 51
1200
0000
1300
0000
0001
0010
0001
0000
,  // measure 52
2000
0000
3001
0000
0010
0001
0010
0000
,  // measure 53
1010
0000
0011
0000
0001
1000
0001
0000
,  // measure 54
0011
0000
1100
0000
0001
1000
0001
0000
,  // measure 55
1010
0000
0101
0000
1000
0001
0010
0000
,  // measure 56
2002
0000
0000
3003
,  // measure 57
0100
0200
0000
0300
0010
0020
0000
0030
,  // measure 58
1000
2000
0000
3000
0001
0002
0000
0103
,  // measure 59
0100
0120
0000
0030
1000
1200
0000
0300
,  // measure 60
0010
2010
0000
0000
3010
0000
0000
0000
;
