#TITLE:BANG BANG BANG;
#SUBTITLE:;
#ARTIST:BIGBANG;
#TITLETRANSLIT:;
#SUBTITLETRANSLIT:;
#ARTISTTRANSLIT:;
#GENRE:;
#CREDIT:;
#MUSIC:BANG BANG BANG.ogg;
#BANNER:BANG BANG BANG-bn.png;
#BACKGROUND:BANG BANG BANG-bg.png;
#CDTITLE:;
#SAMPLESTART:56.722;
#SAMPLELENGTH:14.222;
#SELECTABLE:YES;
#OFFSET:-0.278;
#BPMS:0.000=135.000000
,187.000=134.000000
,188.000=135.000000
;
#STOPS:;
#DISPLAYBPM:135.000;
#BGCHANGES:;
#FGCHANGES:;

//--------------- dance-single - ----------------
#NOTES:
     dance-single:
     :
     Beginner:
     2:
     0,0,0,0,0:
0000
0000
0000
0000
,
0000
0000
0000
0000
,
0000
0000
0000
0000
,
0000
0000
0000
0000
,
2000
0000
0000
0000
,
3000
0000
0000
0000
,
0002
0000
0000
0000
,
0003
0000
0000
0000
,
1000
0000
1000
0000
,
1000
0000
0000
0000
,
0001
0000
0001
0000
,
0001
0000
0000
0000
,
1000
0000
1000
0000
,
1000
0000
0000
0000
,
0001
0000
0001
0000
,
0001
0000
0000
0000
,
1000
0000
0000
0000
,
0001
0000
0000
0000
,
1000
0000
0000
0000
,
0001
0000
0000
0000
,
1000
0000
0000
0000
,
1000
0000
0000
0000
,
0001
0000
0000
0000
,
0001
0000
0000
0000
,
1000
0000
0000
0000
,
0001
0000
0000
0000
,
1000
0000
0000
0000
,
0001
0000
0000
0000
,
1000
0000
1000
0000
,
0001
0000
0001
0000
,
1000
0001
1000
0000
,
0000
0000
0000
0000
,
1001
0000
0000
0000
,
1000
1000
1000
0000
,
0000
0000
0000
0000
,
1000
0001
1000
0000
,
1001
0000
0000
0000
,
0001
0001
0001
0000
,
0000
0000
0000
0000
,
0001
1000
0001
0000
,
1000
0000
1000
0000
,
0001
0000
0001
0000
,
1000
0000
1000
0000
,
0001
0000
0001
1000
,
0001
0000
0001
0000
,
1000
0000
1000
0000
,
0001
0000
0001
0000
,
1000
0001
1000
0000
;

//--------------- dance-single - ----------------
#NOTES:
     dance-single:
     :
     Easy:
     3:
     0,0,0,0,0:
0000
0000
0000
0000
,
0000
0000
0000
0000
,
0000
0000
0000
0000
,
0000
0000
0000
0000
,
2000
0000
0000
3000
,
0200
0000
0000
0300
,
0020
0000
0000
0030
,
0002
0000
0000
0003
,
1000
1000
1000
0000
,
0100
0000
0100
0000
,
0001
0001
0001
0000
,
0010
0000
0010
0000
,
1000
1000
1000
0000
,
0010
0000
0010
0000
,
0001
0001
0001
0000
,
0100
0000
0100
0000
,
1000
0001
1000
0000
,
0100
0100
0100
0000
,
0001
1000
0001
0000
,
0010
0010
0010
0000
,
1000
0001
1000
0000
,
0010
0010
0010
0000
,
0001
1000
0001
0000
,
0100
0100
0100
0000
,
0002
0000
0000
0000
,
0013
0000
0000
0000
,
2000
0000
0000
0000
,
3100
0000
0000
0000
,
0001
0000
0001
0000
,
1000
0000
1000
0000
,
0001
1000
0001
1000
,
0000
0000
0000
0000
,
1001
0000
0100
0100
,
0000
0010
0010
0000
,
1000
0000
0001
0001
,
0100
0010
0100
0000
,
1001
0000
0010
0010
,
0000
0100
0100
0000
,
0001
0000
1000
1000
,
0010
0100
0010
0000
,
1000
1000
1000
0000
,
0100
0000
0010
0000
,
0001
0001
0001
0000
,
0010
0000
0100
0000
,
1000
1000
1000
0000
,
0010
0000
0100
0000
,
0001
0001
0001
0000
,
1000
0001
1000
0000
;

//--------------- dance-single - ----------------
#NOTES:
     dance-single:
     :
     Medium:
     6:
     0,0,0,0,0:
0000
0000
0000
0000
,
0000
0000
0000
0000
,
0000
0000
0000
0000
,
0000
0000
0000
0000
,
2000
0100
0100
3100
,
0002
0010
0010
0013
,
0200
1000
1000
1300
,
0020
0001
0001
0031
,
0010
0000
1000
0010
1000
0000
0100
0000
,
0001
0000
0010
0100
0010
0000
1000
0000
,
0100
0000
0001
0010
0001
0000
0010
0000
,
1000
0000
0100
0010
0100
0000
0010
0000
,
0001
0000
0010
1000
0010
0000
0100
0000
,
0001
0000
1000
0001
1000
0000
0100
0000
,
0001
0000
0100
0001
0100
0000
0010
0000
,
1000
0000
0001
1000
0001
0000
0100
0000
,
0010
0001
0100
0000
0010
0000
0100
0000
,
1000
0010
0100
0000
0010
0000
0100
0000
,
0001
0010
0001
0000
1000
0100
1000
0000
,
0010
0100
0010
0000
,
1000
0001
0100
0000
0010
0000
1000
0000
,
0001
1000
0100
0000
0001
0000
0010
0000
,
1000
0010
1000
0000
0001
0100
0001
0000
,
0100
0010
0100
0010
0100
0000
0010
0000
,
0200
0000
0001
0301
,
0002
0000
0010
0010
,
0023
0000
1000
1030
,
2000
0000
0010
3010
,
0010
0000
0100
0000
1000
0000
0010
0001
,
0100
0000
0010
0000
0001
0000
0100
1000
,
0010
0000
0100
0000
0010
0000
1000
0001
,
1000
0000
0010
0000
0001
0000
0010
0100
,
0010
0000
1000
0100
1000
0000
0100
0000
,
0001
0000
0010
1000
0010
0000
0100
0010
,
0100
0000
0001
0010
0001
0000
0010
0000
,
0110
0000
0110
0000
0110
0000
1000
0001
,
1000
0000
0010
1000
0010
0000
0100
0000
,
0001
0000
0100
0010
0100
0000
0001
1000
,
0001
0000
0100
0001
0100
0000
0010
0000
,
1001
1001
1001
0000
,
0010
0000
1000
0100
0010
0000
0001
0000
,
0100
0000
0001
0010
0100
0000
0010
0000
,
1000
0000
0001
0010
1000
0000
0010
0000
,
0001
0000
1000
0100
0001
0000
0100
0000
,
0010
0000
0001
0100
1000
0000
0010
0000
,
0100
0000
1000
0010
0001
0000
1000
0000
,
0100
0000
0001
0010
0100
0000
0010
0000
,
1001
1001
1001
0000
;

//--------------- dance-single - ----------------
#NOTES:
     dance-single:
     :
     Hard:
     12:
     0,0,0,0,0:
0000
0000
0000
0000
,
0000
0000
0000
0000
,
0000
0000
0000
0000
,
0000
0000
0000
0000
,
2000
0100
0010
3100
,
0002
0010
0100
0013
,
0200
0001
0010
0301
,
0020
1000
0100
1030
,
0100
0000
0010
0001
0010
1000
0100
0010
,
0000
0001
0010
1000
0100
0010
0100
0000
,
0001
0000
0010
1000
0010
1000
0100
0001
,
0000
0010
0100
0010
1000
0010
0001
0000
,
0010
0000
1000
0100
0001
0010
1000
0001
,
0100
1000
0100
0000
0010
0001
0010
0000
,
0001
0000
0100
0010
1000
0010
0100
0001
,
0000
0000
1000
0000
0100
0000
0010
0000
0000
0000
0010
0000
0100
0000
1000
0100
,
1000
0000
0100
0000
0100
0000
0010
0000
0001
0000
0100
0000
0010
0000
0001
0010
,
0001
0000
0010
0000
0010
0000
0100
0000
1000
0000
0100
0000
0001
0000
0010
0100
,
0010
1000
1000
0100
0010
0001
0001
0010
,
0100
0100
0010
0010
1000
0001
1000
0000
,
0001
0010
0001
0000
0100
0000
0100
0000
0010
0000
0001
0000
0010
0000
0100
0000
,
1000
0100
1000
0000
0010
0000
0010
0000
0001
0000
0100
0000
0010
0000
1000
0000
,
0100
0010
0100
0000
0010
0000
0001
0000
0010
0000
1000
0000
0100
0000
0010
0000
,
0001
0010
0000
0000
1000
0100
0000
0000
0010
0000
0000
0100
0000
0000
0010
0000
,
0200
1000
1000
0010
,
0320
0001
0001
1000
,
2030
0100
0100
0001
,
3002
0010
0010
0100
,
0103
1000
0010
0000
0001
0100
0010
0000
,
1000
0010
0100
0000
0010
0001
0100
0000
,
1000
0010
0001
0100
0010
0100
1000
0010
,
0001
1000
0010
0100
0010
0000
0100
0100
,
0110
0000
1000
0010
0001
0010
1000
0000
,
0010
0000
0001
0100
1000
0100
0010
0010
,
0110
0000
1000
0100
0001
0100
1000
0000
,
0110
0000
0011
0000
1100
0000
1000
1000
,
1001
0000
1000
0100
0010
0100
1000
0000
,
0100
0000
0001
0010
0100
0010
0001
0001
,
1001
0000
1000
0100
0001
0100
1000
0000
,
1001
0101
1010
0000
,
0100
0000
0010
0001
0010
0001
0100
0010
,
0100
0000
1000
0010
1000
0000
0010
0001
,
1000
0000
0100
1000
0100
1000
0010
0100
,
0010
0000
0001
0010
0001
0000
0010
1000
,
0100
0000
0010
0001
0010
0001
1000
0100
,
1000
0000
0100
0001
0100
0000
0010
0001
,
0100
0000
1000
0100
1000
0100
0001
0000
,
1010
0101
1001
0000
;
