#VERSION:0.83;
#TITLE:Amphitryon;
#SUBTITLE:{ZIv Contest 2025};
#ARTIST:Gentle Stick;
#TITLETRANSLIT:;
#SUBTITLETRANSLIT:;
#ARTISTTRANSLIT:;
#GENRE:;
#ORIGIN:Pump It Up PRIME 2015;
#TAGS:;
#CREDIT:Marukomuru;
#BANNER:Amphitryon-bn.png;
#BACKGROUND:Amphitryon-bg.png;
#PREVIEWVID:;
#JACKET:Amphitryon-jacket.png;
#CDIMAGE:;
#DISCIMAGE:;
#LYRICSPATH:;
#CDTITLE:cdtitle.png;
#MUSIC:Amphitryon.ogg;
#OFFSET:-0.820000;
#SAMPLESTART:55.013550;
#SAMPLELENGTH:12.000000;
#SELECTABLE:YES;
#BPMS:0.000000=155.000000
;
#STOPS:;
#DELAYS:;
#WARPS:;
#TIMESIGNATURES:0.000000=4=4
;
#TICKCOUNTS:0.000000=4
;
#COMBOS:0.000000=1
;
#SPEEDS:0.000000=1.000000=0.000000=0
,236.000000=0.020000=0.000000=0
,236.062500=0.250000=6.000000=0
,242.000000=1.000000=2.000000=0
,244.000000=1.000000=0.000000=0
;
#SCROLLS:0.000000=1.000000
,68.000000=0.000000
,68.500000=1.000000
,69.000000=0.000000
,69.500000=1.000000
,70.000000=0.000000
,70.500000=1.000000
,71.000000=0.000000
,71.500000=1.000000
,204.000000=0.500000
,220.000000=0.750000
,236.000000=1.000000
;
#XSCROLLS:0.000000=0.000000 ;
#FAKES:;
#LABELS:0.000000=Song Start
;
#BGCHANGES:0.000=Amphitryon-bg.png=1.000=1=0=0=StretchNoLoop==CrossFade==,
99999.000=-nosongbg-=1.000=0=0=0=StretchNoLoop====,
99999=-nosongbg-=1.000=0=0=0 // don't automatically add -songbackground-
;
#ATTACKS:
;

//---------------dance-single - Marukomuru----------------
#NOTEDATA:;
#CHARTNAME:Marukomuru;
#CHARTHASH:160645739;
#CHARTTYPE:dance-single;
#STEPSTYPE:dance-single;
#BANNER:;
#DESCRIPTION:Marukomuru;
#CHARTSTYLE:Pad;
#DIFFICULTY:Beginner;
#METER:3;
#METERF:0.000000;
#LASTSECONDHINT:118.884521;
#RADARVALUES:0.193706,0.280276,0.000000,0.122525,0.000000,166.000000,166.000000,0.000000,15.000000,0.000000,0.000000,0.000000,0.000000,0.000000,0.193706,0.280276,0.000000,0.122525,0.000000,166.000000,166.000000,0.000000,15.000000,0.000000,0.000000,0.000000,0.000000,0.000000;
#CREDIT:Marukomuru;
#OFFSET:-0.820000;
#BPMS:0.000000=155.000000
;
#STOPS:;
#DELAYS:;
#WARPS:;
#TIMESIGNATURES:0.000000=4=4
;
#TICKCOUNTS:0.000000=4
;
#COMBOS:0.000000=1
;
#SPEEDS:0.000000=1.000000=0.000000=0
,236.000000=0.020000=0.000000=0
,236.062500=0.250000=6.000000=0
,242.000000=1.000000=2.000000=0
,244.000000=1.000000=0.000000=0
;
#SCROLLS:0.000000=1.000000
,68.000000=0.000000
,68.750000=2.000000
,69.000000=0.000000
,69.750000=2.000000
,70.000000=0.000000
,70.750000=2.000000
,71.000000=0.000000
,71.500000=1.000000
,204.000000=0.500000
,220.000000=0.750000
,236.000000=1.000000
;
#XSCROLLS:0.000000=0.000000 ;
#FAKES:;
#LABELS:0.000000=Song Start
;
#NOTES:
0000
0000
0000
0000
,
0000
0000
0000
0000
,
0000
0000
0000
0000
,
0001
0000
0001
0000
,
1000
0000
1000
0000
,
0010
0000
0010
0000
,
0100
0000
0100
0000
,
0001
0000
0001
0000
,
1000
0000
1000
0000
,
0100
0000
0100
0000
,
0010
0000
0010
0000
,
0001
0000
0100
0000
,
0010
0000
1000
0000
,
0001
0000
0010
0000
,
0100
0000
0010
0000
,
0001
0000
0100
0000
,
0010
0000
0100
0000
,
0001
0000
1000
0000
,
0001
0001
0001
0000
,
0010
0000
0100
0000
,
1000
0001
0100
0000
,
0010
0000
0100
0000
,
0001
0010
0100
0000
,
1000
0000
0010
0000
,
0100
0001
1000
0000
,
0010
0000
0100
0000
,
0002
0000
0000
0003
,
1000
0000
0010
0000
,
0100
0000
0001
0000
,
0010
0000
0100
0000
,
1000
0000
0100
0000
,
0010
0000
0001
0000
,
1000
0000
0010
0000
,
0100
0000
0001
0000
,
1000
0000
0000
0000
,
0002
0003
0100
0000
,
0010
0000
1000
0100
,
0020
0030
0001
0000
,
0100
0000
0010
0100
,
0002
0003
0010
0000
,
0100
0000
1000
0010
,
0200
0300
0001
0000
,
1000
0100
0020
0030
,
0001
0001
0001
0000
,
1000
0000
0010
0000
,
0100
0000
0010
0000
,
1000
0000
0100
0000
,
0010
0000
0001
0000
,
0100
0000
0010
0000
,
0100
0000
0001
0000
,
0010
0100
1000
0010
,
0100
0000
0000
0000
,
0001
0000
0000
0000
,
0010
0000
0000
0000
,
0100
0000
0000
0000
,
1000
0000
1000
0000
,
0001
0000
0001
0000
,
1000
0010
0100
0001
,
0020
0000
0130
0000
,
1000
0000
0000
0000
,
0000
0000
0000
0000
,
0002
0003
1000
0000
,
0100
0000
0010
0001
,
2000
3000
0010
0000
,
0100
0000
0001
0010
,
0200
0300
1000
0000
,
0010
0100
0001
0000
,
2000
3000
0100
0000
,
0010
0100
1000
0001
,
0200
0300
0001
0000
,
0010
0100
1000
0001
,
2000
3000
0001
0100
,
0010
0100
0001
1000
,
0200
0300
0010
0100
,
1000
0010
1000
0010
,
0100
0001
0100
0001
,
2000
3000
0000
0000
;

//---------------dance-single - Marukomuru----------------
#NOTEDATA:;
#CHARTNAME:Marukomuru;
#CHARTHASH:1934434302;
#CHARTTYPE:dance-single;
#STEPSTYPE:dance-single;
#BANNER:;
#DESCRIPTION:Marukomuru;
#CHARTSTYLE:Pad;
#DIFFICULTY:Easy;
#METER:6;
#METERF:0.000000;
#LASTSECONDHINT:118.884521;
#RADARVALUES:0.290559,0.311418,0.024505,0.130693,0.000000,249.000000,246.000000,3.000000,16.000000,0.000000,0.000000,0.000000,0.000000,0.000000,0.290559,0.311418,0.024505,0.130693,0.000000,249.000000,246.000000,3.000000,16.000000,0.000000,0.000000,0.000000,0.000000,0.000000;
#CREDIT:Marukomuru;
#OFFSET:-0.820000;
#BPMS:0.000000=155.000000
;
#STOPS:;
#DELAYS:;
#WARPS:;
#TIMESIGNATURES:0.000000=4=4
;
#TICKCOUNTS:0.000000=4
;
#COMBOS:0.000000=1
;
#SPEEDS:0.000000=1.000000=0.000000=0
,236.000000=0.020000=0.000000=0
,236.062500=0.250000=6.000000=0
,242.000000=1.000000=2.000000=0
,244.000000=1.000000=0.000000=0
;
#SCROLLS:0.000000=1.000000
,68.000000=0.000000
,68.750000=2.000000
,69.000000=0.000000
,69.750000=2.000000
,70.000000=0.000000
,70.750000=2.000000
,71.000000=0.000000
,71.500000=1.000000
,204.000000=0.500000
,220.000000=0.750000
,236.000000=1.000000
;
#XSCROLLS:0.000000=0.000000 ;
#FAKES:;
#LABELS:0.000000=Song Start
;
#NOTES:
0000
0000
0000
0000
,
0000
0000
0000
0000
,
0000
0000
0000
0000
,
1000
0000
0000
1000
0000
0000
1000
0000
,
0001
0000
0000
0001
0000
0000
0001
0000
,
0010
0000
0000
0010
0000
0000
0010
0000
,
0100
0000
0000
0100
0000
0000
0100
0000
,
0001
0000
0000
0001
0000
0000
0001
0000
,
1000
0000
0000
1000
0000
0000
1000
0000
,
0100
0000
0000
0100
0000
0000
0100
0000
,
0010
0000
0000
0010
0000
0000
0010
0000
,
0001
0100
0001
0000
,
1000
0100
1000
0000
,
0001
0100
0001
0000
,
1000
0100
1000
1000
,
0001
0010
0001
0000
,
1000
0010
1000
0000
,
0001
0001
1000
1000
,
0001
0100
0001
1000
,
0100
1000
0001
1000
,
0100
0010
0001
0000
,
0100
0010
0100
0001
,
0010
0100
1000
0010
,
0100
0001
1000
0100
,
1000
0001
0100
0000
,
0001
1000
0010
0100
,
0002
2000
0000
3003
,
1001
0010
0100
0001
,
0100
0010
0100
0001
,
1000
0100
0010
0100
,
1000
0100
0010
0100
,
1000
0001
0100
0010
,
0100
0001
0010
0100
,
1000
0100
0001
0100
,
2000
0000
3001
1001
,
0002
0000
0103
0010
,
1000
0100
0001
0100
,
2000
0000
3001
0100
,
0010
1000
0100
0010
,
0002
0000
0103
0010
,
1000
0001
0010
0100
,
2000
0000
3001
0100
,
1000
0001
0010
1000
,
0001
0000
0001
0000
,
1000
0000
1000
0000
,
0010
0000
0010
0000
,
0100
0000
0100
0000
,
0001
0010
0001
0001
,
1000
0100
1000
1000
,
0010
0100
0010
0010
,
1000
0100
0001
0100
,
1000
0000
0001
0100
,
1000
0000
0100
0001
,
1000
0100
0001
0100
,
0010
0001
0100
1000
,
0100
0001
0001
0001
,
1000
1000
1000
1000
,
0100
0010
0001
0100
,
2000
0000
3100
0001
,
1001
0000
0000
0000
,
0000
0000
0000
0000
,
2000
0000
3010
0100
,
0001
0010
0100
1000
,
0002
0000
0103
0010
,
1000
0100
0001
1000
,
0020
0000
0031
0100
,
1000
0100
0001
1000
,
0200
0000
0310
0001
,
0100
0010
1000
0100
,
0002
0000
0103
1000
,
0001
0100
1000
0100
,
0002
0000
1003
0010
,
0001
0010
1000
0001
,
0020
0000
0130
1000
,
0001
0100
1000
0001
,
0010
1000
0001
0010
,
2000
3000
0000
0000
;

//---------------dance-single - Marukomuru----------------
#NOTEDATA:;
#CHARTNAME:Marukomuru;
#CHARTHASH:567711446;
#CHARTTYPE:dance-single;
#STEPSTYPE:dance-single;
#BANNER:;
#DESCRIPTION:Marukomuru;
#CHARTSTYLE:Pad;
#DIFFICULTY:Medium;
#METER:10;
#METERF:0.000000;
#LASTSECONDHINT:118.884521;
#RADARVALUES:0.435255,0.467127,0.073515,0.441090,0.155198,373.000000,364.000000,9.000000,54.000000,0.000000,0.000000,2.000000,0.000000,0.000000,0.435255,0.467127,0.073515,0.441090,0.155198,373.000000,364.000000,9.000000,54.000000,0.000000,0.000000,2.000000,0.000000,0.000000;
#CREDIT:Marukomuru;
#OFFSET:-0.820000;
#BPMS:0.000000=155.000000
;
#STOPS:;
#DELAYS:;
#WARPS:;
#TIMESIGNATURES:0.000000=4=4
;
#TICKCOUNTS:0.000000=4
;
#COMBOS:0.000000=1
;
#SPEEDS:0.000000=1.000000=0.000000=0
,3.000000=0.000000=0.000000=0
,3.062500=0.125000=5.000000=0
,8.000000=1.000000=4.000000=0
,12.000000=1.000000=0.000000=0
,236.000000=0.020000=0.000000=0
,236.062500=0.250000=6.000000=0
,242.000000=1.000000=2.000000=0
,244.000000=1.000000=0.000000=0
;
#SCROLLS:0.000000=1.000000
,68.000000=0.000000
,68.750000=2.000000
,69.000000=0.000000
,69.750000=2.000000
,70.000000=0.000000
,70.750000=2.000000
,71.000000=0.000000
,71.500000=1.000000
,204.000000=0.500000
,220.000000=0.750000
,236.000000=1.000000
;
#XSCROLLS:0.000000=0.000000 ;
#FAKES:;
#LABELS:0.000000=Song Start
;
#NOTES:
0000
0000
0000
0000
,
0000
0000
0000
0000
,
0000
0000
0000
0000
,
1000
1000
1000
1000
,
0001
0001
0001
0001
,
0010
0010
0010
0010
,
0100
0100
0100
0100
,
1000
0000
0000
1000
0000
0000
1000
0000
0000
1000
0000
0000
0010
0000
0000
0000
,
0100
0000
0000
0100
0000
0000
0100
0000
0000
0100
0000
0000
0001
0000
0000
0000
,
0010
0000
0000
0010
0000
0000
0010
0000
0000
0010
0000
0000
0100
0000
0000
0000
,
1000
0000
0000
0001
0000
0000
1000
0000
0000
0001
0000
0000
0001
0000
0000
0000
,
0010
0100
1000
0010
,
0100
0000
0000
0010
0000
0000
1000
0000
0100
0000
0000
0010
0000
0000
0001
0000
,
0010
0001
0100
0010
,
1000
0000
0000
0100
0000
0000
0001
0000
0100
0000
0000
1000
0000
0000
0100
0000
,
1000
0001
0100
0010
,
1000
0000
0000
0001
0000
0000
0010
0000
0100
0000
0000
1000
0000
0000
0001
0000
,
1001
1001
0110
0110
,
1000
0000
0010
0000
0100
0001
1000
0000
,
0001
0100
0001
0010
,
0001
0100
0002
0000
,
1003
0000
0100
1000
0001
0000
0010
0001
,
1000
0100
1000
0010
,
0100
0000
0000
0000
0001
0000
0000
0000
0010
0000
0000
0100
0000
0000
1000
0000
,
0010
0000
0000
0100
0000
0000
0001
0000
0020
0000
0000
0000
0030
0000
0000
0000
,
0002
0203
2300
3200
,
0302
2000
0000
3003
,
1001
0000
1000
0100
1000
0000
0001
0100
,
0001
0000
0000
0000
1000
0000
0100
0000
1000
0000
0000
0001
0000
0000
0001
0000
,
0010
0000
0000
0000
0100
0000
0010
0000
0100
0000
0000
1000
0000
0000
0100
0000
,
0010
0000
0001
0100
0010
0000
1000
0001
,
0100
0000
0000
0000
0000
0000
0010
0000
1000
0000
0100
0000
0010
0000
0000
0000
0000
0000
0001
0000
0000
0010
0000
0000
,
0100
0000
0000
0000
1000
0000
0001
0000
0100
0000
0000
0001
0000
0000
0001
0000
,
1000
0100
0010
0002
,
2000
0000
3003
1001
,
2000
0000
0000
3100
1000
0100
0020
0000
,
0032
0000
0203
0000
0310
1000
0001
0100
,
0020
0000
0000
1030
0200
0000
0320
0000
,
0031
0100
0002
0000
1003
0100
1000
0001
,
0200
0000
0000
0301
0010
0100
2000
0000
,
3002
0000
0203
0000
0310
1000
0100
0010
,
0002
0000
0000
1003
0200
0000
0320
0000
,
0031
0100
2000
0000
3100
0000
0101
0000
,
1000
1000
1000
1001
,
0001
0000
0001
0000
0000
0001
0000
0000
0001
0000
0000
0001
0000
0000
0001
0000
,
0000
0000
0010
0000
0010
0000
0000
0010
0000
0010
0000
0000
0010
0000
0000
0000
,
0100
0000
0100
0000
0000
0100
0000
0000
0100
0000
0000
0100
0000
0000
0100
0000
,
1000
0000
0000
0010
0000
0000
0010
0000
0000
0010
0000
0000
0010
0000
0000
0000
,
0100
0000
0001
0000
0000
0001
0000
0000
0001
0000
0000
0001
0000
0000
0010
0000
,
0000
0000
0100
0000
0000
0100
0000
0000
1000
0000
0000
0000
0001
0000
0000
0000
,
0100
0000
0000
0010
0000
0000
1000
0000
0000
0001
0000
0000
0010
0000
0000
0000
,
0001
0000
0001
1000
0010
0000
1000
0001
,
0010
0000
0000
0000
0001
0000
1000
0000
0100
0000
0000
0010
0000
0000
0001
0000
,
1000
0000
0000
0000
1000
0000
0001
0000
0010
0000
0000
0100
0000
0000
1000
0000
,
0010
0000
0100
0001
0010
0000
0100
1000
,
0001
0001
1000
1000
,
0010
0010
0100
0100
,
0001
0010
0001
0010
0001
1000
0010
1000
,
0020
0000
0000
0000
0200
0330
0110
0000
,
1000
0000
0000
0000
,
0000
0000
0000
0000
,
0002
0000
0000
1003
0200
0000
0320
0000
,
0130
1000
0020
0000
0130
0001
0100
1000
,
0200
0000
0000
0301
0010
0100
0020
0000
,
0032
0000
2003
0000
3010
0100
0001
0010
,
2000
0000
0000
3010
0002
0000
2003
0000
,
3001
0100
2000
0000
3002
0000
0013
1000
,
0200
0000
0000
0310
0001
1000
0020
0000
,
0230
0000
0302
0000
1003
0100
0001
1000
,
0020
0000
0000
0031
0100
0010
2000
0000
,
3001
0010
0200
0000
1300
0001
0100
1000
,
0200
0000
0000
0301
1000
0001
0020
0000
,
0032
0000
2003
0000
3100
1000
0001
0100
,
2000
0000
0000
3100
0001
0010
0100
1000
,
0010
0000
0100
0000
0004
0000
0000
0003
0100
0000
0010
0000
4000
0000
0000
3000
,
0100
0010
0001
0100
0010
1000
0100
0001
,
2000
3000
0000
0000
;

//---------------dance-single - Marukomuru----------------
#NOTEDATA:;
#CHARTNAME:Marukomuru;
#CHARTHASH:619010251;
#CHARTTYPE:dance-single;
#STEPSTYPE:dance-single;
#BANNER:;
#DESCRIPTION:Marukomuru;
#CHARTSTYLE:Pad;
#DIFFICULTY:Hard;
#METER:15;
#METERF:0.000000;
#LASTSECONDHINT:118.884521;
#RADARVALUES:0.681472,1.027678,0.196040,0.490100,0.633046,584.000000,560.000000,24.000000,60.000000,0.000000,1.000000,0.000000,0.000000,0.000000,0.681472,1.027678,0.196040,0.490100,0.633046,584.000000,560.000000,24.000000,60.000000,0.000000,1.000000,0.000000,0.000000,0.000000;
#CREDIT:Marukomuru;
#OFFSET:-0.820000;
#BPMS:0.000000=155.000000
;
#STOPS:;
#DELAYS:;
#WARPS:;
#TIMESIGNATURES:0.000000=4=4
;
#TICKCOUNTS:0.000000=4
;
#COMBOS:0.000000=1
;
#SPEEDS:0.000000=1.000000=0.000000=0
,3.000000=0.000000=0.000000=0
,3.062500=0.125000=5.000000=0
,8.000000=1.000000=4.000000=0
,12.000000=1.000000=0.000000=0
,236.000000=0.020000=0.000000=0
,236.062500=0.250000=6.000000=0
,242.000000=1.000000=2.000000=0
,244.000000=1.000000=0.000000=0
;
#SCROLLS:0.000000=1.000000
,68.000000=0.000000
,68.750000=2.000000
,69.000000=0.000000
,69.750000=2.000000
,70.000000=0.000000
,70.750000=2.000000
,71.000000=0.000000
,71.500000=1.000000
,172.000000=0.500000
,174.000000=0.000000
,174.125000=2.000000
,174.250000=0.000000
,174.375000=2.000000
,174.500000=0.000000
,174.625000=2.000000
,174.750000=0.000000
,174.875000=2.000000
,175.000000=0.000000
,175.500000=1.000000
,204.000000=0.500000
,220.000000=0.750000
,236.000000=1.000000
;
#XSCROLLS:0.000000=0.000000 ;
#FAKES:;
#LABELS:0.000000=Song Start
;
#NOTES:
// measure 0
0000
0000
0000
0000
,  // measure 1
0000
0000
0000
0000
,  // measure 2
0000
0000
0000
0000
,  // measure 3
1000
0000
0000
1000
0000
0000
1000
0000
0000
1000
0000
0000
1000
0000
1000
0000
,  // measure 4
0001
0000
0000
0001
0000
0000
0001
0000
0000
0001
0000
0000
0001
0000
0001
0000
,  // measure 5
0010
0000
0000
0010
0000
0000
0010
0000
0000
0010
0000
0000
0010
0000
0010
0000
,  // measure 6
0100
0000
0000
0100
0000
0000
0100
0000
0000
0100
0000
0000
0100
0000
0100
0000
,  // measure 7
1000
0000
0000
1000
0000
0000
1100
0000
0000
1100
0000
0000
1000
0000
1000
0000
,  // measure 8
0001
0000
0000
0001
0000
0000
0101
0000
0000
0101
0000
0000
0001
0000
0001
0000
,  // measure 9
0010
0000
0000
0010
0000
0000
0110
0000
0000
0110
0000
0000
0010
0000
0010
0000
,  // measure 10
0100
0000
0000
0100
0000
0000
1100
0000
0000
0101
0000
0000
0100
0000
0100
0000
,  // measure 11
0001
0000
0000
1000
0000
0000
0100
0000
0010
0000
0000
0000
0110
0000
0000
0000
,  // measure 12
0001
0000
0000
1000
0000
0000
0010
0000
0100
0001
0000
0001
1000
0000
1000
0000
,  // measure 13
0100
0000
0000
1000
0000
0000
0010
0000
0100
0000
0000
0000
0110
0000
0000
0000
,  // measure 14
0001
0000
0000
0010
0000
0000
0100
0000
1000
0100
0000
0100
0010
0000
0001
0000
,  // measure 15
0100
0000
0000
0010
0000
0000
1000
0000
0100
0000
0000
0000
0110
0000
0000
0000
,  // measure 16
0100
0000
0000
0010
0000
0000
0001
0000
0100
0010
0000
0010
1000
0000
0001
0000
,  // measure 17
0100
0101
1001
1100
,  // measure 18
1000
0000
0010
0000
0100
0000
0001
0010
0100
0000
1000
0001
0100
0000
0010
0000
,  // measure 19
2000
0000
3001
0010
0200
0000
1300
0010
,  // measure 20
0200
0000
0302
0000
2003
0000
0100
0001
,  // measure 21
3002
0000
0100
1000
1003
0000
1000
0100
,  // measure 22
0001
0000
0100
0000
1000
0000
0001
0100
0010
0000
1000
0000
0100
0000
0001
0000
,  // measure 23
0100
0000
0010
0000
0001
0000
0100
0000
2000
0000
0000
3200
0000
0000
0302
0000
,  // measure 24
2003
0000
0000
3200
0000
0000
0320
0000
0032
0000
0000
0000
0103
0000
0001
0000
,  // measure 25
0101
1001
1100
1001
,  // measure 26
0020
0200
0000
0330
,  // measure 27
1001
0000
0000
0000
2000
0000
3010
1000
0010
0000
0000
0000
2000
0000
3001
0100
,  // measure 28
0001
0000
0000
0000
2000
0000
3010
0100
0001
0000
0000
1000
0000
0000
0010
0000
,  // measure 29
0100
0000
0000
0000
0002
0000
1003
0100
0010
0000
0000
0001
0000
0000
0100
0000
,  // measure 30
0010
0000
1000
0000
0002
0000
0013
0100
1000
0000
0100
0000
0020
0000
0031
0100
,  // measure 31
0010
0000
0000
0000
0000
0000
0000
0000
0000
0000
0000
0000
1000
0000
0000
0000
0100
0000
0000
0000
0010
0000
0000
0000
0001
0000
0000
0000
0000
0000
0000
0000
0000
0000
0000
0000
2000
0000
0000
0000
0000
0000
3010
0000
0000
0100
0000
0000
,  // measure 32
0010
0000
0000
0000
0200
0000
0301
1000
0100
0000
0000
0010
0000
0000
0001
0000
,  // measure 33
1000
0000
0010
1000
0001
0000
0010
0001
1000
0000
0100
0010
0001
0000
0100
0010
,  // measure 34
2000
0000
0000
0000
3002
0000
0000
0000
0023
0000
0000
0030
0110
0000
0000
0000
,  // measure 35
2000
0000
0000
0000
3001
0000
1000
0100
0010
0000
0001
0000
0100
0000
1000
0100
,  // measure 36
0001
0000
1000
0000
0200
0000
0000
0000
0310
0000
0001
0000
1000
0100
0010
0001
,  // measure 37
0200
0000
0000
0000
0010
0000
0301
1000
0100
0000
1000
0000
0001
0000
0100
0010
,  // measure 38
1000
0000
0100
0010
0002
0000
0000
0000
1003
0000
0100
0000
0010
0001
1000
0100
,  // measure 39
0020
0000
0000
0000
0001
0000
0130
1000
0001
0000
0100
0000
0001
0000
1000
0100
,  // measure 40
0001
0000
0100
0000
0010
0000
0001
0100
0010
0000
1000
0000
0001
0100
0010
1000
,  // measure 41
0200
0000
0000
0000
0010
0000
1300
0001
0100
0000
0001
1000
0100
0000
1000
0000
,  // measure 42
0001
0100
0020
0000
0100
0000
1031
0000
,  // measure 43
0001
0000
0000
0001
0000
0000
0010
0000
0010
0000
0000
0000
0110
0000
0000
0000
,  // measure 44
1000
0000
0001
0000
0000
0001
0000
0000
0100
0000
0000
1000
0000
0000
0100
0000
,  // measure 45
0000
0000
0001
0000
0001
0000
0000
1000
0000
1000
0000
0000
0100
0000
0000
0000
,  // measure 46
0010
0000
0010
0000
0000
0001
0000
0000
1000
0000
0000
0010
0000
0000
0100
0000
,  // measure 47
0100
0000
0000
0001
0000
0000
1000
0000
0000
0010
0000
0000
0100
0000
0000
0000
,  // measure 48
0001
0000
0001
0000
0000
1000
0000
0000
0100
0000
0000
0010
0000
0000
1000
0000
,  // measure 49
0000
0000
0010
0000
0000
0001
0000
0000
1000
0000
0000
0000
1001
0000
0000
0000
,  // measure 50
2000
0000
0000
3020
0000
0000
0032
0000
0000
2003
0000
0000
3200
0000
0302
0000
,  // measure 51
1003
0000
0000
0000
0002
0000
0103
0010
1000
0000
0000
0000
0002
0000
1003
0100
,  // measure 52
0010
0000
0000
0000
0002
0000
0013
0100
1000
0000
0000
0010
0000
0000
0100
0000
,  // measure 53
0001
0000
0000
0000
2000
0000
3001
0100
0010
0000
0000
0100
0000
0000
0010
0000
,  // measure 54
1000
0000
0100
0000
0020
0000
0130
1000
0001
0000
0100
0000
2000
0000
3100
0001
,  // measure 55
1000
0000
0000
0000
0000
0000
0000
0000
0000
0000
0000
0000
0001
0000
0000
0000
0010
0000
0000
0000
1000
0000
0000
0000
0010
0000
0000
0000
0000
0000
0000
0000
0000
0000
0000
0000
0002
0000
0000
0000
0000
0000
0103
0000
0000
0010
0000
0000
,  // measure 56
1000
0000
0000
0000
0200
0000
0310
0001
1000
0000
0000
0010
0000
0000
0100
0000
,  // measure 57
0001
0000
0010
0100
1000
0000
0010
0100
0001
0000
0010
0100
1000
0010
0100
0001
,  // measure 58
2000
3020
0230
0301
,  // measure 59
1001
0000
0000
0000
,  // measure 60
0000
0000
0000
0000
0000
0000
0000
0000
1000
0000
0100
0000
0010
0001
0100
0010
,  // measure 61
2000
0000
0000
0000
0001
0000
3100
1000
0010
0000
0100
0000
0001
0000
0010
0100
,  // measure 62
0001
0000
0100
1000
0200
0000
0000
0000
1000
0000
0310
0000
0001
0010
0100
1000
,  // measure 63
0002
0000
0000
0000
0100
0000
1003
0010
0100
0000
0001
0000
1000
0000
0100
0010
,  // measure 64
0001
0000
0100
0000
1000
0000
0100
0001
0010
0000
1000
0000
0010
0001
0100
0010
,  // measure 65
2000
0000
0000
0000
0010
0000
3100
0010
0001
0000
0100
0010
1000
0000
0100
0000
,  // measure 66
0010
0000
0001
0100
1000
0100
0010
1000
0002
0000
0000
0000
1003
0100
0001
0100
,  // measure 67
2000
0000
0000
0000
0001
0000
3100
0010
0001
0000
0100
0000
0010
0000
0100
0001
,  // measure 68
0010
0000
0100
1000
0010
0000
0100
0001
1000
0000
0100
0000
0010
0001
0100
0010
,  // measure 69
0002
0000
0000
0000
0010
0000
0013
1000
0100
0000
0010
0000
1000
0000
0010
0001
,  // measure 70
1000
0000
0100
0010
0001
0000
0100
0010
1000
0000
0001
0000
0010
0100
0001
0100
,  // measure 71
0020
0000
0000
0000
0001
0000
0130
1000
0001
0000
0100
0000
0010
0000
1000
0100
,  // measure 72
1000
0000
0001
0100
0001
0000
1000
0010
0100
0000
0001
0010
0100
0001
0100
0010
,  // measure 73
2000
0000
0000
0000
0010
0000
3010
0001
1000
0000
0010
0100
0001
0000
1000
0000
,  // measure 74
0100
0010
0100
0010
0100
1000
0100
1000
0001
0100
0001
0100
0001
0010
0001
0010
,  // measure 75
0001
0010
0100
1000
0010
0100
0010
1000
0100
0010
0001
0100
1000
0100
0001
0010
,  // measure 76
2000
3000
0000
0000
;
