#TITLE:愛 LIKE ハンバーガー;
#SUBTITLE:;
#ARTIST:高槻やよい・秋月律子;
#TITLETRANSLIT:Ai LIKE Hamburger;
#SUBTITLETRANSLIT:;
#ARTISTTRANSLIT:Yayoi Takatsuki & Ritsuko Akizuki;
#GENRE:America;
#CREDIT:;
#MUSIC:Ai LIKE Hamburger.ogg;
#BANNER:;
#BACKGROUND:Ai LIKE Hamburger-bg.jpg;
#CDTITLE:;
#SAMPLESTART:60.446;
#SAMPLELENGTH:15.000;
#SELECTABLE:YES;
#OFFSET:0.075;
#BPMS:0.000=192.000000;
#STOPS:;
#BGCHANGES:;
#FGCHANGES:;

//--------------- dance-single - ----------------
#NOTES:
     dance-single:
     :
     Easy:
     9:
     0,0,0,0,0:
0000
0000
0000
0000
,
0000
0000
0000
0000
,
0000
0000
0000
0000
,
0000
0000
0000
0000
,
0000
0000
0000
0000
,
0000
0000
0000
0000
,
0000
0000
0000
0000
,
0000
0000
0000
0000
,
0000
0000
0000
0000
,
0000
0000
0000
0000
,
0000
0000
0000
0000
0000
0000
0000
0000
0000
0000
0000
2002
,
0000
0000
0000
0000
,
0000
0000
3003
0000
,
1000
0100
1000
0000
,
0100
0000
0100
0000
,
0001
0010
0001
0000
,
0010
0000
0010
0000
,
1000
0000
1000
0000
,
0001
0000
0001
0000
,
1000
0000
0100
0000
,
1000
0000
0100
0000
,
0001
0000
0001
0000
,
1000
0000
1000
0000
,
0001
0000
0010
0000
,
0001
0000
0010
0000
,
0100
0000
0100
0000
,
0010
0000
0010
0000
,
0100
0000
1000
0000
,
0100
0000
1000
0000
,
0010
0000
0010
0000
,
0100
0000
0100
0000
,
0010
0000
0001
0000
,
0010
0000
0001
0000
,
1000
1000
1000
0000
,
1000
0100
1000
0000
,
0001
0001
0001
0000
,
0001
0010
0001
0000
,
1000
0000
0001
0000
,
1000
0001
1000
0000
,
1001
0000
0100
0000
,
0010
0000
0100
0000
,
0010
0010
0010
0000
,
0010
0001
0010
0000
,
0100
0100
0100
0000
,
0100
1000
0100
0000
,
0010
0000
0100
0000
,
0010
0000
0000
0100
0000
0000
0010
0000
0000
0000
0000
2002
,
0000
0000
0000
0000
,
3003
0000
0000
0000
,
1000
0100
1000
0100
,
1000
1000
1000
0000
,
0001
0010
0001
0010
,
0001
0001
0001
0000
,
1000
0000
0001
0000
,
1000
0001
1000
0000
,
0001
0001
1000
1000
,
0001
1000
0001
0000
,
0100
0000
0010
0000
,
0100
0000
0000
0010
0000
0000
0100
0000
0000
0000
0000
2002
,
0000
0000
0000
0000
,
3003
0000
0000
0000
,
0010
0001
0010
0001
,
0010
0010
0010
0000
,
0100
1000
0100
1000
,
0100
0100
0100
0000
,
0010
0000
0100
0000
,
0010
0100
0010
0000
,
0100
0100
0010
0010
,
0100
0010
0100
0000
,
0001
0000
1000
0000
,
0001
0000
0000
1000
0000
0000
0001
0000
0000
0000
0000
1001
,
0000
0000
0000
0000
,
0000
0000
0000
0000
,
0001
0000
0001
0000
,
0002
0000
0003
0000
,
1000
0000
1000
0000
,
2000
0000
3000
0000
,
0010
0000
0100
0000
,
0020
0000
0000
0000
0000
0000
0030
0000
0000
0000
0000
0220
,
0000
0000
0000
0000
,
0330
0000
0100
0000
,
0001
0000
0010
0000
,
1000
0000
0100
0000
,
0011
0000
1100
0000
,
0110
0000
0000
0000
0000
0000
0000
0000
0000
0000
0000
2002
,
0000
0000
0000
0000
,
3003
0000
0000
0000
,
1000
0100
1000
0010
,
1000
0001
1000
0000
,
0001
0010
0001
0100
,
0001
1000
0001
0000
,
1000
1000
0001
0001
,
0100
0010
0100
0000
,
0010
0010
0100
0100
,
0001
1000
0001
0000
,
1010
0000
0101
0000
,
0010
0000
0000
0100
0000
0000
0010
0000
0000
0000
0000
1001
,
0000
0000
0000
0000
,
0000
0000
0000
0000
0000
0000
0000
0000
0000
0000
0000
0200
,
0000
0000
0000
0000
,
0000
0000
0000
0000
,
0300
0000
0000
0000
0000
0000
;

//--------------- dance-single - ----------------
#NOTES:
     dance-single:
     :
     Medium:
     11:
     0,0,0,0,0:
0000
0000
0000
0000
,
0000
0000
0000
0000
,
0000
0000
0000
0000
,
0000
0000
0000
0000
,
0000
0000
0000
0000
,
0000
0000
0000
0000
,
0000
0000
0000
0000
,
0000
0000
0000
0000
,
0000
0000
0000
0000
,
0000
0000
0000
0000
,
0000
0000
0000
0000
0000
0000
0000
0000
0000
0000
0000
0100
,
0000
0000
0020
0000
0000
0000
0032
0000
0000
0023
0000
0000
,
1030
0100
0001
0010
,
0100
0010
0100
1000
,
0100
0000
0000
0001
0000
0010
0000
0000
0100
0010
0000
0000
,
0002
0013
2000
3100
,
0001
0000
0000
1000
0000
0000
0010
0000
0100
0000
0000
0000
,
0001
0010
0001
0100
,
0010
0000
0000
1000
0000
0100
0000
0000
0000
0010
0000
0000
,
0100
0000
0000
0001
0000
0000
0010
0000
0000
0100
0000
2000
,
0000
0010
3010
0000
,
0001
0010
0001
0010
,
0100
0000
0000
1000
0000
0100
0000
0000
1000
0100
0000
0000
,
0010
0000
0000
0100
0000
0010
0000
0000
0000
0001
0000
1000
,
0000
0000
0100
0010
0000
0100
0010
0000
0100
0000
0000
0000
,
0001
0100
1000
0010
,
0100
0000
0000
0010
0000
0001
0000
0000
0010
0000
0000
0000
,
0100
0000
0000
0010
0000
0000
1000
0000
0000
0100
0000
0002
,
0000
0100
0103
0000
,
0010
1000
0010
0100
,
0010
0000
0000
0001
0000
0010
0000
0000
0100
0000
0000
0000
,
1000
0000
0000
0100
0000
0010
0000
0000
0000
0000
0000
0001
,
0000
0000
0010
0100
0000
0010
0100
0000
0010
0000
0000
0000
,
1000
0100
0001
0010
,
0100
1000
0001
0010
,
0100
0000
0000
0010
0000
0000
0100
0000
0000
1000
0000
0001
,
0000
0000
0000
0010
0000
0000
0100
0000
0000
1000
0000
0010
,
0000
0100
0001
0010
,
1000
0000
0100
0010
0000
0100
0010
0000
0000
0001
0000
0000
,
0100
0000
0000
2000
0000
0000
,
3002
0000
0000
0023
0000
0000
,
0130
1000
0100
0001
,
0010
0100
0010
1000
,
0100
0000
0000
0001
0000
0000
0010
0000
0000
0100
0000
1000
,
0000
0000
0000
0100
0000
0000
0010
0000
0000
0100
0000
0010
,
0000
0001
0010
1000
,
0100
0000
0000
0010
0000
0000
0100
0000
0000
0001
0000
2000
,
0000
0010
0010
0100
,
3100
0000
0000
0010
0000
0100
0000
0000
0100
0010
0000
0002
,
0000
0010
0100
0010
,
1003
0000
0000
0100
0000
0010
0000
0000
0010
0100
0000
2000
,
0000
0001
0100
0010
,
3001
0000
0000
0010
0000
0100
0000
0000
1000
0100
0000
0010
,
0000
0000
0000
0100
0000
0000
0010
0000
0000
0001
0000
0010
,
0000
0000
0000
0100
0000
1000
0000
0000
0100
0010
0000
0000
,
0001
0000
0000
0010
0000
0000
1000
0000
0000
0100
0000
0010
,
0100
0000
0010
0000
0000
0100
0000
0000
0000
1000
0000
0000
,
0101
0000
0000
0000
0000
0000
1010
0000
0000
0000
0000
0100
,
0000
0000
0010
0000
0000
1000
0000
0000
0001
0000
0000
1001
,
0000
0100
0010
0001
,
0010
0000
0000
0100
0000
1000
0000
0000
1000
0100
0000
0020
,
0000
0100
0001
0100
,
1030
0000
0000
0010
0000
0001
0000
0000
0001
0010
0000
0200
,
0000
0001
1000
0001
,
0310
0000
0000
0100
0000
1000
0000
0000
0100
0010
0000
0001
,
0000
0000
0010
0100
0000
0000
1000
0000
0000
0001
0000
0000
,
0010
0000
0000
0100
0000
0010
0000
0000
0001
0010
0000
0000
,
1000
0000
0000
0100
0000
0000
0001
0000
0000
0010
0000
0100
,
0010
0000
0100
0000
0000
0010
0000
0000
0000
0001
0000
0000
,
0011
0000
0000
0000
0000
0000
1100
0000
0000
0000
0000
1000
,
0000
0000
0001
0000
0000
0100
0000
0000
0010
0000
0000
0110
,
0000
0000
0000
0100
0000
0000
0100
0000
0000
0010
0000
0200
,
0000
0300
0000
0000
,
0001
0010
0001
0010
,
0200
0000
0000
0000
0000
0310
0000
0000
0100
0000
0000
1000
,
0000
0100
1000
0100
,
0020
0000
0000
0000
0000
0130
0000
0000
0010
0000
0000
0001
,
0000
1000
0001
1000
,
0002
0000
0000
0000
0000
1003
0000
0000
0100
0000
0000
0010
,
0000
0100
0010
0100
0010
0100
,
0010
0000
0000
0000
0000
0100
0000
0000
0010
0100
0000
1000
,
0000
0100
0001
0010
,
1000
0100
0001
0100
,
1000
0100
0001
0010
,
0100
0000
0000
0001
0000
0000
1000
0000
0000
0001
0000
0200
,
0000
0010
0001
0010
,
1300
0000
0000
0100
0000
0010
0000
0000
0010
0001
0000
0020
,
0000
0100
1000
0001
,
0130
0000
0000
0010
0000
0100
0000
0000
0100
1000
0000
0200
,
0000
0001
0010
1000
,
0301
0000
0000
0010
0000
0100
0000
0000
1000
0100
0000
0001
,
0000
0000
0000
0010
0000
0000
1000
0000
0000
0001
0000
0100
,
0000
0000
0000
0010
0000
1000
0000
0000
0000
0100
0000
0000
,
0001
0000
0000
0010
0000
0000
1000
0000
0000
0100
0000
0010
,
0100
0000
0010
0000
0000
0100
0000
0000
0000
0001
0000
0000
,
0101
0000
0000
0000
0000
0000
1010
0000
0000
0000
0000
0100
,
0000
0000
0010
0000
0000
1000
0000
0000
0001
0000
0000
1001
,
0000
0000
0000
0100
0000
0000
0010
0000
0000
0100
0000
0010
,
0000
0000
0000
0000
0200
0000
0000
0000
0000
0000
0000
0000
0000
0310
0000
0000
0000
0000
0000
0000
0000
0000
0200
0000
,
0000
0000
0000
0000
,
0000
0000
0000
0000
,
0300
0000
0000
0000
;

//--------------- dance-single - ----------------
#NOTES:
     dance-single:
     :
     Hard:
     14:
     0,0,0,0,0:
0000
0000
0000
0000
,
0000
0000
0000
0000
,
0000
0000
0000
0000
,
0000
0000
0000
0000
,
0000
0000
0000
0000
,
0000
0000
0000
0000
,
0000
0000
0000
0000
,
0000
0000
0000
0000
,
0000
0000
0000
0000
,
0000
0000
0000
0000
,
0000
0000
0000
0000
0000
0000
0000
0000
0000
0000
0000
1001
,
0000
0000
0020
0000
0000
0000
0230
0000
0000
2300
0000
0000
,
3020
0000
0000
0031
0000
0010
0100
0000
1000
0100
0000
0000
,
0001
0100
0010
0001
,
0010
0000
0000
0100
0000
1000
0000
0000
0100
0010
0000
0010
,
0002
0013
2000
3100
,
0010
0000
0000
0100
0000
0000
1000
0000
0001
0000
0000
0000
,
0010
1000
0010
0100
,
0010
0000
0001
0010
0000
0100
0000
0000
1000
0100
0000
0010
,
0001
0000
0000
0010
0000
0000
0100
0000
0000
1000
0000
0200
,
0000
0000
0000
0301
0000
0000
0001
0000
0010
0000
0000
0000
,
1000
0100
0001
0010
,
1000
0000
0001
1000
0000
0001
0000
0000
0010
0100
0000
1000
,
0100
0000
0000
0010
0000
0100
0000
0000
0010
0001
0000
0010
,
0000
0000
1000
0100
0000
0001
0010
0000
0100
0000
0000
0000
,
0001
0100
0001
0010
,
0001
0000
0100
1000
0000
0100
0000
0000
0001
0010
0000
0100
,
1000
0000
0000
0100
0000
0000
0010
0000
0000
0100
0000
0002
,
0000
0000
0000
1003
0000
0000
1000
0000
0100
0000
0000
0000
,
0010
0000
0000
1000
0000
0000
0001
0000
0000
0100
0000
0010
,
0100
0000
0000
1000
0000
0100
0000
0000
0010
0001
0000
0010
,
0100
0000
0000
1000
0000
0100
0000
0000
0010
0001
0000
0010
,
0000
0000
0100
0010
0000
0010
0100
0000
0010
0000
0000
0000
,
1000
0000
0000
0100
0000
0010
0001
0000
0000
0100
0000
0000
,
0010
1000
0010
0100
,
0001
0000
0000
0010
0000
0100
0010
0000
0010
0100
0000
1000
,
0000
0000
0100
0010
0000
0000
0001
0000
0010
0100
0000
0010
,
0000
0100
0001
0010
,
0100
0000
0010
1000
0000
1000
0010
0000
0000
0001
0000
0000
,
0100
0000
2200
3300
,
0220
0330
0022
0033
,
0100
0000
0000
0001
0000
0010
0100
0000
0000
0010
0000
0000
,
0100
1000
0001
0010
,
0100
0000
0001
0010
0000
1000
0100
0000
0100
0010
0000
0002
,
0000
0000
0000
0100
0000
0000
1003
0000
0010
0100
0000
0001
,
0000
0010
1000
0100
,
0010
0000
0000
0001
0000
0000
0010
0000
0100
0010
0000
0200
,
0000
0001
0010
1000
,
0310
0000
0000
0100
0000
0010
0000
0000
0001
0010
0000
0001
,
0000
0000
0010
0100
0000
1000
0100
0000
0010
0001
0000
0010
,
0100
0000
0000
0010
0000
0100
0000
0000
1000
0100
0000
1000
,
0000
0000
0100
0010
0000
0001
0010
0000
0100
1000
0000
0100
,
0010
0000
0010
0100
0000
1000
0000
0000
0100
0010
0000
0001
,
0000
0000
0010
0100
0000
1000
0100
0000
0000
0010
0000
0100
,
0000
0000
0010
0001
0000
0010
0000
0000
0100
1000
0000
1000
,
0100
0000
0000
0010
0000
0001
0010
0000
0000
0100
0000
1000
,
0100
0000
0010
0000
0000
0100
0000
0000
0001
0010
0000
0100
,
1000
0000
0000
0000
0000
0000
0001
0000
0000
0000
0000
1000
,
0100
0000
0010
0000
0000
0101
0000
0000
1010
0000
0000
0110
,
0000
0000
0000
1000
0000
0100
0010
0000
0001
0010
0000
0100
,
1000
0000
0000
0001
0000
0010
0000
0000
0100
1000
0000
0100
,
0000
0000
0010
0001
0000
0001
0010
0000
0100
1000
0000
0100
,
0010
0000
0001
0010
0000
0100
0000
0000
0010
0001
0000
0010
,
0000
0000
1000
0100
0000
0100
0010
0000
0001
0010
0000
0100
,
1000
0000
0100
0010
0000
0100
0000
0000
0001
0010
0000
0100
,
0000
0000
0010
0100
0000
1000
0100
0000
0010
0001
0000
0010
,
0100
0000
1000
0100
0000
0001
0000
0000
0010
0100
0000
1000
,
0100
0000
0000
0001
0000
0010
0100
0000
0000
1000
0000
0100
,
0010
0000
0001
0000
0000
0100
0000
0000
2000
0000
0000
3100
,
0010
0000
0000
0000
0000
0000
0100
0000
0000
0000
0000
0001
,
0010
0000
0100
0000
0000
1100
0000
0000
0011
0000
0000
1001
,
0000
0000
0100
0010
0000
0000
0100
0000
0000
0010
0000
0200
,
0000
0000
0000
0300
0000
0010
0000
0000
0001
0010
0000
0100
,
0000
0000
0000
0001
0000
0010
0100
0000
0000
0010
0000
0000
,
0200
0000
0000
0000
0000
0310
0000
0000
1000
0000
0000
0100
,
0000
0000
1000
0100
0000
0100
0010
0000
0000
0100
0000
0000
,
0020
0000
0000
0000
0000
0130
0000
0000
0010
0000
0000
1000
,
0000
0000
0001
0010
0000
1000
0100
0000
0010
0100
0000
0000
,
2000
0000
0000
0000
0000
3001
0000
0000
0100
0000
0000
0001
,
0000
0100
0010
1000
0010
0100
,
0001
0000
0000
0000
0000
0100
0000
0000
0010
0100
0000
0010
,
0000
0100
0010
0001
,
0100
0010
1000
0001
,
0020
1030
0200
0301
,
2000
0000
0000
3100
0000
0000
0010
0000
0100
0010
0000
0002
,
0000
0010
1000
0100
,
1003
0000
0000
0100
0000
0010
0000
0000
0100
0010
0000
0001
,
0000
0000
0010
0100
0000
1000
0100
0000
0100
0010
0000
0001
,
0010
0000
0000
1000
0000
0100
0000
0000
0010
0100
0000
1000
,
0000
0000
0010
0001
0000
0001
0010
0000
0100
1000
0000
0100
,
0010
0000
0001
0010
0000
0100
0000
0000
1000
0100
0000
0010
,
0000
0000
0001
0010
0000
0100
0010
0000
0000
1000
0000
0100
,
0000
0000
0010
0001
0000
0100
0000
0000
0010
0100
0000
0000
,
0010
0000
0000
1000
0000
0100
1000
0000
0000
0001
0000
0010
,
0001
0000
0100
0000
0000
0010
0000
0000
1000
0100
0000
0010
,
0001
0000
0000
0000
0000
0000
1000
0000
0000
0000
0000
0001
,
0010
0000
0100
0000
0000
0101
0000
0000
1010
0000
0000
1001
,
0000
0000
0000
0100
0000
0000
0010
0000
0000
0100
0000
0010
,
0000
0000
0000
0000
0200
0000
0000
0000
0000
0000
0000
0000
0000
0310
0000
0000
0000
0000
0000
0000
0000
0000
0200
0000
,
0000
0000
0000
0000
,
0000
0000
0000
0000
,
0300
0000
0000
0000
0000
0000
0000
0000
0000
0000
0000
0000
;
