#TITLE:Triple Journey -TAG EDITION-;
#SUBTITLE:;
#ARTIST:Triumvirate;
#TITLETRANSLIT:;
#SUBTITLETRANSLIT:;
#ARTISTTRANSLIT:;
#GENRE:;
#CREDIT:;
#BANNER:Triple Journey -TAG EDITION-.png;
#BACKGROUND:Triple Journey -TAG EDITION--bg.png;
#LYRICSPATH:;
#CDTITLE:!cdtitle.png;
#MUSIC:Triple Journey -TAG EDITION-.ogg;
#OFFSET:0.000000;
#SAMPLESTART:61.875000;
#SAMPLELENGTH:15.000000;
#SELECTABLE:YES;
#DISPLAYBPM:96.000000:192.000000;
#BPMS:0.000000=96.000000
,20.000000=192.000000
;
#STOPS:
;
#BGCHANGES:;
#KEYSOUNDS:;
#ATTACKS:;

//---------------dance-single - Konami Challenge chart (was an 18)----------------
#NOTES:
     dance-single:
     :
     Medium:
     13:
     1.061224,1.178571,0.571429,0.123810,1.014286,780.000000,720.000000,60.000000,13.000000,0.000000,0.000000,1.061224,1.178571,0.571429,0.123810,1.014286,780.000000,720.000000,60.000000,13.000000,0.000000,0.000000:
// measure 0
0000
0000
0000
0000
,  // measure 1
1001
0000
0000
0100
0010
0000
0000
0011
0000
0001
0100
0000
0110
0000
0000
0000
,  // measure 2
1010
0000
0000
0000
0000
0000
0100
0000
0010
0000
0000
0000
0000
0000
0011
0000
0000
0000
1000
0100
1000
0000
0001
0000
0010
0000
0100
0000
0000
0000
0100
0000
,  // measure 3
0110
0000
0000
1000
0010
0000
0000
0101
0000
1000
0001
0000
0100
0000
0010
0000
,  // measure 4
1000
0000
0000
0010
0000
0000
0001
0000
0100
0000
0000
2000
0000
0000
0002
0000
0000
0000
0000
0000
0000
0000
3003
0000
0000
0000
0110
0000
0000
0000
0000
0000
,  // measure 5
1100
0010
0100
0001
0010
0100
1000
0010
,  // measure 6
0000
0000
1000
0001
0100
0001
1000
0100
1000
0000
0000
0000
0010
0000
0100
0000
,  // measure 7
1100
0010
0100
0001
0010
0100
1000
0010
,  // measure 8
0100
0000
0100
0000
0010
1000
0001
0000
0010
0001
0010
0100
1000
0000
0101
0000
,  // measure 9
0000
1000
0001
0010
0100
1000
0001
0101
,  // measure 10
0000
0110
0100
1010
0000
1100
0001
0011
,  // measure 11
0000
0000
1000
0000
0010
0000
0100
0000
0001
1000
0100
0010
0001
0100
0020
0000
,  // measure 12
0000
0000
0000
0030
,  // measure 13
0100
0000
0001
0010
0001
0000
0100
0000
0010
1000
0010
0000
0100
0000
0001
1000
,  // measure 14
0001
0000
1000
0001
0010
0000
0100
1000
0010
0000
0100
0001
0010
0000
0100
1000
,  // measure 15
0010
0000
0100
0010
0100
0000
0001
0000
0010
0100
0010
0000
0001
0000
0010
0100
,  // measure 16
1000
0000
0001
0100
0010
0000
1000
0010
0100
0000
0001
0000
0010
0100
1000
0010
,  // measure 17
0100
0000
0010
0100
0010
0000
1000
0000
0100
1000
0100
0000
0010
0001
0100
0000
,  // measure 18
0010
1000
0100
0000
0010
0001
1000
0000
0010
0100
0001
0000
0100
0001
1000
0001
,  // measure 19
0010
0001
1000
0001
1000
0100
0010
0100
,  // measure 20
0001
0000
0100
0000
0010
0000
1000
0000
0001
0000
0001
0000
1000
0001
1000
0001
,  // measure 21
0100
0000
0001
0100
0010
0000
0100
0000
0010
1000
0100
0000
0010
0000
0100
1000
,  // measure 22
0010
0000
1000
0000
0010
0100
0001
0000
1000
0000
0001
0000
0100
0001
0010
0001
,  // measure 23
0100
0000
0010
1000
0100
0000
0010
0000
0001
0010
0100
0000
0010
0000
0100
1000
,  // measure 24
0001
0000
1000
0001
0100
0000
0010
1000
0100
0010
0001
0100
0010
1000
0100
0010
,  // measure 25
0001
0000
1000
0001
0010
0000
0001
0000
0100
0010
1000
0000
0010
0000
0100
0001
,  // measure 26
0010
0000
0100
0000
1000
0001
0010
0000
0100
0010
0001
1000
0010
0100
0001
1000
,  // measure 27
0001
0010
0001
0010
0100
1000
0010
0100
,  // measure 28
0000
0000
0100
0000
1000
0000
0100
0000
0001
0000
1000
0000
0001
0010
0100
0010
,  // measure 29
0001
1000
0010
0012
0000
0013
1000
0002
,  // measure 30
0000
0000
0013
0000
0100
0000
0000
0000
1000
0001
0000
0010
0001
0000
1000
0000
,  // measure 31
1000
0001
0010
2010
0000
3010
0001
2000
,  // measure 32
0000
3010
0100
0001
0000
0001
0100
0000
,  // measure 33
0110
0000
0001
0011
0000
0100
1000
0010
,  // measure 34
0000
0010
0001
0010
0100
0010
1000
0010
,  // measure 35
0101
0000
0101
1100
0000
1100
1010
0000
,  // measure 36
1010
0011
0000
0011
1001
0000
1001
0000
,  // measure 37
0001
1000
0100
0102
0000
0103
1000
0002
,  // measure 38
0000
0000
0103
0000
0010
0000
0000
0000
1000
0001
0000
0100
0001
0000
1000
0000
,  // measure 39
1000
0001
0100
2100
0000
3100
0001
1000
,  // measure 40
0000
1000
0100
0010
0000
0010
0001
0000
,  // measure 41
0110
0000
0110
1100
0000
1100
1010
0000
,  // measure 42
1010
0011
0000
0011
0101
0000
0110
0000
,  // measure 43
1000
0000
0010
0000
0100
0000
0010
0000
1000
0010
0001
1000
0100
0001
0010
0000
,  // measure 44
0000
0000
0010
0000
0010
0000
0100
0000
1000
0100
0010
0001
1000
0010
0100
0001
,  // measure 45
0100
0010
0100
0010
1000
0000
0001
0010
0001
0010
0100
0000
1000
0100
0010
0000
,  // measure 46
0100
1000
0010
0000
0100
0001
0010
0000
0100
1000
0001
0000
0100
0001
1000
0000
,  // measure 47
0010
1000
0001
1000
0001
0000
0010
0001
1000
0001
0100
0000
0001
1000
0010
0000
,  // measure 48
0100
0010
1000
0000
0100
0010
0001
0000
1000
0010
0100
0000
0001
0100
0010
0000
,  // measure 49
1000
0100
1000
0010
1000
0000
0001
0100
0001
0010
0001
0000
1000
0100
0001
0000
,  // measure 50
0001
0100
1000
0000
1000
0100
0001
0000
0001
0100
1000
0000
0100
0010
0100
0000
,  // measure 51
0001
1000
0001
1000
0100
0010
0100
0010
0001
0010
0001
0010
0001
0100
0001
0100
,  // measure 52
0010
1000
0100
0010
0001
0100
0010
1000
0100
0010
0001
0100
0010
1000
0100
0010
,  // measure 53
0001
0100
0001
0100
0010
0000
1000
0100
1000
0100
0010
0000
0001
0000
1010
0000
,  // measure 54
0100
0000
1010
0000
0001
0000
1010
0000
0100
0001
0010
0100
1000
0010
0100
0001
,  // measure 55
0010
0100
0010
0100
1000
0000
0001
1000
0001
1000
0100
0000
1000
0000
0011
0000
,  // measure 56
0100
0000
0011
0000
1000
0000
0011
0000
0001
0010
0100
1000
0010
0100
0001
0010
,  // measure 57
0100
0000
1000
0010
1000
0000
0001
1000
0001
0000
0101
0000
1000
0000
2200
0000
,  // measure 58
0000
0000
0000
3300
,  // measure 59
0110
0000
1000
0100
0010
0000
0010
0001
1000
0000
1000
0001
1000
0000
0001
0000
,  // measure 60
0110
0000
0001
0100
0010
0000
0010
1000
0001
0000
0001
1000
0001
0000
1000
0000
,  // measure 61
0001
0100
0010
0100
0001
0100
0010
0100
0001
0100
0010
0100
0001
0100
0010
0100
,  // measure 62
0001
0010
0100
0010
0001
0010
0100
0010
0001
0010
0100
0010
0001
0010
0100
0010
,  // measure 63
0001
1000
0010
1000
0001
1000
0010
1000
0001
1000
0100
1000
0001
1000
0100
1000
,  // measure 64
0001
0100
0010
1000
0100
0010
0001
0100
0010
0100
0001
1000
0100
0010
0001
0000
,  // measure 65
0101
0010
0100
1000
0010
0100
0001
0010
,  // measure 66
0000
0000
0001
1000
0100
1000
0001
0100
0001
0000
0000
0000
0010
0000
0100
0000
,  // measure 67
0101
0010
0100
1000
0010
0100
0001
0010
,  // measure 68
0100
0010
0100
0010
0001
0100
0010
1000
0010
1000
0010
0100
0001
0000
1100
0000
,  // measure 69
0000
0001
1000
0010
0100
0001
1000
1100
,  // measure 70
0000
0110
0100
0011
0000
0101
1000
1010
,  // measure 71
0000
0000
0001
0000
0010
0000
0100
0000
1000
0001
0100
0010
1000
0100
0020
0000
,  // measure 72
0000
0000
0000
0030
,  // measure 73
0001
0100
0010
1000
0100
0010
0001
0100
0010
1000
0100
0010
0001
0100
0010
1000
,  // measure 74
0100
0010
0001
0100
0010
1000
0100
0010
0001
0100
0010
1000
0100
0001
0100
1000
,  // measure 75
0001
0000
0000
0000
;

//---------------dance-single - 2015----------------
#NOTES:
     dance-single:
     :
     Hard:
     14:
     1.929252,2.964286,4.628572,0.085714,1.633333,1418.000000,903.000000,486.000000,9.000000,0.000000,26.000000,1.929252,2.964286,4.628572,0.085714,1.633333,1418.000000,903.000000,486.000000,9.000000,0.000000,26.000000:
// measure 0
0000
0000
0000
0000
,  // measure 1
1101
0010
0001
1000
0100
0010
1000
0001
0010
0100
0011
0100
1010
0001
0110
1000
0100
0010
1000
0010
0001
0100
1000
0001
0100
0010
0001
0010
0100
1000
0001
0100
,  // measure 2
0011
1000
0100
0001
1000
0001
0010
0100
0001
0010
1100
0010
0101
1000
0011
1000
0010
0100
0001
0010
0100
0001
1000
0100
0001
1000
0010
0100
0001
1000
0100
0010
,  // measure 3
0101
0010
1000
0001
0100
1000
0001
0010
0100
1000
0011
1000
0110
0001
1010
0001
1000
0010
0100
1000
0001
0100
0001
0010
0101
0010
1000
0010
1001
0100
0001
1000
,  // measure 4
0011
0100
1000
0101
0010
0001
1010
0001
0110
1000
0010
0101
1000
0001
1010
0100
0010
0100
0011
0100
0011
0100
0011
1100
0011
0000
0112
0000
0000
0000
0000
0000
,  // measure 5
1113
0001
0100
1010
0100
0001
1010
0101
,  // measure 6
1100
0000
0110
0000
0110
0000
0110
1001
0110
0001
0010
0001
1010
0000
1000
0100
,  // measure 7
1001
0010
1000
0011
0100
0010
0101
1010
,  // measure 8
1100
0000
1100
0000
1000
0010
1100
0000
1100
0011
1100
0011
1100
0000
1011
0000
,  // measure 9
0100
0101
1100
0011
0010
0110
1001
1010
,  // measure 10
1000
1100
0110
0011
0001
0101
0110
1010
,  // measure 11
1000
0000
1010
0000
1010
0000
1010
0000
1010
0101
1010
0101
1010
0101
2012
0000
,  // measure 12
0000
0000
0000
0000
0000
0000
0000
3003
,  // measure 13
0111
1010
1010
0011
0100
1100
0110
0101
,  // measure 14
1000
0000
0011
0000
1000
0000
0010
0000
0100
0000
0001
0000
0010
0000
1001
0110
,  // measure 15
1001
1010
0011
0110
0010
1100
1010
0011
,  // measure 16
0100
0000
1010
0000
0001
0000
1000
0000
0010
0000
0100
0000
0011
1100
0011
1100
,  // measure 17
0011
0110
1100
1010
0110
0101
1001
1100
,  // measure 18
0110
0000
0011
0000
0101
0000
0110
0000
1010
0000
1100
0000
1000
0100
0010
0001
,  // measure 19
2100
0000
0000
0000
3000
1010
0101
0011
,  // measure 20
1000
0000
0001
0000
1000
0010
0200
0000
1000
0000
0010
0000
0001
0000
0310
1000
,  // measure 21
0111
0101
0011
0110
1100
1010
0101
1001
,  // measure 22
0110
0000
0011
0000
0101
0000
1100
0000
1010
0000
1001
0000
1001
0110
1001
0110
,  // measure 23
1001
0101
0011
0110
1100
1001
1010
0101
,  // measure 24
0010
0000
1100
0000
0100
1000
0011
0100
1000
0001
1000
0010
0101
1010
0101
1010
,  // measure 25
0101
0011
1001
1100
1010
0110
1001
0101
,  // measure 26
0011
0000
0110
0000
1100
0000
0110
0000
0001
0010
0100
0010
1000
0100
0010
0100
,  // measure 27
1002
0000
0000
0000
0003
1010
0110
0101
,  // measure 28
0010
0000
0100
0000
1000
0010
0100
0001
1000
0000
0010
0000
0001
0010
0100
1000
0001
0000
0010
0000
0100
0010
0001
1000
0011
0000
1100
0000
0011
0000
1100
0000
,  // measure 29
1011
0110
1100
1010
1000
1010
0101
1001
,  // measure 30
0010
0000
1001
0000
1001
0000
0100
0000
0011
0000
0001
0110
1000
0000
1010
0000
,  // measure 31
1100
0110
0101
0011
1000
1010
0101
1001
,  // measure 32
0010
0101
0110
1100
0010
1100
0110
1000
,  // measure 33
0011
0100
1001
0011
0100
0011
1010
1001
,  // measure 34
0100
1100
0101
0001
1010
0001
0110
1000
,  // measure 35
0101
0000
0101
0011
0000
0011
1010
0000
,  // measure 36
1010
1100
0000
1100
0110
0000
1001
0000
,  // measure 37
1101
0011
1001
1010
0001
0101
1100
0110
,  // measure 38
1000
0000
0011
0000
1010
0000
0001
0000
1100
0000
0010
0101
1000
0000
0011
0000
,  // measure 39
1010
1001
0011
1100
0001
0110
0101
1010
,  // measure 40
0001
1010
0110
0101
1000
0101
1010
0010
,  // measure 41
0110
1000
0110
0011
1000
0011
0110
0001
,  // measure 42
1010
1001
0010
0101
1010
0001
0110
1000
,  // measure 43
1001
0100
0001
0100
0011
1100
0011
1100
0011
1100
0011
1100
0011
1100
1011
0000
,  // measure 44
0000
0000
1101
0000
0111
0000
0000
0000
0100
0010
0001
1000
0010
0100
0001
0100
,  // measure 45
1011
0100
1000
0001
0110
1000
0101
0010
1000
0100
0011
0100
0010
0001
1010
0001
,  // measure 46
0010
0100
1001
0010
0100
0001
1010
0001
0100
1000
0011
1000
0101
0010
0100
0001
,  // measure 47
1100
0010
0001
1000
0011
1000
0101
0010
0001
1000
0110
0001
0010
0100
1010
0001
,  // measure 48
1000
0100
1001
0100
0010
0100
0011
1000
0001
0010
1100
0010
0101
1010
0101
1010
,  // measure 49
0101
1000
0010
0001
1010
0001
1100
0010
1000
0010
1001
0100
1000
0010
0101
0010
,  // measure 50
1000
0010
1100
0001
0010
0100
0011
0100
1000
0001
0110
0001
1100
0011
1100
0011
,  // measure 51
1100
0010
0101
0010
1100
0010
0101
0010
1001
0100
1010
0100
1001
0100
1010
0100
,  // measure 52
0011
1000
0101
1000
0011
1000
0101
1000
0110
0001
1010
0001
1010
0001
1010
0101
,  // measure 53
1011
0100
0010
1000
0011
0100
1001
0010
0100
0001
1100
0010
1000
0100
0011
1000
,  // measure 54
0010
0100
1010
0001
1000
0010
0101
0010
1100
0001
0110
1000
0011
0100
1010
0101
,  // measure 55
1010
0001
0010
1000
0101
0010
1100
0001
0100
0010
1001
0010
0001
0010
1100
0001
,  // measure 56
0100
1000
0011
1000
0100
0010
0101
1000
0011
0100
1010
0001
1100
0011
1100
0011
,  // measure 57
1100
0001
0010
1000
0101
0010
1100
0010
0001
1000
0110
0001
1000
0100
0012
1000
,  // measure 58
0010
0000
0000
0000
0100
0000
0000
0000
1000
0000
0000
0000
0100
0000
0000
0000
1000
0000
0000
0000
0010
0000
0000
0000
0100
0000
0000
0000
0010
0000
0000
0000
1000
0000
0000
0000
0010
0000
0000
0000
0100
0000
0000
0000
1000
0000
0000
0000
0010
0000
0000
0000
0100
0000
0000
0000
1000
0000
0000
0000
0100
0000
0000
0003
,  // measure 59
1011
0100
0011
1000
0110
0001
0110
1000
0111
1000
0101
0010
1001
0100
1001
0010
,  // measure 60
1101
0010
1100
0001
0110
1000
0110
0001
1110
0001
1010
0100
0011
1000
0011
0100
,  // measure 61
1011
1100
0011
1100
0011
1100
0011
1100
0011
1100
0011
1100
0011
1100
0011
1100
,  // measure 62
1011
1100
0011
1100
0011
1100
0011
1100
0011
1100
0011
1100
0011
1100
0011
1100
,  // measure 63
1011
0100
0010
0001
1100
0000
0011
0000
1100
0000
0011
0000
1100
0000
0011
0000
1011
0100
0010
0001
1100
0000
0011
0000
1100
0000
0011
0000
1100
0000
0011
0000
,  // measure 64
1000
0100
0010
0001
1000
0010
0100
0001
1000
0001
0100
0010
0001
0010
0100
1000
,  // measure 65
1111
0110
1100
1010
0101
0011
0110
1100
,  // measure 66
1010
0001
1100
0010
0101
1010
0101
1010
0101
0010
0100
0010
1001
0000
0010
0100
,  // measure 67
0011
0101
1010
0101
1100
0110
0011
1010
,  // measure 68
0011
1100
0011
1100
0110
1001
0110
1001
0110
1010
0110
0101
1001
0000
1101
0000
,  // measure 69
0010
0101
0110
0011
1000
1001
1010
1100
,  // measure 70
0010
0110
0101
0011
1000
0011
0101
1001
,  // measure 71
0010
0000
0100
0000
1000
0000
0101
0000
1010
0001
1100
0001
0110
1000
0202
0000
,  // measure 72
0000
0000
0000
0000
0000
0000
0000
0000
0000
0000
0000
0000
0000
0000
0000
0000
0000
0000
0000
0000
0000
0000
0000
0000
0000
0000
0000
0000
0000
0000
0000
0000
0000
0000
0000
0000
0000
0000
0000
0000
0000
0000
0000
0000
0000
0000
0000
0000
0000
0000
0000
0000
0000
0000
0000
0000
0000
0000
0000
0000
0000
0000
0000
0303
,  // measure 73
1111
1100
0011
1100
0011
1100
0011
1100
0011
1100
0011
1100
0011
1100
0011
1100
,  // measure 74
0011
1100
0011
1100
0011
1100
0011
1100
0011
1100
0011
1100
0011
1100
0011
1100
,  // measure 75
1111
0000
0000
0000
;
