#TITLE:Tranzport;
#SUBTITLE:;
#ARTIST:Arkitech;
#TITLETRANSLIT:;
#SUBTITLETRANSLIT:;
#ARTISTTRANSLIT:;
#GENRE:;
#CREDIT:;
#BANNER:Tranzport-bn.png;
#BACKGROUND:Tranzport-bg.png;
#LYRICSPATH:;
#CDTITLE:!cdtitle.png;
#MUSIC:Tranzport.mp3;
#OFFSET:-0.046000;
#SAMPLESTART:32.547001;
#SAMPLELENGTH:15.000000;
#SELECTABLE:YES;
#DISPLAYBPM:87.000000:175.000000;
#BPMS:0.000000=175.498993
,11.000000=175.511002
,12.000000=175.498993
,26.000000=175.511002
,27.000000=175.498993
,42.000000=175.511002
,43.000000=175.498993
,58.000000=175.511002
,59.000000=175.498993
,72.000000=175.511002
,73.000000=175.498993
,80.000000=175.511002
,81.000000=175.498993
,88.000000=175.511002
,89.000000=175.498993
,96.000000=175.511002
,97.000000=175.498993
,104.000000=175.511002
,105.000000=175.498993
,112.000000=175.511002
,113.000000=175.498993
,120.000000=175.511002
,121.000000=175.498993
,128.000000=175.511002
,129.000000=175.498993
,136.000000=175.511002
,137.000000=175.498993
,287.000000=92.009003
,288.000000=88.759003
,289.000000=95.364998
,290.000000=90.316002
,291.000000=93.116997
,292.000000=94.113998
,293.000000=95.132004
,294.000000=96.106003
,295.000000=97.168999
,296.000000=97.833000
,297.000000=99.529999
,298.000000=99.769997
,299.000000=101.184998
,300.000000=102.745003
,301.000000=103.000999
,302.000000=104.853996
,303.000000=106.887001
,304.000000=106.286003
,305.000000=109.000999
,306.000000=109.379997
,307.000000=111.199997
,308.000000=113.929001
,309.000000=113.304001
,310.000000=114.848999
,311.000000=117.731003
,313.000000=122.984001
,314.000000=119.431000
,315.000000=123.830009
,316.000000=125.819992
,317.000000=126.863998
,318.000000=128.960007
,319.000000=66.578003
,320.000000=68.498001
,321.000000=70.675003
,322.000000=75.225998
,323.000000=75.321999
,324.000000=78.616997
,325.000000=81.611000
,326.000000=87.168999
,327.000000=85.088997
,328.000000=84.445000
,329.000000=90.014999
,330.000000=84.101997
,331.000000=88.892998
,332.000000=91.389999
,333.000000=85.140999
,334.000000=89.625000
,335.000000=175.498993
;
#STOPS:
;
#BGCHANGES:;
#KEYSOUNDS:;
#ATTACKS:;

//---------------dance-single - 2014----------------
#NOTES:
     dance-single:
     :
     Hard:
     13:
     1.481854,2.648087,1.801952,0.057454,1.804564,1986.000000,1614.000000,345.000000,11.000000,114.000000,32.000000,1.481854,2.648087,1.801952,0.057454,1.804564,1986.000000,1614.000000,345.000000,11.000000,114.000000,32.000000:
// measure 0
1011
0000
0010
0100
0010
0000
1000
0010
1000
0010
1000
0000
0001
0100
0001
0100
,  // measure 1
0001
0000
0010
0100
0010
0000
1000
0001
1000
0001
1000
0000
0001
0100
0001
0100
,  // measure 2
0001
0000
0010
0001
0010
0000
1000
0010
1000
0010
1000
0000
0001
0100
0001
0100
,  // measure 3
1001
0200
0311
0002
1103
0020
1031
2000
,  // measure 4
3111
0000
0001
1000
0001
0000
0100
0001
0100
0001
0100
0000
1000
0010
1000
0010
,  // measure 5
1000
0000
0100
0010
0100
0000
0010
1000
0010
1000
0010
0000
0001
0100
0001
0100
,  // measure 6
0001
0000
0010
0100
0010
0000
1000
0100
1000
0100
1000
0000
0010
0100
0010
0100
,  // measure 7
0011
2000
3110
0002
1013
0200
1301
0020
,  // measure 8
1131
0000
0010
0100
1001
0000
0100
1000
0011
0100
0001
0000
0011
0100
1000
0010
,  // measure 9
1100
0000
0001
1000
0110
1000
0010
0100
1001
0000
0010
0100
0011
0100
0001
0010
,  // measure 10
1100
0000
0001
0010
0101
0000
1000
0100
1001
0010
0100
0000
0101
0010
1000
0010
,  // measure 11
1001
0000
0010
0100
0011
1000
0001
0100
1010
0000
0100
0010
1001
0100
0010
0100
,  // measure 12
1001
1001
0011
0011
0101
1010
0110
1001
,  // measure 13
1100
0000
0011
0000
1100
0000
0011
0000
1100
0000
0011
0000
1100
0000
0011
0000
1100
0000
0011
0000
1100
0000
0011
0000
1000
0100
0010
0001
1000
0100
0010
0001
,  // measure 14
2210
0000
0000
0000
,  // measure 15
3300
0000
0000
0000
,  // measure 16
0111
0000
0001
0100
0011
0000
0010
0100
1001
0010
0100
0010
1100
0001
0000
1000
,  // measure 17
0011
0100
0000
0010
1001
0100
0000
0010
0101
0010
0100
0001
1010
0000
1000
0001
,  // measure 18
1100
0000
0010
0100
0011
1000
0001
0000
1001
0100
0010
0100
0011
0000
0001
0100
,  // measure 19
1010
0001
0010
0100
1001
0000
0010
1000
0011
0100
0010
0100
1001
0000
MMMM
0000
,  // measure 20
1011
0000
0010
0100
1001
0000
0100
1000
0011
0100
0010
0100
1001
0000
0010
0100
,  // measure 21
0011
0100
0001
0010
1100
0000
0001
0100
1001
0100
1000
0010
1101
0000
0000
0000
,  // measure 22
1001
0000
0110
0000
1011
0000
0000
0000
0011
0000
0110
0000
1110
0001
1000
0100
,  // measure 23
1010
0100
0010
1000
0110
0000
0100
0001
1000
0000
1001
0000
1110
0000
1000
0000
,  // measure 24
1010
0010
0110
0100
0101
0001
0011
0010
,  // measure 25
0110
0000
0100
0000
1100
0000
1000
0000
1010
0100
0010
0100
0011
0000
0001
0000
,  // measure 26
0101
0100
0110
0010
0110
0100
1100
1000
,  // measure 27
1010
0000
0010
0000
0011
0000
0001
0000
0101
1000
0001
1100
0011
0000
0010
0000
,  // measure 28
0110
0100
1100
1000
1010
0010
1010
1000
,  // measure 29
1001
0000
0001
0000
0101
0000
0100
0000
1100
0001
1000
0010
1101
0010
0100
0010
,  // measure 30
0100
0010
0100
0010
0100
0010
0100
0010
0100
0010
0100
0010
0100
0010
0100
0010
,  // measure 31
0100
0010
0100
0010
0100
0010
0100
0010
0100
0010
0100
0010
1001
0000
0100
0010
,  // measure 32
0101
0000
0001
0000
0011
0000
0010
1000
0110
0000
1000
0000
1100
0000
0010
0100
,  // measure 33
1001
0000
0001
0000
0110
0000
1000
0010
0101
0000
0001
0000
0011
0000
0010
0100
,  // measure 34
1010
0000
1000
0000
0101
0000
0001
1000
0110
0000
0010
0000
1010
0000
1000
0100
,  // measure 35
0011
0000
0001
0000
0101
0000
0010
0100
1001
0000
0001
0110
1001
0000
0100
1000
,  // measure 36
0011
0000
0100
0000
0011
0000
0001
0100
1010
0000
0001
0000
0110
0000
0100
0010
,  // measure 37
0101
0000
0001
0000
1100
0000
0001
0100
1010
0000
1000
0000
1010
0000
0100
0010
,  // measure 38
1001
0000
0100
0000
0011
0000
0001
0100
1010
0000
0100
0000
0101
0000
0010
1000
,  // measure 39
0110
0000
1000
0000
0010
0010
0000
0010
0000
0010
0000
0010
1011
0000
0010
0100
,  // measure 40
1001
0000
0100
0000
0011
0000
0100
0010
1100
0000
0001
0000
1001
0000
0100
0010
,  // measure 41
0101
0000
0010
0000
0011
0000
0001
0010
1100
0000
0010
0000
0111
0000
0010
1000
,  // measure 42
0110
0000
1000
0000
0110
0000
1000
0100
0011
0000
0100
0000
0101
0000
0010
0100
,  // measure 43
0011
0000
0001
0000
1100
0000
0100
0010
1001
0000
0001
0000
1110
0001
0100
0010
,  // measure 44
1000
0100
1000
0010
0100
0010
1000
0001
0100
0010
0100
0001
0010
0100
0001
1000
,  // measure 45
0010
0000
0100
0000
0001
0000
0010
0000
0100
0000
0001
0000
0100
0000
1000
0000
0010
0000
0001
0000
1000
0000
0010
0000
1001
0000
0100
0000
0010
0100
1000
0001
,  // measure 46
0010
0000
0100
0000
0001
1000
0010
0100
1000
0000
0010
0000
0100
0000
0001
0000
1000
0000
0000
0000
0001
0100
0010
1000
0001
0000
0000
0000
0010
0000
1000
0000
,  // measure 47
0000
0100
0001
0000
1001
0000
0010
0000
1001
0000
0100
0000
1011
0100
0001
0100
,  // measure 48
1000
0010
1000
0001
0100
0001
1000
0010
1000
0100
0001
0100
1000
0010
1000
0001
,  // measure 49
0100
0001
0010
0100
0001
1000
0010
1000
0100
0001
0010
0100
0001
1000
0010
1000
,  // measure 50
0100
0001
0100
0001
0010
0100
0001
0100
1000
0010
1000
0001
0100
1000
0010
0100
,  // measure 51
0001
1000
0001
0100
0001
0010
0100
0001
0100
1000
0010
0001
1000
0010
1000
0001
,  // measure 52
0100
0010
1000
0100
0001
0010
0100
0001
1000
0100
0001
0010
1000
0100
0001
0010
,  // measure 53
0001
1000
0010
1000
0001
0100
0010
0001
0100
0010
1000
0010
1000
0100
0010
1000
,  // measure 54
0010
0100
0001
1000
0001
0100
0010
1000
0010
0001
0100
0010
1000
0001
0100
1000
,  // measure 55
0010
0100
0001
1000
0010
0001
0100
1000
0010
0100
0010
1000
0001
0010
1000
0100
,  // measure 56
0001
0010
1000
0001
1000
0100
0010
0001
0100
0010
1000
0001
0100
0001
0010
0100
,  // measure 57
0001
0100
1000
0010
1000
0001
0100
0010
1000
0100
0001
0010
0100
0001
0100
0010
,  // measure 58
1000
0010
1000
0001
0100
0001
0010
0100
0001
0010
1000
0100
0001
0010
1000
0100
,  // measure 59
1000
0010
1000
0001
0100
0010
0100
0001
0010
0100
0001
1000
0010
1000
0100
0010
,  // measure 60
1000
0100
1000
0001
0100
0010
1000
0010
0100
0001
0010
0100
0001
0100
1000
0010
,  // measure 61
0100
0010
0001
1000
0100
0010
1000
0001
0100
0010
0001
0100
0001
0010
1000
0010
,  // measure 62
1000
0001
0100
0010
1000
0001
0010
0100
0010
0001
1000
0010
0100
0001
0100
0001
,  // measure 63
0010
0100
0001
1000
0010
0100
1000
0010
1000
0001
0100
0010
1101
0000
1000
0000
,  // measure 64
1000
1000
1000
1000
1000
1000
1000
1000
,  // measure 65
1000
0000
1000
0000
1000
0000
1000
0000
1000
0000
1000
0100
0001
0000
0001
0000
,  // measure 66
0001
0001
0001
0001
0001
0001
0001
0001
,  // measure 67
0001
0000
0001
0000
0001
0000
0001
0010
0001
0000
0001
0100
0010
1000
0010
0100
,  // measure 68
0001
1000
0100
0010
1000
0010
0001
0100
0001
1000
0010
1000
0100
0001
0010
0100
,  // measure 69
0001
0000
0000
0000
0000
0000
0000
0000
0000
0000
0000
0000
1000
0000
0000
0000
0000
0000
0000
0000
0000
0000
0000
0000
0001
0000
0000
0000
0000
0000
0000
0000
0000
0000
0000
0000
0100
0000
0000
0000
0000
0000
0000
0000
0000
0000
0000
0000
0010
0000
0000
0000
0000
0000
0000
0000
0000
0000
0000
0000
1000
0000
0000
0000
0000
0000
0000
0000
0000
0000
0000
0000
0010
0000
0000
0000
0000
0000
0000
0000
0000
0000
0000
0000
0001
0000
0000
0000
0000
0000
0000
0000
0000
0000
0000
0000
1000
0000
0000
0000
0000
0000
0100
0000
0000
0000
0000
0000
0010
0000
0000
0000
0000
0000
1000
0000
0000
0000
0000
0000
0001
0000
0000
0000
0000
0000
0100
0000
0000
0000
0000
0000
0010
0000
0000
0000
0000
0000
1000
0000
0000
0000
0000
0000
0001
0000
0000
0000
0000
0000
0000
0000
0000
0000
0000
0000
0000
0000
0000
0000
0000
0000
0000
0000
0000
0000
0000
0000
0001
0000
0000
0000
0000
0000
0000
0000
0010
0000
0000
0000
0000
0000
0000
0000
0100
0000
0000
0000
0000
0000
0000
0000
,  // measure 70
0001
0100
1000
0010
0000
0100
0000
0010
0000
0000
0100
0000
0000
0000
0010
0000
0000
0000
0000
0000
0000
0000
0000
0000
,  // measure 71
0000
0000
0000
0000
0000
0000
0000
0000
0000
0000
0000
0000
0111
1000
0010
1001
,  // measure 72
0100
0000
0010
0000
1100
0000
0001
0000
0100
0000
0011
0000
1000
0000
0100
0000
1010
0000
0110
0000
0101
1000
0010
0000
1001
0000
0100
0000
0010
0000
0100
0000
,  // measure 73
1001
0010
0100
0010
0101
1000
0001
1000
0110
1000
0011
0100
1001
0010
0100
0011
,  // measure 74
0100
0000
0010
0000
1100
0000
0001
0000
0010
0000
1001
0000
0100
0000
0010
0000
1100
0000
0001
0000
0010
0100
0010
0000
0011
0000
0001
0000
0100
0000
0010
0000
,  // measure 75
1100
0001
1000
0010
1100
0001
1000
0100
0011
1000
0010
0100
1001
0010
0100
1001
,  // measure 76
0100
0000
1000
0000
0101
0000
0010
0000
0100
0000
0011
0000
0001
0000
0100
0000
1010
0000
0001
0000
0100
1000
0010
0000
1001
0000
0010
0000
0100
0000
0010
0000
,  // measure 77
1100
0001
0010
0100
0011
0100
0001
1000
0110
0001
1000
0010
1001
0010
1000
0011
,  // measure 78
0100
0000
0010
0000
1100
0000
0001
0000
0100
0000
1010
0000
0001
0000
0100
0000
0011
0000
1000
0000
0001
1000
0001
0000
0101
0000
0010
0000
1000
0000
0100
0000
,  // measure 79
1010
0000
0001
0000
0100
0000
0010
0000
1001
0000
0100
0000
0010
0000
1000
0000
0011
0000
0100
0000
1000
0000
0010
0000
1101
0010
0001
1000
0100
0001
0010
1000
,  // measure 80
0100
0001
0010
0100
1000
0010
0100
0001
0100
1000
0001
0100
0010
0001
1000
0010
1000
0001
0100
0010
1000
0100
0001
0010
0100
0001
1000
0001
0100
0010
1000
0100
,  // measure 81
0001
0010
0100
0001
1000
0100
1000
0010
0100
0001
0100
1000
0010
0100
0001
0100
1000
0001
0010
0100
1000
0001
0100
0010
1100
0001
1000
0011
1000
0001
1100
0001
,  // measure 82
0110
1000
0001
0110
0001
1000
0110
0001
1100
0010
0001
1100
0001
0010
1100
0001
1010
0100
0010
1001
0100
0010
0101
0010
1001
0000
0000
0000
1010
0000
0000
0000
,  // measure 83
0110
0000
0000
0000
0000
0000
0000
0000
0011
0000
0000
0000
0000
0000
0000
0000
0101
0000
0000
0000
1010
0000
0000
0000
0101
0000
0000
0000
1010
0000
0000
0000
0201
0000
0000
0000
0000
0000
0000
0000
0000
0000
0000
0000
0000
0000
0000
0300
1111
0000
0000
0000
0000
0000
0000
0000
0000
0000
0000
0000
0000
0000
0000
0000
,  // measure 84
MMM0
M00M
M00M
MMM0
0000
0MM0
0MM0
0MM0
0MM0
0000
MMMM
MM00
MMM0
MM00
0000
MMMM
,  // measure 85
MM00
00MM
MM00
0000
MMMM
0000
0000
0000
0MM0
0000
M00M
0000
MMMM
0000
M00M
0000
0000
0000
MMMM
0000
0MM0
0000
0MM0
0000
0MM0
0000
0000
0000
M00M
0000
M00M
0000
,  // measure 86
MMMM
0000
M00M
0000
0000
0000
MMMM
0000
MM00
00M0
MM00
0000
MMMM
0000
0000
0000
0000
0000
MMMM
0000
M00M
0000
MMM0
0000
M00M
0000
0000
0000
0MM0
0000
0MM0
0000
,  // measure 87
0000
0MM0
0000
0MM0
0MM0
0000
0MM0
0000
0000
0000
0000
0000
1010
0000
0010
0000
,  // measure 88
0110
0000
0100
0000
0101
0000
0001
0000
1001
0100
0010
0001
0100
0010
0001
1000
,  // measure 89
0010
1000
0100
0001
0010
0001
1000
0100
1000
0010
0001
0100
1011
0000
0001
1000
,  // measure 90
0101
0000
0010
0000
1001
0000
0100
0010
0101
0000
0010
0000
0011
0000
0001
0100
,  // measure 91
1010
0000
1000
0000
1100
0000
0100
1000
0011
0000
0100
0000
1001
0000
0010
0100
,  // measure 92
1001
0000
0100
0000
0011
0000
1000
0010
0101
0000
0001
0000
1001
0000
0010
0100
,  // measure 93
1010
0000
0001
0000
0101
0000
0010
0100
1001
0000
0100
1010
0101
0000
0001
0010
,  // measure 94
1100
0000
0010
0000
1001
0000
1000
0100
1010
0000
0100
0000
0110
0000
0100
0010
,  // measure 95
0101
0000
0001
0000
0011
0000
0010
0100
1001
0000
0010
0000
0101
0000
0001
0100
,  // measure 96
1010
0000
0001
0000
1010
0000
0100
0010
1001
0000
0010
0000
1100
0000
0001
1000
,  // measure 97
0101
0000
0010
0000
0100
0100
0000
0100
0000
0100
0000
0100
1101
0010
0100
0010
,  // measure 98
1001
0100
1000
0000
0011
0100
0001
0100
0011
0100
1000
0000
1100
0010
0100
0010
,  // measure 99
1100
0010
0100
0000
1001
0010
0100
1000
0011
0100
1000
0000
0101
0010
1000
0100
,  // measure 100
0011
1000
0100
0000
1010
0001
0100
0010
1100
0001
0100
0000
1001
0100
0010
1000
,  // measure 101
0110
0001
1000
0000
1100
0010
0100
1000
0011
0100
0010
1001
0110
1000
0010
0100
,  // measure 102
1001
0100
0010
0000
0101
0010
0100
1000
0011
0100
0010
0000
1001
0010
0100
0001
,  // measure 103
1100
0010
0100
0000
0110
1000
0010
0100
0011
1000
0010
0000
0101
0010
1000
0100
,  // measure 104
1010
0001
0100
0000
1001
0100
0010
1000
0011
0100
0010
0000
0101
0010
0100
0010
,  // measure 105
1001
0000
0100
0000
0010
0000
0000
0000
1001
0000
0100
0000
0010
0000
1000
0000
0101
0000
0010
0000
1000
0000
0001
0000
0010
0100
0010
0100
0010
0000
0000
0000
,  // measure 106
1011
0100
1001
0100
0011
1000
0110
1000
,  // measure 107
1010
0100
0101
0001
0011
0100
0110
1000
,  // measure 108
0111
0001
1100
0010
1100
1000
1001
0010
,  // measure 109
0101
0010
0110
1000
1010
0001
0101
0010
,  // measure 110
1110
0001
0100
0010
1000
0010
1000
0100
0010
1000
0010
0100
0001
0010
0100
0001
,  // measure 111
0100
1000
0010
0100
0001
1000
0010
1000
0001
0100
0010
1000
0100
0010
1000
0010
,  // measure 112
1100
0000
0001
0000
0010
1000
0100
0010
0001
0000
1000
0000
0010
0001
0100
0010
1000
0000
0001
0000
0010
0000
0001
0000
0100
0000
0010
0000
1000
0010
0001
1000
,  // measure 113
0110
0000
0010
0100
0000
0100
0010
0000
1001
0000
0000
0000
0010
0000
0000
0000
,  // measure 114
1101
0010
0100
0000
1001
0000
0100
0010
0000
0010
0100
0000
0011
0000
0001
0100
,  // measure 115
0010
1000
0100
0000
1010
0000
0100
1000
0000
0100
1000
0000
1010
0000
1000
0100
,  // measure 116
0010
1000
0001
0000
0101
0000
0001
0010
0000
0100
0010
0000
0101
0000
0010
0100
,  // measure 117
1000
0010
0100
0000
0011
0000
0100
0010
0000
1000
0001
0000
1100
0000
0010
1100
,  // measure 118
0011
0100
0010
0000
1001
0000
0100
0010
0000
0100
0010
0000
0101
0000
0001
1000
,  // measure 119
0010
0100
0010
0000
1001
0000
0100
0001
0000
1000
0010
0000
1001
0000
0100
1000
,  // measure 120
0010
0100
0001
0000
0011
0000
0100
0001
0000
0010
0100
0000
1010
0000
0001
0100
,  // measure 121
0000
0010
0100
0000
1001
0000
0100
1000
0000
0010
0100
0000
0011
0000
0100
0010
,  // measure 122
1101
0010
0100
0000
1001
0000
0100
0001
0000
0010
1000
0000
1010
0000
0001
1000
,  // measure 123
0000
1000
0001
0000
0101
0000
1000
0010
0000
0100
0010
0000
0110
0000
0100
0001
,  // measure 124
0000
0001
1000
0000
1010
0000
0010
1000
0001
0100
0010
0000
0101
0000
0001
0010
,  // measure 125
0000
1000
0010
0000
1001
0000
0100
1000
0010
0100
0010
0000
0101
0000
1000
0110
,  // measure 126
1001
0010
0100
0000
0011
0000
0100
0010
0000
1000
0010
0000
1010
0000
0100
0010
,  // measure 127
0000
0001
0100
0000
0011
0000
0100
0001
0000
0010
0100
0000
0110
0000
1000
0001
,  // measure 128
1000
0010
1000
0100
0001
0010
0100
0001
0010
0100
1000
0010
1000
0001
0100
0010
,  // measure 129
1100
0010
0100
0000
1001
0000
0100
0010
0000
0100
0010
0000
1000
0010
0000
1000
,  // measure 130
M000
0000
0000
0000
;
