#TITLE:The Great Fiasco from Top to Bottom;
#SUBTITLE:Hanjuku Hero - Aa, Sekai yo Hanjuku Nare...!! (1992);
#ARTIST:Koichi Sugiyama;
#TITLETRANSLIT:;
#SUBTITLETRANSLIT:;
#ARTISTTRANSLIT:;
#GENRE:;
#CREDIT:;
#BANNER:;
#BACKGROUND:;
#LYRICSPATH:;
#CDTITLE:!cdtitle.png;
#MUSIC:The Great Fiasco from Top to Bottom.ogg;
#OFFSET:-0.222000;
#SAMPLESTART:5.941000;
#SAMPLELENGTH:15.000000;
#SELECTABLE:YES;
#BPMS:0.000000=162.610001
;
#STOPS:
;
#BGCHANGES:;
#KEYSOUNDS:;
#ATTACKS:;

//---------------dance-single - 2016----------------
#NOTES:
     dance-single:
     :
     Hard:
     14:
     1.571259,1.939880,0.576514,0.018016,2.531258,1221.000000,1119.000000,64.000000,2.000000,0.000000,38.000000,1.571259,1.939880,0.576514,0.018016,2.531258,1221.000000,1119.000000,64.000000,2.000000,0.000000,38.000000:
// measure 0
0001
0100
0010
0100
0001
0100
0010
0100
,  // measure 1
0001
0100
0010
0100
0001
0000
1011
0000
,  // measure 2
1101
0100
0010
0100
0001
0100
0010
0100
,  // measure 3
0001
0000
0100
0000
0010
0000
0100
0000
0001
0000
0100
0000
0010
0000
0010
0100
,  // measure 4
0010
0000
0010
0100
0010
0000
0001
0000
0010
0000
0010
0100
0010
0000
0001
0000
,  // measure 5
0010
0000
0010
0100
0010
0000
0001
0000
0010
0100
1000
0100
0010
0100
1000
0100
,  // measure 6
0010
0000
0000
0000
0001
0000
0000
0000
0001
1000
0001
1000
0001
1000
0001
1000
0001
1000
0001
1000
0001
1000
0001
1000
0001
1000
0001
1000
0001
1000
0001
1000
,  // measure 7
0001
0000
0000
0000
0000
0000
1000
0000
0000
0000
0000
0000
0001
0000
0000
0000
0000
0000
1000
0000
0000
0000
0000
0000
0001
0000
0000
0000
0000
0000
1000
0000
0000
0000
0000
0000
0001
0000
0000
0000
0000
0000
1000
0000
0000
0000
0000
0000
0001
0000
0000
0000
0000
0000
1000
0000
0000
0000
0000
0000
0001
0000
0000
0000
0000
0000
1000
0000
0000
0000
0000
0000
0001
0000
0000
0000
0000
0000
1000
0000
0000
0000
0000
0000
0001
0000
0000
0000
0000
0000
1000
0000
0000
0000
0000
0000
0011
0000
0000
0000
0000
0000
0000
0000
0000
0000
0000
0000
0000
0000
0000
0000
0000
0000
0000
0000
0000
0000
0000
0000
0000
0000
0000
0000
0000
0000
0000
0000
0000
0000
0000
0000
0000
0000
0000
0000
0000
0000
0000
0000
0000
0000
0000
0000
0001
0000
0000
0000
0010
0000
0000
0000
0100
0000
0000
0000
1000
0000
0000
0001
0000
0000
0000
0000
0010
0000
0000
0000
0100
0000
0000
1000
0000
0000
0000
0000
0001
0000
0000
0000
0010
0000
0000
0100
0000
0000
0000
0000
1000
0000
0000
0000
,  // measure 8
0101
0000
0001
0010
0001
0000
0010
0000
0101
0000
0001
0010
0001
0000
0010
0000
,  // measure 9
0101
0000
0001
0010
0001
0000
0010
0000
0101
0000
0010
0000
1000
0100
0010
0001
,  // measure 10
1110
0000
0010
0001
1110
0000
0001
0000
0010
0000
0001
0000
1110
0010
0001
0000
,  // measure 11
0111
0111
0010
0001
0010
0000
0001
0000
1101
1101
0010
0000
0100
0100
0010
0000
,  // measure 12
1001
0100
0010
0100
0001
0100
0010
0100
,  // measure 13
0001
0000
0100
0000
0010
0000
0100
0000
0001
0000
0100
0000
1000
0100
0010
0001
,  // measure 14
1000
0000
1000
0100
1000
0000
1000
0100
1000
0000
1000
0100
1000
0000
1000
0100
,  // measure 15
1000
0000
0000
0000
1000
0000
0100
0000
1000
0000
0100
0000
0010
0000
0001
0000
1000
0001
1000
0001
1000
0001
1000
0001
0010
0000
0000
0000
0100
0000
0000
0000
,  // measure 16
1000
0001
1000
0001
1000
0001
1000
0001
1000
0001
1000
0001
1000
0001
1000
0001
1000
0001
1000
0001
1000
0001
1000
0001
1000
0001
1000
0001
1000
0001
1000
0001
,  // measure 17
1000
0001
1000
0001
1000
0001
1000
0001
1000
0001
1000
0001
1000
0001
1000
0001
1000
0000
0000
0000
0000
0000
0000
0000
0001
0000
0010
0000
0100
0000
1000
0000
,  // measure 18
0011
0000
0001
0010
0001
0000
0100
0000
0011
0000
0001
0010
0001
0000
0100
0000
,  // measure 19
0011
0000
0001
0010
0001
0000
0100
0000
0011
0000
0001
0000
1000
0100
0010
0001
,  // measure 20
0010
0000
0100
0010
1101
0000
0010
0000
0100
0000
0010
0000
1101
0100
0010
0000
,  // measure 21
1011
0000
0000
0000
0000
0000
0000
0000
0000
0000
0000
0000
0000
0000
0000
0000
0000
0000
0000
0000
0000
0000
0000
0000
0100
0000
0000
0000
0000
0000
0000
0000
0000
0000
0000
0000
0010
0000
0000
0000
0000
0000
0000
0000
0000
0000
0000
0000
1101
0000
0000
0000
0000
0000
0000
0000
0000
0000
0000
0000
0000
0000
0000
0000
0000
0000
0000
0000
0000
0000
0000
0000
0010
0000
0000
0000
0000
0000
0000
0000
0000
0000
0000
0000
0000
0000
0000
0000
0000
0000
0000
0000
0000
0000
0000
0000
0100
0000
0000
0000
0000
0000
0000
0000
0000
0000
0000
0000
0000
0000
0000
0000
0000
0000
0000
0000
0000
0000
0000
0000
0000
0000
0000
0000
0000
0000
0000
0000
0000
0000
0000
0000
0000
0000
0000
0000
0000
0000
0000
0000
0000
0000
0000
0000
0001
0000
0000
0000
0010
0000
0000
0000
0100
0000
0000
0000
1000
0000
0000
0000
0001
0000
0000
0000
0010
0000
0000
0000
0100
0000
0000
1000
0000
0000
0001
0000
0000
0010
0000
0000
0100
0000
0000
1000
0000
0000
0001
0000
0000
0010
0000
0000
,  // measure 22
1101
0000
0100
0010
1101
0000
0100
0010
0100
0000
0100
0010
1101
0000
0100
0010
,  // measure 23
1011
0000
0000
0000
0000
0000
0000
0000
0000
0000
0000
0000
0000
0000
0000
0000
0000
0000
0000
0000
0000
0000
0000
0000
0010
0000
0000
0000
0000
0000
0000
0000
0000
0000
0000
0000
0100
0000
0000
0000
0000
0000
0000
0000
0000
0000
0000
0000
1011
0000
0000
0000
0000
0000
0000
0000
0000
0000
0000
0000
0000
0000
0000
0000
0000
0000
0000
0000
0000
0000
0000
0000
0010
0000
0000
0000
0000
0000
0000
0000
0000
0000
0000
0000
0100
0000
0000
0000
0000
0000
0000
0000
0000
0000
0000
0000
0010
0000
0000
0000
0000
0000
0000
0000
0000
0000
0000
0000
0000
0000
0000
0000
0000
0000
0000
0000
0000
0000
0000
0000
0010
0000
0000
0000
0000
0000
0000
0000
0000
0000
0000
0000
0100
0000
0000
0000
0000
0000
0000
0000
0000
0000
0000
0000
1000
0000
0000
0000
0100
0000
0000
0000
0010
0000
0000
0000
0001
0000
0000
0000
1000
0000
0000
0000
0100
0000
0000
0000
0010
0000
0000
0001
0000
0000
1000
0000
0000
0100
0000
0000
0010
0000
0000
0001
0000
0000
1000
0000
0000
0100
0000
0000
,  // measure 24
0001
1000
0001
1000
0001
1000
0001
1000
0011
0000
0000
0000
0100
0000
0000
0000
1000
0001
1000
0001
1000
0001
1000
0001
1000
0001
1000
0001
1000
0001
1000
0001
,  // measure 25
1000
0001
1000
0001
1000
0001
1000
0001
1000
0000
0000
0000
0100
0000
0000
0000
0010
0100
0010
0100
0001
0000
0000
0000
0010
0000
0000
0000
0100
0000
0000
0000
,  // measure 26
1000
0001
1000
0001
1000
0001
1000
0001
1000
0000
0000
0000
0100
0000
0000
0000
0010
0100
0010
0100
0010
0100
0010
0100
0010
0100
0010
0100
0010
0100
0010
0100
,  // measure 27
0010
0100
0010
0100
0010
0100
0010
0000
0100
0000
0000
0000
0010
0000
0000
0000
0010
0000
0100
0000
0010
0000
0000
0000
0001
1000
0001
1000
0010
0000
0000
0000
,  // measure 28
0100
0010
0100
0010
0100
0000
0000
0000
1000
0000
0000
0000
0100
0000
0000
0000
0010
0001
0010
0001
0010
0001
0010
0001
0010
0001
0010
0001
0010
0001
0010
0001
,  // measure 29
0010
0000
0000
0000
0000
0000
0000
0000
0010
0001
0010
0001
0010
0001
0010
0001
0100
0010
0100
0010
0100
0010
0100
0010
1000
0100
1000
0100
1000
0100
1000
0100
,  // measure 30
0010
0001
0010
0001
0100
0000
0000
0000
1000
0000
0000
0000
0100
0000
0000
0000
0010
0001
0010
0001
0010
0001
0010
0001
0010
0001
0010
0001
0010
0001
0010
0001
,  // measure 31
0010
0000
0000
0000
0000
0000
0000
0000
1000
0100
1000
0100
1000
0100
1000
0100
0010
0100
0010
0100
0010
0100
0010
0100
0001
0010
0001
0010
0001
0010
0001
0010
,  // measure 32
0101
0010
0100
1000
0001
0010
0100
1000
0101
0010
0100
1000
0001
0010
0100
1000
,  // measure 33
0010
0000
0001
0001
0010
0000
0001
0000
0000
0000
0001
0000
0010
0000
0001
0000
,  // measure 34
0100
0000
0010
0010
0100
0000
0010
0000
0000
0000
0010
0000
0001
0000
0010
0000
,  // measure 35
0001
0100
0010
0100
0001
0100
0010
0100
,  // measure 36
0001
0100
0010
0100
0001
0000
1011
0000
,  // measure 37
1101
0100
0010
0100
0001
0100
0010
0100
,  // measure 38
0001
0000
0100
0000
0010
0000
0100
0000
0001
0000
0100
0000
0010
0000
0010
0100
,  // measure 39
0010
0000
0010
0100
0010
0000
0001
0000
0010
0000
0010
0100
0010
0000
0001
0000
,  // measure 40
0010
0000
0010
0100
0010
0000
0001
0000
0010
0100
1000
0100
0010
0100
1000
0100
,  // measure 41
0010
0000
0000
0000
0001
0000
0000
0000
0001
1000
0001
1000
0001
1000
0001
1000
0001
1000
0001
1000
0001
1000
0001
1000
0001
1000
0001
1000
0001
1000
0001
1000
,  // measure 42
0001
0000
0000
0000
0000
0000
1000
0000
0000
0000
0000
0000
0001
0000
0000
0000
0000
0000
1000
0000
0000
0000
0000
0000
0001
0000
0000
0000
0000
0000
1000
0000
0000
0000
0000
0000
0001
0000
0000
0000
0000
0000
1000
0000
0000
0000
0000
0000
0001
0000
0000
0000
0000
0000
1000
0000
0000
0000
0000
0000
0001
0000
0000
0000
0000
0000
1000
0000
0000
0000
0000
0000
0001
0000
0000
0000
0000
0000
1000
0000
0000
0000
0000
0000
0001
0000
0000
0000
0000
0000
1000
0000
0000
0000
0000
0000
0011
0000
0000
0000
0000
0000
0000
0000
0000
0000
0000
0000
0000
0000
0000
0000
0000
0000
0000
0000
0000
0000
0000
0000
0000
0000
0000
0000
0000
0000
0000
0000
0000
0000
0000
0000
0000
0000
0000
0000
0000
0000
0000
0000
0000
0000
0000
0000
0001
0000
0000
0000
0010
0000
0000
0000
0100
0000
0000
0000
1000
0000
0000
0001
0000
0000
0000
0000
0010
0000
0000
0000
0100
0000
0000
1000
0000
0000
0000
0000
0001
0000
0000
0000
0010
0000
0000
0100
0000
0000
0000
0000
1000
0000
0000
0000
,  // measure 43
0101
0000
0001
0010
0001
0000
0010
0000
0101
0000
0001
0010
0001
0000
0010
0000
,  // measure 44
0101
0000
0001
0010
0001
0000
0010
0000
0101
0000
0010
0000
1000
0100
0010
0001
,  // measure 45
1110
0000
0010
0001
1110
0000
0001
0000
0010
0000
0001
0000
1110
0010
0001
0000
,  // measure 46
0111
0111
0010
0001
0010
0000
0001
0000
1101
1101
0010
0000
0100
0100
0010
0000
,  // measure 47
1001
0100
0010
0100
0001
0100
0010
0100
,  // measure 48
0001
0000
0100
0000
0010
0000
0100
0000
0001
0000
0100
0000
1000
0100
0010
0001
,  // measure 49
1000
0000
1000
0100
1000
0000
1000
0100
1000
0000
1000
0100
1000
0000
1000
0100
,  // measure 50
1000
0000
0000
0000
1000
0000
0100
0000
1000
0000
0100
0000
0010
0000
0001
0000
1000
0001
1000
0001
1000
0001
1000
0001
0010
0000
0000
0000
0100
0000
0000
0000
,  // measure 51
1000
0001
1000
0001
1000
0001
1000
0001
1000
0001
1000
0001
1000
0001
1000
0001
1000
0001
1000
0001
1000
0001
1000
0001
1000
0001
1000
0001
1000
0001
1000
0001
,  // measure 52
1000
0001
1000
0001
1000
0001
1000
0001
1000
0001
1000
0001
1000
0001
1000
0001
1000
0000
0000
0000
0000
0000
0000
0000
0001
0000
0010
0000
0100
0000
1000
0000
,  // measure 53
0011
0000
0001
0010
0001
0000
0100
0000
0011
0000
0001
0010
0001
0000
0100
0000
,  // measure 54
0011
0000
0001
0010
0001
0000
0100
0000
0011
0000
0001
0000
1000
0100
0010
0001
,  // measure 55
0010
0000
0100
0010
1101
0000
0010
0000
0100
0000
0010
0000
1101
0100
0010
0000
,  // measure 56
1011
0000
0000
0000
0000
0000
0000
0000
0000
0000
0000
0000
0000
0000
0000
0000
0000
0000
0000
0000
0000
0000
0000
0000
0100
0000
0000
0000
0000
0000
0000
0000
0000
0000
0000
0000
0010
0000
0000
0000
0000
0000
0000
0000
0000
0000
0000
0000
1101
0000
0000
0000
0000
0000
0000
0000
0000
0000
0000
0000
0000
0000
0000
0000
0000
0000
0000
0000
0000
0000
0000
0000
0010
0000
0000
0000
0000
0000
0000
0000
0000
0000
0000
0000
0000
0000
0000
0000
0000
0000
0000
0000
0000
0000
0000
0000
0100
0000
0000
0000
0000
0000
0000
0000
0000
0000
0000
0000
0000
0000
0000
0000
0000
0000
0000
0000
0000
0000
0000
0000
0000
0000
0000
0000
0000
0000
0000
0000
0000
0000
0000
0000
0000
0000
0000
0000
0000
0000
0000
0000
0000
0000
0000
0000
0001
0000
0000
0000
0010
0000
0000
0000
0100
0000
0000
0000
1000
0000
0000
0000
0001
0000
0000
0000
0010
0000
0000
0000
0100
0000
0000
1000
0000
0000
0001
0000
0000
0010
0000
0000
0100
0000
0000
1000
0000
0000
0001
0000
0000
0010
0000
0000
,  // measure 57
1101
0000
0100
0010
1101
0000
0100
0010
0100
0000
0100
0010
1101
0000
0100
0010
,  // measure 58
1011
0000
0000
0000
0000
0000
0000
0000
0000
0000
0000
0000
0000
0000
0000
0000
0000
0000
0000
0000
0000
0000
0000
0000
0010
0000
0000
0000
0000
0000
0000
0000
0000
0000
0000
0000
0100
0000
0000
0000
0000
0000
0000
0000
0000
0000
0000
0000
1011
0000
0000
0000
0000
0000
0000
0000
0000
0000
0000
0000
0000
0000
0000
0000
0000
0000
0000
0000
0000
0000
0000
0000
0010
0000
0000
0000
0000
0000
0000
0000
0000
0000
0000
0000
0100
0000
0000
0000
0000
0000
0000
0000
0000
0000
0000
0000
0010
0000
0000
0000
0000
0000
0000
0000
0000
0000
0000
0000
0000
0000
0000
0000
0000
0000
0000
0000
0000
0000
0000
0000
0010
0000
0000
0000
0000
0000
0000
0000
0000
0000
0000
0000
0100
0000
0000
0000
0000
0000
0000
0000
0000
0000
0000
0000
1000
0000
0000
0000
0100
0000
0000
0000
0010
0000
0000
0000
0001
0000
0000
0000
1000
0000
0000
0000
0100
0000
0000
0000
0010
0000
0000
0001
0000
0000
1000
0000
0000
0100
0000
0000
0010
0000
0000
0001
0000
0000
1000
0000
0000
0100
0000
0000
,  // measure 59
0001
1000
0001
1000
0001
1000
0001
1000
0011
0000
0000
0000
0100
0000
0000
0000
1000
0001
1000
0001
1000
0001
1000
0001
1000
0001
1000
0001
1000
0001
1000
0001
,  // measure 60
1000
0001
1000
0001
1000
0001
1000
0001
1000
0000
0000
0000
0100
0000
0000
0000
0010
0100
0010
0100
0001
0000
0000
0000
0010
0000
0000
0000
0100
0000
0000
0000
,  // measure 61
1000
0001
1000
0001
1000
0001
1000
0001
1000
0000
0000
0000
0100
0000
0000
0000
0010
0100
0010
0100
0010
0100
0010
0100
0010
0100
0010
0100
0010
0100
0010
0100
,  // measure 62
0010
0100
0010
0100
0010
0100
0010
0000
0100
0000
0000
0000
0010
0000
0000
0000
0010
0000
0100
0000
0010
0000
0000
0000
0001
1000
0001
1000
0010
0000
0000
0000
,  // measure 63
0100
0010
0100
0010
0100
0000
0000
0000
1000
0000
0000
0000
0100
0000
0000
0000
0010
0001
0010
0001
0010
0001
0010
0001
0010
0001
0010
0001
0010
0001
0010
0001
,  // measure 64
0010
0000
0000
0000
0000
0000
0000
0000
0010
0001
0010
0001
0010
0001
0010
0001
0100
0010
0100
0010
0100
0010
0100
0010
1000
0100
1000
0100
1000
0100
1000
0100
,  // measure 65
0010
0001
0010
0001
0100
0000
0000
0000
1000
0000
0000
0000
0100
0000
0000
0000
0010
0001
0010
0001
0010
0001
0010
0001
0010
0001
0010
0001
0010
0001
0010
0001
,  // measure 66
0010
0000
0000
0000
0000
0000
0000
0000
1000
0100
1000
0100
1000
0100
1000
0100
0010
0100
0010
0100
0010
0100
0010
0100
0001
0010
0001
0010
0001
0010
0001
0010
,  // measure 67
0101
0010
0100
1000
0001
0010
0100
1000
0101
0010
0100
1000
0001
0010
0100
1000
,  // measure 68
0010
0000
0001
0001
0010
0000
0001
0000
0000
0000
0001
0000
0010
0000
0001
0000
,  // measure 69
0100
0000
0010
0010
0100
0000
0010
0000
0000
0000
0010
0000
0001
0000
0010
0000
,  // measure 70
0001
0100
0010
0100
0001
0100
0010
0100
,  // measure 71
0001
0100
0010
0100
0001
0000
1011
0000
,  // measure 72
2102
0000
0000
0000
,  // measure 73
3003
0000
0000
0000
;
