#TITLE:Megalomania;
#SUBTITLE:Live-A-Live (1994);
#ARTIST:Yoko Shimomura;
#TITLETRANSLIT:;
#SUBTITLETRANSLIT:;
#ARTISTTRANSLIT:;
#GENRE:;
#CREDIT:;
#BANNER:lolidk-bn.png;
#BACKGROUND:lolidk-bg.png;
#LYRICSPATH:;
#CDTITLE:!cdtitle.png;
#MUSIC:Megalomania.ogg;
#OFFSET:-0.000667;
#SAMPLESTART:57.049999;
#SAMPLELENGTH:15.000000;
#SELECTABLE:YES;
#BPMS:0.000000=132.841003
,1.000000=137.667007
,2.000000=135.804001
,3.000000=134.636002
,4.000000=133.395004
,5.000000=136.843002
,6.000000=136.634995
,7.000000=134.128006
,8.000000=133.326996
,9.000000=135.427002
,10.000000=134.623001
,11.000000=135.643997
,12.000000=132.865997
,13.000000=135.453003
,14.000000=134.654999
,15.000000=133.649002
,16.000000=132.779999
,17.000000=137.233994
,18.000000=136.511993
,19.000000=134.673996
,20.000000=133.524994
,21.000000=136.764999
,22.000000=136.563995
,23.000000=134.322006
,24.000000=133.222000
,25.000000=135.638000
,26.000000=134.416000
,27.000000=135.427002
,28.000000=133.130005
,29.000000=136.143997
,30.000000=133.320999
,31.000000=132.731003
,32.000000=134.410004
,33.000000=134.404007
,34.000000=134.410004
,35.000000=134.404007
,36.000000=134.410004
,37.000000=134.404007
,38.000000=134.410004
,39.000000=134.404007
,40.000000=134.410004
,41.000000=134.404007
,42.000000=134.410004
,43.000000=134.404007
,44.000000=134.410004
,45.000000=134.404007
,46.000000=134.410004
,47.000000=134.404007
,48.000000=134.410004
,49.000000=134.404007
,50.000000=134.410004
,51.000000=134.404007
,52.000000=134.410004
,53.000000=134.404007
,54.000000=134.410004
,55.000000=134.404007
,56.000000=134.410004
,57.000000=134.404007
,58.000000=134.410004
,59.000000=134.404007
,60.000000=134.410004
,61.000000=134.404007
,62.000000=134.410004
,63.000000=134.404007
,64.000000=134.824997
,96.000000=134.447998
,97.000000=134.440994
,98.000000=134.447998
,99.000000=134.440994
,100.000000=134.447998
,101.000000=134.440994
,102.000000=134.447998
,103.000000=134.440994
,104.000000=134.278000
,112.000000=134.378006
,113.000000=134.371994
,128.000000=134.153000
,144.000000=133.977997
,160.000000=133.283997
,161.000000=136.720001
,162.000000=136.824005
,163.000000=134.371994
,164.000000=133.580994
,165.000000=136.824005
,166.000000=136.511993
,167.000000=134.272003
,168.000000=133.184998
,169.000000=135.587006
,170.000000=134.572998
,171.000000=135.587006
,172.000000=132.841003
,173.000000=135.638000
,174.000000=134.421997
,175.000000=133.623993
,176.000000=134.748993
,192.000000=134.416000
,193.000000=134.410004
,196.000000=134.416000
,197.000000=134.410004
,200.000000=134.416000
,201.000000=134.410004
,208.000000=134.416000
,209.000000=134.410004
,216.000000=134.416000
,217.000000=134.410004
,224.000000=134.888000
,240.000000=135.274994
,248.000000=134.227997
,249.000000=134.222000
,252.000000=134.227997
,253.000000=134.222000
,256.000000=134.246994
,257.000000=134.240997
,258.000000=134.246994
,259.000000=134.240997
,260.000000=134.246994
,261.000000=134.240997
,262.000000=134.246994
,263.000000=134.240997
,264.000000=134.246994
,265.000000=134.240997
,266.000000=134.246994
,267.000000=134.240997
,268.000000=134.246994
,269.000000=134.240997
,272.000000=134.246994
,273.000000=134.240997
,274.000000=134.246994
,275.000000=134.240997
,276.000000=134.246994
,277.000000=134.240997
,278.000000=134.246994
,279.000000=134.240997
,280.000000=134.246994
,281.000000=134.240997
,282.000000=134.246994
,283.000000=134.240997
,284.000000=134.246994
,285.000000=134.240997
,288.000000=134.246994
,289.000000=134.240997
,290.000000=134.246994
,291.000000=134.240997
,292.000000=134.246994
,293.000000=134.240997
,294.000000=134.246994
,295.000000=134.240997
,296.000000=134.246994
,297.000000=134.240997
,298.000000=134.246994
,299.000000=134.240997
,300.000000=134.246994
,301.000000=134.240997
,304.000000=134.246994
,305.000000=134.240997
,306.000000=134.246994
,307.000000=134.240997
,308.000000=134.246994
,309.000000=134.240997
,312.000000=134.246994
,313.000000=134.240997
,314.000000=134.246994
,315.000000=134.240997
,316.000000=134.246994
,317.000000=134.240997
;
#STOPS:
;
#BGCHANGES:;
#KEYSOUNDS:;
#ATTACKS:;

//---------------dance-single - 2015 v1, modded 2016----------------
#NOTES:
     dance-single:
     :
     Medium:
     14:
     1.512653,1.458262,3.780680,0.360065,1.713642,1588.000000,1021.000000,567.000000,54.000000,0.000000,40.000000,1.512653,1.458262,3.780680,0.360065,1.713642,1588.000000,1021.000000,567.000000,54.000000,0.000000,40.000000:
// measure 0
0011
0100
1001
0100
0010
0101
0000
1001
0000
0100
0010
0000
1000
0010
1100
0011
,  // measure 1
1100
0000
0010
0000
0101
0000
1000
0000
0010
0000
1100
0000
0000
0000
0110
0000
0000
0000
0100
0000
0010
0000
0000
0000
0001
0000
0100
0000
1010
0000
0101
0010
,  // measure 2
1001
0010
1100
0010
0101
0000
0011
1000
0110
0000
0100
1001
0000
0000
0000
1001
,  // measure 3
0010
0000
1100
0000
1100
0000
0010
0000
0101
0000
0010
0000
1001
0000
0100
0000
1010
0000
0000
0000
0100
0000
1010
0000
0001
0000
0010
0000
1100
0000
0001
1000
,  // measure 4
0110
1000
0011
0100
0010
1001
0000
0101
0000
0100
0010
0000
1000
0100
0011
1100
,  // measure 5
1001
0000
0100
0000
0011
0000
0100
0000
1000
0000
0110
0000
0000
0000
1001
0000
0000
0000
0010
0000
0001
0000
0000
0000
0010
0000
0100
0000
0011
0000
1100
0010
,  // measure 6
0101
1000
0011
0100
1010
0000
0110
0000
0101
0000
0100
0011
0000
0000
0000
1100
,  // measure 7
0000
0000
1100
0000
1100
0000
0001
0000
0110
0000
0000
0000
0011
0000
0000
0000
1001
0000
0010
0000
1100
0000
0011
0000
1100
0000
0011
0000
1100
0000
0011
0100
,  // measure 8
1001
0010
1100
0001
0110
0000
0101
0000
1001
0000
0000
0011
0000
0000
0000
2002
,  // measure 9
0000
0000
3113
0000
0110
0000
1000
0000
0101
0000
0000
0000
0011
0000
0000
0000
0201
0000
0000
0000
0000
0000
1302
0000
0000
0000
0000
0000
1013
0000
0101
1000
,  // measure 10
0011
0100
1001
0010
1100
0000
0110
0000
1010
0000
0000
1001
0000
0011
1010
0110
,  // measure 11
1000
0000
0101
0000
1010
0000
0001
0000
1100
0000
0000
0000
0011
0000
0000
0000
2010
0000
0000
0000
0000
0000
3102
0000
0000
0000
0000
0000
1103
0000
0011
0100
,  // measure 12
1001
0010
1100
0001
0110
0000
1010
0100
1001
0010
0000
0110
0000
0000
0000
2020
,  // measure 13
0000
0000
3131
0000
0101
0000
1000
0000
0011
0000
0000
0000
0110
0000
1000
0000
0021
0000
0000
0000
0000
0000
0230
0000
0000
0000
0000
0000
0311
0000
0110
0001
,  // measure 14
1100
0010
1001
0010
0101
0000
0011
0000
0110
0000
0000
1100
0000
1010
0110
0101
,  // measure 15
0011
0100
0011
0100
0011
0011
0100
0011
0100
0011
1100
0011
1100
0011
1100
0011
,  // measure 16
1100
0010
1001
0010
0100
1010
0000
1001
0000
0010
0100
0000
0001
0100
0011
1100
,  // measure 17
0011
0000
0100
0000
1010
0000
0001
0000
0100
0000
0011
0000
0000
0000
0110
0000
0000
0000
0010
0000
0100
0000
0000
0000
1000
0000
0010
0000
0101
0000
1010
0100
,  // measure 18
1001
0100
0011
0100
1010
0000
1100
0001
0110
0000
1000
0011
0000
0000
0000
1001
,  // measure 19
0100
0000
0011
0000
0011
0000
0100
0000
1010
0000
0100
0000
1001
0000
0010
0000
0101
0000
0000
0000
0010
0000
0101
0000
1000
0000
0100
0000
0011
0000
1000
0001
,  // measure 20
0110
0001
1100
0010
0100
1001
0000
1010
0000
0010
0100
0000
0001
0010
1100
0011
,  // measure 21
1001
0000
0010
0000
1100
0000
0010
0000
0001
0000
0110
0000
0000
0000
1001
0000
0000
0000
0100
0000
1000
0000
0000
0000
0100
0000
0010
0000
1100
0000
0011
0100
,  // measure 22
1010
0001
1100
0010
0101
0000
0110
0000
1010
0000
0010
1100
0000
0000
0000
0011
,  // measure 23
0000
0000
0011
0000
0011
0000
1000
0000
0110
0000
0000
0000
1100
0000
0000
0000
1001
0000
0100
0000
0011
0000
1100
0000
0011
0000
1100
0000
0011
0000
1100
0010
,  // measure 24
1001
0100
0011
1000
0110
0000
1010
0000
1001
0000
0000
1100
0000
0000
0000
2002
,  // measure 25
0000
0000
3113
0000
0110
0000
0001
0000
1010
0000
0000
0000
1100
0000
0000
0000
1020
0000
0000
0000
0000
0000
2031
0000
0000
0000
0000
0000
3101
0000
1010
0001
,  // measure 26
1100
0010
1001
0100
0011
0000
0110
0000
0101
0000
0000
1001
0000
1100
0101
0110
,  // measure 27
0001
0000
1010
0000
0101
0000
1000
0000
0011
0000
0000
0000
1100
0000
0000
0000
0102
0000
0000
0000
0000
0000
2013
0000
0000
0000
0000
0000
3011
0000
1100
0010
,  // measure 28
1001
0100
0011
1000
0110
0000
0101
0010
1001
0100
0000
0110
0000
0000
0000
0202
,  // measure 29
0000
0000
1313
0000
1010
0000
0001
0000
1100
0000
0000
0000
0110
0000
0001
0000
1200
0000
0000
0000
0000
0000
0320
0000
0000
0000
0000
0000
1130
0000
0110
1000
,  // measure 30
0011
0100
1001
0100
1010
0000
1100
0000
0110
0000
0000
0011
0000
0101
0110
1010
,  // measure 31
1100
0010
1100
0010
1100
1100
0010
1100
0010
1100
0011
1100
0011
1100
0011
1100
,  // measure 32
0011
0100
1001
0100
0011
1000
0110
0001
1100
0010
1000
0101
0010
0100
1000
0011
,  // measure 33
0000
0000
0110
0000
1001
0000
0010
0000
1001
0000
0100
0000
0011
0000
1000
0000
0011
0000
0100
0000
0010
0000
1100
0000
0001
0000
0100
0000
1010
0000
0001
1000
,  // measure 34
0110
0001
1000
0100
1000
0000
0010
1000
0010
0100
0001
0010
1000
0001
1000
0010
,  // measure 35
0001
0000
1000
0000
0100
0000
0001
0000
0210
0000
0001
0000
0010
0000
1000
0000
0312
0000
0100
0000
1000
0000
0100
0000
2013
0000
0001
0000
0100
0000
0001
0010
,  // measure 36
3101
0010
1001
0010
1100
0001
0110
1000
0101
0010
1000
0110
0001
0010
0001
1010
,  // measure 37
0100
0000
1001
0000
1001
0000
0010
0000
0101
0000
1000
0000
0011
0000
0100
0000
1010
0000
0001
0000
0010
0000
0101
0000
1000
0000
0001
0000
0110
0000
1000
0010
,  // measure 38
1001
0100
0010
0001
1000
0000
1000
0010
0001
0100
0001
0010
0100
0001
1000
0010
,  // measure 39
1000
0000
0100
0000
0001
0000
0100
0000
0001
0000
0010
0000
1000
0000
0001
0000
0110
0000
0001
0000
1010
0000
0001
1000
0110
0000
1001
0000
0010
0000
0100
1000
,  // measure 40
0011
0100
1001
0100
0010
0101
0000
1001
0000
0100
0010
0000
1000
0010
1100
0011
,  // measure 41
1100
0000
0010
0000
0101
0000
1000
0000
0010
0000
1100
0000
0000
0000
0110
0000
0000
0000
0100
0000
0010
0000
0000
0000
0001
0000
0100
0000
1010
0000
0101
0010
,  // measure 42
1001
0010
1100
0010
0101
0000
0011
1000
0110
0000
0100
1001
0000
0000
0000
1001
,  // measure 43
0010
0000
1100
0000
1100
0000
0010
0000
0101
0000
0010
0000
1001
0000
0100
0000
1010
0000
0000
0000
0100
0000
1010
0000
0001
0000
0010
0000
1100
0000
0001
1000
,  // measure 44
0110
1000
0011
0100
0010
1001
0000
0101
0000
0100
0010
0000
1000
0100
0011
1100
,  // measure 45
1001
0000
0100
0000
0011
0000
0100
0000
1000
0000
0110
0000
0000
0000
1001
0000
0000
0000
0010
0000
0001
0000
0000
0000
0010
0000
0100
0000
0011
0000
1100
0010
,  // measure 46
0101
1000
0011
0100
1010
0000
0110
0000
0101
0000
0100
0011
0000
0000
0000
1100
,  // measure 47
0011
0100
0011
0100
0011
0011
0000
1100
0000
1100
0011
1100
0011
1100
0011
1100
,  // measure 48
1001
0010
1100
0001
0110
0000
0101
0000
1001
0000
0000
0011
0000
0000
0000
2002
,  // measure 49
0000
0000
3113
0000
0110
0000
1000
0000
0101
0000
0000
0000
0011
0000
0000
0000
0201
0000
0000
0000
0000
0000
1302
0000
0000
0000
0000
0000
1013
0000
0101
1000
,  // measure 50
0011
0100
1001
0010
1100
0000
0110
0000
1010
0000
0000
1001
0000
0011
1010
0110
,  // measure 51
1000
0000
0101
0000
1010
0000
0001
0000
1100
0000
0000
0000
0011
0000
0000
0000
2010
0000
0000
0000
0000
0000
3102
0000
0000
0000
0000
0000
1103
0000
0011
0100
,  // measure 52
1001
0010
1100
0001
0110
0000
1010
0100
1001
0010
0000
0110
0000
0000
0000
2020
,  // measure 53
0000
0000
3131
0000
0101
0000
1000
0000
0011
0000
0000
0000
0110
0000
1000
0000
0021
0000
0000
0000
0000
0000
0230
0000
0000
0000
0000
0000
0311
0000
0110
0001
,  // measure 54
1100
0010
1001
0010
0101
0000
0011
0000
0110
0000
0000
1100
0000
1010
0110
0101
,  // measure 55
1000
0101
1010
0000
1001
0000
0110
0000
0201
0000
0000
1320
0000
0000
1032
0000
,  // measure 56
1103
0010
1001
0010
0100
1010
0000
1001
0000
0010
0100
0000
0001
0100
0011
1100
,  // measure 57
0011
0000
0100
0000
1010
0000
0001
0000
0100
0000
0011
0000
0000
0000
0110
0000
0000
0000
0010
0000
0100
0000
0000
0000
1000
0000
0010
0000
0101
0000
1010
0100
,  // measure 58
1001
0100
0011
0100
1010
0000
1100
0001
0110
0000
1000
0011
0000
0000
0000
1001
,  // measure 59
0100
0000
0011
0000
0011
0000
0100
0000
1010
0000
0100
0000
1001
0000
0010
0000
0101
0000
0000
0000
0010
0000
0101
0000
1000
0000
0100
0000
0011
0000
1000
0001
,  // measure 60
0110
0001
1100
0010
0100
1001
0000
1010
0000
0010
0100
0000
0001
0010
1100
0011
,  // measure 61
1001
0000
0010
0000
1100
0000
0010
0000
0001
0000
0110
0000
0000
0000
1001
0000
0000
0000
0100
0000
1000
0000
0000
0000
0100
0000
0010
0000
1100
0000
0011
0100
,  // measure 62
1010
0001
1100
0010
0101
0000
0110
0000
1010
0000
0010
1100
0000
0000
0000
0011
,  // measure 63
1100
0010
1100
0001
1100
1100
0000
0110
0000
0011
1100
0011
1100
0011
1100
0011
,  // measure 64
1001
0100
0011
1000
0110
0000
1010
0000
1001
0000
0000
1100
0000
0000
0000
2002
,  // measure 65
0000
0000
3113
0000
0110
0000
0001
0000
1010
0000
0000
0000
1100
0000
0000
0000
1020
0000
0000
0000
0000
0000
2031
0000
0000
0000
0000
0000
3101
0000
1010
0001
,  // measure 66
1100
0010
1001
0100
0011
0000
0110
0000
0101
0000
0000
1001
0000
1100
0101
0110
,  // measure 67
0001
0000
1010
0000
0101
0000
1000
0000
0011
0000
0000
0000
1100
0000
0000
0000
0102
0000
0000
0000
0000
0000
2013
0000
0000
0000
0000
0000
3011
0000
1100
0010
,  // measure 68
1001
0100
0011
1000
0110
0000
0101
0010
1001
0100
0000
0110
0000
0000
0000
0202
,  // measure 69
0000
0000
1313
0000
1010
0000
0001
0000
1100
0000
0000
0000
0110
0000
0001
0000
1200
0000
0000
0000
0000
0000
0320
0000
0000
0000
0000
0000
1130
0000
0110
1000
,  // measure 70
0011
0100
1001
0100
1010
0000
1100
0000
0110
0000
0000
0011
0000
0101
0110
1010
,  // measure 71
0001
1010
0101
0000
0011
0000
0110
0000
2100
0000
0000
3012
0000
0000
0213
0000
,  // measure 72
0311
0100
1001
0100
0011
1000
0110
0001
1100
0010
1000
0101
0010
0100
1000
0011
,  // measure 73
0000
0000
0110
0000
1001
0000
0010
0000
1001
0000
0100
0000
0011
0000
1000
0000
0011
0000
0100
0000
0010
0000
1100
0000
0001
0000
0100
0000
1010
0000
0001
1000
,  // measure 74
0110
0001
1000
0100
1000
0000
0010
1000
0010
0100
0001
0010
1000
0001
1000
0010
,  // measure 75
0001
0000
1000
0000
0100
0000
0001
0000
0210
0000
0001
0000
0010
0000
1000
0000
0312
0000
0100
0000
1000
0000
0100
0000
2013
0000
0001
0000
0100
0000
0001
0010
,  // measure 76
3101
0010
1001
0010
1100
0001
0110
1000
0101
0010
1000
0110
0001
0010
0001
1010
,  // measure 77
0100
0000
1001
0000
1001
0000
0010
0000
0101
0000
1000
0000
0011
0000
0100
0000
1010
0000
0001
0000
0010
0000
0101
0000
1000
0000
0001
0000
0110
0000
1000
0010
,  // measure 78
1001
0100
0010
0001
1000
0000
1000
0010
0001
0100
0001
0010
0100
0001
1000
0010
,  // measure 79
0101
0010
1100
0001
1010
0101
0000
1001
0000
1100
0011
1100
0011
1100
0011
1100
,  // measure 80
0022
0000
0000
0000
,  // measure 81
0033
0000
0000
0000
;

//---------------dance-single - 2015 v2, modded 2016----------------
#NOTES:
     dance-single:
     :
     Hard:
     14:
     1.462168,1.431257,3.947377,0.693458,1.600288,1535.000000,935.000000,592.000000,104.000000,0.000000,85.000000,1.462168,1.431257,3.947377,0.693458,1.600288,1535.000000,935.000000,592.000000,104.000000,0.000000,85.000000:
// measure 0
0011
0001
0101
0001
1000
0101
0000
1020
0000
0000
0000
0030
0000
1100
0110
0101
,  // measure 1
1010
0000
1000
0000
1001
0000
1000
0000
0010
0000
0101
0000
0000
0000
2010
0000
0000
0000
0000
0000
3000
0000
0000
0000
0000
0000
0011
0000
0101
0000
1001
0010
,  // measure 2
1100
0100
0101
0100
0011
0000
0101
0000
0120
0000
0000
1130
0000
0000
0000
2002
,  // measure 3
0000
0000
3113
0000
0110
0000
0010
0000
0011
0000
0000
0000
1010
0000
0000
0000
1100
0000
0000
0000
0000
0000
1001
0000
0000
0000
0000
0000
0101
0000
0100
1000
,  // measure 4
0011
0010
1010
0010
0100
0110
0000
0102
0000
0000
0000
0003
0000
1100
1001
0101
,  // measure 5
0110
0000
0010
0000
0011
0000
0010
0000
0100
0000
1001
0000
0000
0000
0120
0000
0000
0000
0000
0000
0000
0000
0030
0000
0000
0000
0110
0000
0011
0000
1100
0010
,  // measure 6
1001
0001
0101
0001
1100
0000
1010
0000
0012
0000
0000
1013
0000
0000
0000
0220
,  // measure 7
0000
0000
1331
0000
1001
0000
1000
0000
1010
0000
0000
0000
0110
0000
0000
0000
0110
0000
0010
0000
1010
0000
1000
0000
1001
0000
0001
0000
0101
0000
0100
0010
,  // measure 8
0101
0100
1100
0100
0110
0000
1100
0000
0110
0000
0000
0101
0000
0000
0000
2021
,  // measure 9
0000
0000
3131
0000
0101
0000
0001
0000
1001
0000
0000
0000
1010
0000
0000
0000
1200
0000
0000
0000
0000
0000
2310
0000
0000
0000
0000
0000
3012
0000
1010
0100
,  // measure 10
1013
0010
0110
0010
0101
0000
1100
0000
2001
0000
0000
3101
0000
0101
0011
1010
,  // measure 11
1001
0000
1010
0000
1010
0000
0010
0000
0110
0000
0000
0000
0101
0000
0000
0000
1001
0000
0000
0000
1000
0000
0101
0000
0000
0000
0000
0000
0011
0000
1000
0100
,  // measure 12
1001
0001
0011
0001
0101
0000
0110
0000
1001
0000
0000
0110
0000
0000
0000
1202
,  // measure 13
0000
0000
1313
0000
1010
0000
0010
0000
0011
0000
0000
0000
0101
0000
0000
0000
1002
0000
0000
0000
0000
0000
1203
0000
0000
0000
0000
0000
1320
0000
0101
1000
,  // measure 14
0131
0100
1100
0100
0101
0000
0011
0000
0210
0000
0000
1310
0000
1010
1001
0011
,  // measure 15
0101
0100
0101
0100
0101
0101
0000
0101
0000
0101
0110
0110
1010
1010
1001
1001
,  // measure 16
1100
0100
0110
0010
0001
0011
0000
2001
0000
0000
3000
0000
0000
1010
0110
0011
,  // measure 17
1100
0000
1000
0000
1010
0000
0010
0000
0100
0000
0011
0000
0000
0000
1002
0000
0000
0000
0000
0000
0003
0000
0000
0000
0000
0000
0101
0000
1010
0000
1001
0100
,  // measure 18
0011
0001
0101
0001
1001
0000
1100
0000
0210
0000
0000
0311
0000
0000
0000
2020
,  // measure 19
0000
0000
3131
0000
0101
0000
0001
0000
0011
0000
0000
0000
1010
0000
0000
0000
1100
0000
0000
0000
0000
0000
0101
0000
0000
0000
0000
0000
1010
0000
0001
1000
,  // measure 20
0110
0010
0011
0010
0100
1001
0000
0120
0000
0000
0030
0000
0000
1010
0011
0101
,  // measure 21
1100
0000
1000
0000
1010
0000
1000
0000
0001
0000
0011
0000
0000
0000
2010
0000
0000
0000
0000
0000
3000
0000
0000
0000
0000
0000
1100
0000
1001
0000
0101
1000
,  // measure 22
0110
0100
1100
0100
0011
0000
1010
0000
0210
0000
0000
1301
0000
0000
0000
0022
,  // measure 23
0000
0000
1133
0000
1100
0000
1000
0000
1010
0000
0000
0000
1001
0000
0000
0000
0101
0000
0010
0000
1100
0000
0110
0000
0011
0000
0101
0000
1001
0000
1010
0001
,  // measure 24
1100
1000
1001
1000
1010
0000
0011
0000
0101
0000
0000
1001
0000
0000
0000
2210
,  // measure 25
0000
0000
3311
0000
0011
0000
0010
0000
1010
0000
0000
0000
0110
0000
0000
0000
0102
0000
0000
0000
0000
0000
0123
0000
0000
0000
0000
0000
2130
0000
0110
0001
,  // measure 26
3110
0010
0011
0010
1010
0000
1001
0000
0012
0000
0000
0113
0000
0110
0011
1010
,  // measure 27
1001
0000
1001
0000
1100
0000
0100
0000
0101
0000
0000
0000
0011
0000
0000
0000
1010
0000
0000
0000
0000
0000
1001
0000
0000
0000
0000
0000
0101
0000
0010
0100
,  // measure 28
1001
0001
0101
0001
0011
0000
1010
0000
1100
0000
0000
0101
0000
0000
0000
0122
,  // measure 29
0000
0000
1133
0000
1100
0000
1000
0000
1010
0000
0000
0000
0110
0000
0000
0000
0201
0000
0000
0000
0000
0000
2301
0000
0000
0000
0000
0000
3012
0000
1010
0100
,  // measure 30
1013
1010
0011
0001
1001
0000
1100
0000
0012
0000
0000
1013
0000
0110
0101
1100
,  // measure 31
1010
0010
0011
0010
1010
1010
1000
1001
0000
1001
0101
0101
0011
0011
0110
1100
,  // measure 32
1010
0100
1001
0010
1100
0001
0110
1000
0011
1000
0100
1001
0010
0100
0010
0201
,  // measure 33
0000
0000
0311
0000
0011
0000
1000
0000
0110
0000
0001
0000
1010
0000
0100
0000
1001
0000
0010
0000
0100
0000
0011
0000
1000
0000
0100
0000
1010
0000
0100
0010
,  // measure 34
1002
0100
0010
0100
1000
0000
0010
0100
0010
1000
0100
1000
0100
0010
1000
0010
,  // measure 35
1003
0000
0100
0000
0010
0000
0100
0000
1020
0000
0100
0000
0001
0000
1000
0000
0231
0000
1000
0000
0010
0000
0001
0000
2310
0000
0100
0000
0010
0000
0001
0010
,  // measure 36
3101
0010
1001
0100
0011
1000
0110
0001
1010
0001
0100
1001
0100
0010
1000
0120
,  // measure 37
0000
0000
1031
0000
1001
0000
0100
0000
1010
0000
0100
0000
0011
0000
1000
0000
0101
0000
0010
0000
0100
0000
1001
0000
0010
0000
0001
0000
1100
0000
0100
0001
,  // measure 38
2010
0100
0010
0100
0001
0000
0010
0001
0100
0010
0100
0001
0010
0100
0010
0001
,  // measure 39
3100
0000
0001
0000
1000
0000
0010
0000
0001
0000
1000
0000
0100
0000
0010
0000
1001
0000
0010
0000
1100
0000
0010
0100
1001
0000
1001
0000
0100
0000
0011
0100
,  // measure 40
0011
0001
0101
0001
1000
0101
0000
1020
0000
0000
0000
0030
0000
1100
0110
0101
,  // measure 41
1010
0000
1000
0000
1001
0000
1000
0000
0010
0000
0101
0000
0000
0000
2010
0000
0000
0000
0000
0000
3000
0000
0000
0000
0000
0000
0011
0000
0101
0000
1001
0010
,  // measure 42
1100
0100
0101
0100
0011
0000
0101
0000
0120
0000
0000
1130
0000
0000
0000
2002
,  // measure 43
0000
0000
3113
0000
0110
0000
0010
0000
0011
0000
0000
0000
1010
0000
0000
0000
1100
0000
0000
0000
0000
0000
1001
0000
0000
0000
0000
0000
0101
0000
0100
1000
,  // measure 44
0011
0010
1010
0010
0100
0110
0000
0102
0000
0000
0000
0003
0000
1100
1001
0101
,  // measure 45
0110
0000
0010
0000
0011
0000
0010
0000
0100
0000
1001
0000
0000
0000
0120
0000
0000
0000
0000
0000
0000
0000
0030
0000
0000
0000
0110
0000
0011
0000
1100
0010
,  // measure 46
1001
0001
0101
0001
1100
0000
1010
0000
0012
0000
0000
1013
0000
0000
0000
0220
,  // measure 47
1001
0331
0101
0100
1100
1100
0000
1010
0000
0110
0011
0011
1001
1001
1010
1010
,  // measure 48
0101
0100
1100
0100
0110
0000
1100
0000
0110
0000
0000
0101
0000
0000
0000
2021
,  // measure 49
0000
0000
3131
0000
0101
0000
0001
0000
1001
0000
0000
0000
1010
0000
0000
0000
1200
0000
0000
0000
0000
0000
2310
0000
0000
0000
0000
0000
3012
0000
1010
0100
,  // measure 50
1013
0010
0110
0010
0101
0000
1100
0000
2001
0000
0000
3101
0000
0101
0011
1010
,  // measure 51
1001
0000
1010
0000
1010
0000
0010
0000
0110
0000
0000
0000
0101
0000
0000
0000
1001
0000
0000
0000
1000
0000
0101
0000
0000
0000
0000
0000
0011
0000
1000
0100
,  // measure 52
1001
0001
0011
0001
0101
0000
0110
0000
1001
0000
0000
0110
0000
0000
0000
1202
,  // measure 53
0000
0000
1313
0000
1010
0000
0010
0000
0011
0000
0000
0000
0101
0000
0000
0000
1002
0000
0000
0000
0000
0000
1203
0000
0000
0000
0000
0000
1320
0000
0101
1000
,  // measure 54
0131
0100
1100
0100
0101
0000
0011
0000
0210
0000
0000
1310
0000
1010
1001
0011
,  // measure 55
0000
0000
0011
0000
0011
0000
0010
0000
1010
0000
0000
0000
1001
0000
0000
0000
0101
0000
0010
0000
1100
0000
0001
0000
1010
0000
0101
0000
1000
0000
0101
0010
,  // measure 56
1100
0100
0110
0010
0001
0011
0000
2001
0000
0000
3000
0000
0000
1010
0110
0011
,  // measure 57
1100
0000
1000
0000
1010
0000
0010
0000
0100
0000
0011
0000
0000
0000
1002
0000
0000
0000
0000
0000
0003
0000
0000
0000
0000
0000
0101
0000
1010
0000
1001
0100
,  // measure 58
0011
0001
0101
0001
1001
0000
1100
0000
0210
0000
0000
0311
0000
0000
0000
2020
,  // measure 59
0000
0000
3131
0000
0101
0000
0001
0000
0011
0000
0000
0000
1010
0000
0000
0000
1100
0000
0000
0000
0000
0000
0101
0000
0000
0000
0000
0000
1010
0000
0001
1000
,  // measure 60
0110
0010
0011
0010
0100
1001
0000
0120
0000
0000
0030
0000
0000
1010
0011
0101
,  // measure 61
1100
0000
1000
0000
1010
0000
1000
0000
0001
0000
0011
0000
0000
0000
2010
0000
0000
0000
0000
0000
3000
0000
0000
0000
0000
0000
1100
0000
1001
0000
0101
1000
,  // measure 62
0110
0100
1100
0100
0011
0000
1010
0000
0210
0000
0000
1301
0000
0000
0000
0022
,  // measure 63
1100
0133
0101
0100
0101
1100
0000
1001
0000
1001
0101
0101
0011
0011
0110
0110
,  // measure 64
1100
1000
1001
1000
1010
0000
0011
0000
0101
0000
0000
1001
0000
0000
0000
2210
,  // measure 65
0000
0000
3311
0000
0011
0000
0010
0000
1010
0000
0000
0000
0110
0000
0000
0000
0102
0000
0000
0000
0000
0000
0123
0000
0000
0000
0000
0000
2130
0000
0110
0001
,  // measure 66
3110
0010
0011
0010
1010
0000
1001
0000
0012
0000
0000
0113
0000
0110
0011
1010
,  // measure 67
1001
0000
1001
0000
1100
0000
0100
0000
0101
0000
0000
0000
0011
0000
0000
0000
1010
0000
0000
0000
0000
0000
1001
0000
0000
0000
0000
0000
0101
0000
0010
0100
,  // measure 68
1001
0001
0101
0001
0011
0000
1010
0000
1100
0000
0000
0101
0000
0000
0000
0122
,  // measure 69
0000
0000
1133
0000
1100
0000
1000
0000
1010
0000
0000
0000
0110
0000
0000
0000
0201
0000
0000
0000
0000
0000
2301
0000
0000
0000
0000
0000
3012
0000
1010
0100
,  // measure 70
1013
1010
0011
0001
1001
0000
1100
0000
0012
0000
0000
1013
0000
0110
0101
1100
,  // measure 71
1000
0000
1010
0000
1010
0000
1000
0000
1001
0000
0000
0000
0101
0000
0000
0000
0011
0000
0100
0000
1001
0000
1010
0000
1100
0000
0011
0000
1000
0000
0110
0001
,  // measure 72
1010
0100
1001
0010
1100
0001
0110
1000
0011
1000
0100
1001
0010
0100
0010
0201
,  // measure 73
0000
0000
0311
0000
0011
0000
1000
0000
0110
0000
0001
0000
1010
0000
0100
0000
1001
0000
0010
0000
0100
0000
0011
0000
1000
0000
0100
0000
1010
0000
0100
0010
,  // measure 74
1002
0100
0010
0100
1000
0000
0010
0100
0010
1000
0100
1000
0100
0010
1000
0010
,  // measure 75
1003
0000
0100
0000
0010
0000
0100
0000
1020
0000
0100
0000
0001
0000
1000
0000
0231
0000
1000
0000
0010
0000
0001
0000
2310
0000
0100
0000
0010
0000
0001
0010
,  // measure 76
3101
0010
1001
0100
0011
1000
0110
0001
1010
0001
0100
1001
0100
0010
1000
0120
,  // measure 77
0000
0000
1031
0000
1001
0000
0100
0000
1010
0000
0100
0000
0011
0000
1000
0000
0101
0000
0010
0000
0100
0000
1001
0000
0010
0000
0001
0000
1100
0000
0100
0001
,  // measure 78
2010
0100
0010
0100
0001
0000
0010
0001
0100
0010
0100
0001
0010
0100
0010
0001
,  // measure 79
3110
0010
1010
0010
0011
0011
0000
1100
0000
1100
1001
1001
0101
0101
1010
1010
,  // measure 80
0022
0000
0000
0000
,  // measure 81
0033
0000
0000
0000
;

//---------------dance-single - 2016 vFINAL, also a dump----------------
#NOTES:
     dance-single:
     :
     Challenge:
     1337:
     2.549983,2.403432,4.287438,0.120022,4.547485,2677.000000,1918.000000,643.000000,18.000000,92.000000,122.000000,2.549983,2.403432,4.287438,0.120022,4.547485,2677.000000,1918.000000,643.000000,18.000000,92.000000,122.000000:
// measure 0
1001
0000
0000
0000
0000
0000
0000
0000
0000
0000
0000
0000
1001
0000
0000
0000
0000
0000
0000
0000
0000
0000
0000
0000
1011
0000
0000
0000
0000
0000
0100
0000
0000
0000
0000
0000
0001
0000
0000
0000
0000
0000
0100
0000
0000
0000
0000
0000
1010
0000
0000
0000
0000
0000
0000
0000
0000
0000
0000
0000
1101
0000
0000
0000
0000
0000
0010
0000
0000
0000
0000
0000
1000
0000
0000
0000
0000
0000
0010
0000
0000
0000
0000
0000
0100
0000
0000
0000
0001
0000
0000
0000
0010
0000
0000
0000
1000
0000
0000
0000
0100
0000
0000
0000
0001
0000
0000
0000
0010
0000
0000
0000
1000
0000
0000
0000
0100
0000
0000
0000
0001
0000
0000
0000
0010
0000
0000
0000
1000
0000
0000
0000
0000
0000
0000
0000
0000
0000
0000
0000
0000
0000
0000
0000
0000
0000
0000
0000
0000
0000
0000
0000
0000
0000
0000
0000
1010
0000
0000
0000
0000
0000
0000
0000
0000
0000
0000
0000
0011
0000
0000
0000
0000
0000
0000
0000
0000
0000
0000
0000
0110
0000
0000
0000
0000
0000
0000
0000
0000
0000
0000
0000
,  // measure 1
1100
0000
0000
0000
0000
0000
0000
0000
0000
0000
0000
0000
1100
0000
0000
0000
0000
0000
0000
0000
0000
0000
0000
0000
1110
0000
0000
0000
0000
0000
0001
0000
0000
0000
0000
0000
1000
0000
0000
0000
0000
0000
0001
0000
0000
0000
0000
0000
0110
0000
0000
0000
0000
0000
0000
0000
0000
0000
0000
0000
0111
0000
0000
0000
0000
0000
1000
0000
0000
0000
0000
0000
0001
0000
0000
0000
0000
0000
1000
0000
0000
0000
0000
0000
0010
0000
0000
0000
0100
0000
0000
0000
0001
0000
0000
0000
1000
0000
0000
0000
0010
0000
0000
0000
0100
0000
0000
0000
0001
0000
0000
0000
1000
0000
0000
0000
0010
0000
0000
0000
0100
0000
0000
0000
0001
0000
0000
0000
1000
0000
0000
0000
0000
0000
0000
0000
0000
0000
0000
0000
0000
0000
0000
0000
0000
0000
0000
0000
0000
0000
0000
0000
0000
0000
0000
0000
0101
0000
0000
0000
0000
0000
0000
0000
0000
0000
0000
0000
1100
0000
0000
0000
0000
0000
0000
0000
0000
0000
0000
0000
0110
0000
0000
1000
0000
0000
0001
0000
0000
0100
0000
0000
,  // measure 2
0011
0000
0000
0000
0011
0000
0000
0000
0110
0000
0000
0000
1100
0000
0000
0000
0110
0000
0000
0000
0000
0000
0000
0000
1010
0000
0000
0000
0000
0000
0000
0000
22MM
0000
00MM
0000
00MM
0000
00MM
0000
00MM
0000
00MM
0000
3311
0000
0000
0000
0000
0000
0000
0000
0000
0000
0000
0000
0000
0000
0000
0000
1000
0100
0010
0001
,  // measure 3
1000
0100
0010
0001
1100
0000
0000
0000
0101
0000
0000
0000
0000
0000
0000
0000
0011
0000
0000
0000
0000
0000
0000
0000
1001
0000
0000
0000
0000
0000
0000
0000
0110
0000
0001
0000
0010
0000
0001
0000
0010
0000
0001
0000
1100
0000
0010
0000
0100
0000
0010
0000
0100
0000
0010
0000
0101
0000
1000
0000
0001
0010
1000
0100
,  // measure 4
0011
0000
0000
0000
0000
0000
0000
0000
0000
0000
0000
0000
0011
0000
0000
0000
0000
0000
0000
0000
0000
0000
0000
0000
1011
0000
0000
0000
0000
0000
0100
0000
0000
0000
0000
0000
0010
0000
0000
0000
0000
0000
0100
0000
0000
0000
0000
0000
1010
0000
0000
0000
0000
0000
0000
0000
0000
0000
0000
0000
1101
0000
0000
0000
0000
0000
0010
0000
0000
0000
0000
0000
0001
0000
0000
0000
0000
0000
0010
0000
0000
0000
0000
0000
0001
0000
0000
0000
0010
0000
0000
0000
0100
0000
0000
0000
1000
0000
0000
0000
0001
0000
0000
0000
0010
0000
0000
0000
0100
0000
0000
0000
1000
0000
0000
0000
0001
0000
0000
0000
0010
0000
0000
0000
0100
0000
0000
0000
1000
0000
0000
0000
0000
0000
0000
0000
0000
0000
0000
0000
0000
0000
0000
0000
0000
0000
0000
0000
0000
0000
0000
0000
0000
0000
0000
0000
1010
0000
0000
0000
0000
0000
0000
0000
0000
0000
0000
0000
0011
0000
0000
0000
0000
0000
0000
0000
0000
0000
0000
0000
0101
0000
0000
0000
0000
0000
0000
0000
0000
0000
0000
0000
,  // measure 5
0110
0000
0000
0000
0000
0000
0000
0000
0000
0000
0000
0000
0110
0000
0000
0000
0000
0000
0000
0000
0000
0000
0000
0000
1110
0000
0000
0000
0000
0000
0001
0000
0000
0000
0000
0000
0010
0000
0000
0000
0000
0000
0001
0000
0000
0000
0000
0000
1010
0000
0000
0000
0000
0000
0000
0000
0000
0000
0000
0000
0111
0000
0000
0000
0000
0000
1000
0000
0000
0000
0000
0000
0001
0000
0000
0000
0000
0000
1000
0000
0000
0000
0000
0000
0001
0000
0000
0000
1000
0000
0000
0000
0010
0000
0000
0000
0100
0000
0000
0000
0001
0000
0000
0000
1000
0000
0000
0000
0010
0000
0000
0000
0100
0000
0000
0000
0001
0000
0000
0000
1000
0000
0000
0000
0010
0000
0000
0000
0100
0000
0000
0000
0000
0000
0000
0000
0000
0000
0000
0000
0000
0000
0000
0000
0000
0000
0000
0000
0000
0000
0000
0000
0000
0000
0000
0000
0011
0000
0000
0000
0000
0000
0000
0000
0000
0000
0000
0000
1010
0000
0000
0000
0000
0000
0000
0000
0000
0000
0000
0000
0110
0000
0000
1000
0000
0000
0010
0000
0000
0001
0000
0000
,  // measure 6
1100
0000
0000
0000
1100
0000
0000
0000
0101
0000
0000
0000
1001
0000
0000
0000
1010
0000
0000
0000
0000
0000
0000
0000
0101
0000
0000
0000
0000
0000
0000
0000
MM22
0000
MM00
0000
MM00
0000
MM00
0000
MM00
0000
MM00
0000
1133
0000
0000
0000
0000
0000
0000
0000
0000
0000
0000
0000
0000
0000
0000
0000
0001
0010
0100
1000
,  // measure 7
0001
0010
0100
1000
0101
0000
0000
0000
1100
0000
0000
0000
1000
0000
0000
0000
1010
0000
0000
0000
0000
0000
0000
0000
0101
0000
0000
0000
0000
0000
0000
0000
0101
0000
0010
0000
0101
0000
1000
0000
0110
0000
0001
0000
0110
0000
0001
0000
1100
0000
0010
0000
1100
0000
0001
0000
1010
0000
0100
0000
0101
0010
1000
0001
,  // measure 8
0110
0000
0000
0000
0010
0000
0000
0000
0011
0000
0000
0000
0010
0000
0000
0000
1010
0000
0000
0000
0010
0000
0000
0000
0110
0000
0000
0000
0010
0000
0000
0000
0011
0000
0100
0000
0001
0000
0100
0000
0001
0000
0100
0000
1001
0000
0000
0000
0001
0000
0000
0000
0001
0000
0000
0000
0001
0000
0000
0000
0001
1000
0010
0100
,  // measure 9
0001
1000
0010
0100
1001
0000
0000
0000
1001
0000
0000
0000
1000
0000
0000
0000
1100
0000
0000
0000
1000
0000
0000
0000
1010
0000
0000
0000
0010
0000
0000
0000
0110
0000
0001
0000
0100
0000
0001
0000
0100
0000
0001
0000
1010
0000
0100
0000
1000
0000
0100
0000
1000
0000
0100
0000
0011
0000
0100
0000
1001
0010
0001
0100
,  // measure 10
1010
0000
0010
0000
0110
0000
0010
0000
0011
0000
0010
0000
0110
0000
0010
0000
1010
0001
1000
0001
1000
0001
1010
0000
0000
0000
0110
0000
0110
0000
0011
0000
,  // measure 11
0001
0000
0000
0000
0011
0000
0000
0000
0101
0000
0000
0000
0001
0000
0000
0000
0011
0000
0000
0000
0001
0000
0000
0000
1001
0000
0000
0000
0001
0000
0000
0000
1001
0000
0010
0000
1000
0000
0010
0000
1000
0000
0010
0000
0101
0000
0010
0000
0001
0000
0010
0000
0001
0000
0010
0000
1100
0000
0001
0000
1000
0010
0001
0100
,  // measure 12
1010
0000
0000
0000
1000
0000
0000
0000
1001
0000
0000
0000
1000
0000
0000
0000
1100
0000
0000
0000
1000
0000
0000
0000
1001
0000
0000
0000
1000
0000
0000
0000
1001
0000
0100
0000
0001
0000
0100
0000
0001
0000
0100
0000
0011
0000
0000
0000
0010
0000
0000
0000
0010
0000
0000
0000
0010
0000
0000
0000
0010
0001
1000
0100
,  // measure 13
0010
0001
1000
0100
0011
0000
0000
0000
0011
0000
0000
0000
0010
0000
0000
0000
0110
0000
0000
0000
0010
0000
0000
0000
1010
0000
0000
0000
1000
0000
0000
0000
1100
0000
0010
0000
1000
0000
0010
0000
1000
0000
0010
0000
0101
0000
0010
0000
0001
0000
0010
0000
0001
0000
0010
0000
1001
0000
0100
0000
1001
0010
0100
0001
,  // measure 14
1010
0000
0010
0000
0011
0000
0010
0000
1010
0000
0010
0000
0110
0000
0010
0000
0011
0100
0001
0100
0001
0100
0011
0000
0000
0000
0011
0000
0110
0000
1100
0000
,  // measure 15
1110
0110
0111
0110
1110
0111
0000
1011
0000
1011
0111
1110
1101
1110
1011
0111
,  // measure 16
0110
0000
0000
0000
0000
0000
0000
0000
0000
0000
0000
0000
0110
0000
0000
0000
0000
0000
0000
0000
0000
0000
0000
0000
0111
0000
0000
0000
0000
0000
1000
0000
0000
0000
0000
0000
0001
0000
0000
0000
0000
0000
1000
0000
0000
0000
0000
0000
0101
0000
0000
0000
0000
0000
0000
0000
0000
0000
0000
0000
1110
0000
0000
0000
0000
0000
0001
0000
0000
0000
0000
0000
1000
0000
0000
0000
0000
0000
0001
0000
0000
0000
0000
0000
0010
0000
0000
0000
0100
0000
0000
0000
0001
0000
0000
0000
0010
0000
0000
0000
1000
0000
0000
0000
0100
0000
0000
0000
0001
0000
0000
0000
0010
0000
0000
0000
1000
0000
0000
0000
0100
0000
0000
0000
0001
0000
0000
0000
0010
0000
0000
0000
0000
0000
0000
0000
0000
0000
0000
0000
0000
0000
0000
0000
0000
0000
0000
0000
0000
0000
0000
0000
0000
0000
0000
0000
1001
0000
0000
0000
0000
0000
0000
0000
0000
0000
0000
0000
0101
0000
0000
0000
0000
0000
0000
0000
0000
0000
0000
0000
0110
0000
0000
0000
0000
0000
0000
0000
0000
0000
0000
0000
,  // measure 17
0011
0000
0000
0000
0000
0000
0000
0000
0000
0000
0000
0000
0011
0000
0000
0000
0000
0000
0000
0000
0000
0000
0000
0000
1101
0000
0000
0000
0000
0000
0010
0000
0000
0000
0000
0000
1000
0000
0000
0000
0000
0000
0010
0000
0000
0000
0000
0000
1100
0000
0000
0000
0000
0000
0000
0000
0000
0000
0000
0000
1011
0000
0000
0000
0000
0000
0100
0000
0000
0000
0000
0000
0001
0000
0000
0000
0000
0000
0010
0000
0000
0000
0000
0000
0100
0000
0000
0000
0010
0000
0000
0000
1000
0000
0000
0000
0001
0000
0000
0000
0100
0000
0000
0000
0010
0000
0000
0000
1000
0000
0000
0000
0001
0000
0000
0000
0100
0000
0000
0000
0010
0000
0000
0000
1000
0000
0000
0000
0001
0000
0000
0000
0000
0000
0000
0000
0000
0000
0000
0000
0000
0000
0000
0000
0000
0000
0000
0000
0000
0000
0000
0000
0000
0000
0000
0000
0011
0000
0000
0000
0000
0000
0000
0000
0000
0000
0000
0000
1010
0000
0000
0000
0000
0000
0000
0000
0000
0000
0000
0000
1001
0000
0000
0100
0000
0000
0001
0000
0000
1000
0000
0000
,  // measure 18
0110
0000
0000
0000
0011
0000
0000
0000
0110
0000
0000
0000
1100
0000
0000
0000
1010
0000
0000
0000
0000
0000
0000
0000
0110
0000
0000
0000
0000
0000
0000
0000
2M2M
0000
0M0M
0000
0M0M
0000
0M0M
0000
0M0M
0000
0M0M
0000
3131
0000
0000
0000
0000
0000
0000
0000
0000
0000
0000
0000
0000
0000
0000
0000
0001
0010
0100
1000
,  // measure 19
0001
0010
0100
1000
0011
0000
0000
0000
0101
0000
0000
0000
0100
0000
0000
0000
0101
0000
0000
0000
0100
0000
0000
0000
1100
0000
0000
0000
0100
0000
0000
0000
0110
0000
0001
0000
0100
0000
0001
0000
0100
0000
0001
0000
1010
0000
0100
0000
0001
0000
0100
0000
0001
0000
0100
0000
1001
0000
0010
0000
1000
0100
0010
0001
,  // measure 20
1100
0000
0000
0000
0000
0000
0000
0000
0000
0000
0000
0000
1100
0000
0000
0000
0000
0000
0000
0000
0000
0000
0000
0000
1011
0000
0000
0000
0000
0000
0100
0000
0000
0000
0000
0000
0001
0000
0000
0000
0000
0000
0100
0000
0000
0000
0000
0000
1010
0000
0000
0000
0000
0000
0000
0000
0000
0000
0000
0000
1101
0000
0000
0000
0000
0000
0010
0000
0000
0000
0000
0000
0001
0000
0000
0000
0000
0000
0010
0000
0000
0000
0000
0000
0100
0000
0000
0000
0001
0000
0000
0000
1000
0000
0000
0000
0010
0000
0000
0000
0100
0000
0000
0000
0001
0000
0000
0000
1000
0000
0000
0000
0010
0000
0000
0000
0100
0000
0000
0000
0001
0000
0000
0000
1000
0000
0000
0000
0010
0000
0000
0000
0000
0000
0000
0000
0000
0000
0000
0000
0000
0000
0000
0000
0000
0000
0000
0000
0000
0000
0000
0000
0000
0000
0000
0000
1010
0000
0000
0000
0000
0000
0000
0000
0000
0000
0000
0000
0011
0000
0000
0000
0000
0000
0000
0000
0000
0000
0000
0000
0101
0000
0000
0000
0000
0000
0000
0000
0000
0000
0000
0000
,  // measure 21
0110
0000
0000
0000
0000
0000
0000
0000
0000
0000
0000
0000
0110
0000
0000
0000
0000
0000
0000
0000
0000
0000
0000
0000
0111
0000
0000
0000
0000
0000
1000
0000
0000
0000
0000
0000
0001
0000
0000
0000
0000
0000
1000
0000
0000
0000
0000
0000
0011
0000
0000
0000
0000
0000
0000
0000
0000
0000
0000
0000
1011
0000
0000
0000
0000
0000
0100
0000
0000
0000
0000
0000
0010
0000
0000
0000
0000
0000
0100
0000
0000
0000
0000
0000
1000
0000
0000
0000
0001
0000
0000
0000
0100
0000
0000
0000
0010
0000
0000
0000
1000
0000
0000
0000
0001
0000
0000
0000
0100
0000
0000
0000
0010
0000
0000
0000
1000
0000
0000
0000
0001
0000
0000
0000
0100
0000
0000
0000
0010
0000
0000
0000
0000
0000
0000
0000
0000
0000
0000
0000
0000
0000
0000
0000
0000
0000
0000
0000
0000
0000
0000
0000
0000
0000
0000
0000
1010
0000
0000
0000
0000
0000
0000
0000
0000
0000
0000
0000
0011
0000
0000
0000
0000
0000
0000
0000
0000
0000
0000
0000
0101
0000
0000
0010
0000
0000
0001
0000
0000
0100
0000
0000
,  // measure 22
1010
0000
0000
0000
1100
0000
0000
0000
0101
0000
0000
0000
1001
0000
0000
0000
0011
0000
0000
0000
0000
0000
0000
0000
0110
0000
0000
0000
0000
0000
0000
0000
0202
0000
M0M0
0000
M0M0
0000
M0M0
0000
M0M0
0000
M0M0
0000
1313
0000
0000
0000
0000
0000
0000
0000
0000
0000
0000
0000
0000
0000
0000
0000
0100
0001
1000
0010
,  // measure 23
0100
0001
1000
0010
0101
0000
0000
0000
1001
0000
0000
0000
0001
0000
0000
0000
0101
0000
0000
0000
0100
0000
0000
0000
1100
0000
0000
0000
1000
0000
0000
0000
1010
0000
0001
0000
0110
0000
0001
0000
1010
0000
0100
0000
1001
0000
0010
0000
0101
0000
1000
0000
0011
0000
1000
0000
0101
0000
0010
0000
1001
0000
0100
0000
,  // measure 24
0011
0000
0000
0000
0010
0000
0000
0000
0011
0000
0000
0000
0010
0000
0000
0000
1010
0000
0000
0000
0010
0000
0000
0000
0110
0000
0000
0000
0010
0000
0000
0000
1010
0000
0001
0000
1000
0000
0001
0000
1000
0000
0001
0000
1100
0000
0000
0000
0100
0000
0000
0000
0100
0000
0000
0000
0100
0000
0000
0000
0100
0001
0010
1000
,  // measure 25
0100
0001
0010
1000
0101
0000
0000
0000
0101
0000
0000
0000
0001
0000
0000
0000
1001
0000
0000
0000
0001
0000
0000
0000
0011
0000
0000
0000
0001
0000
0000
0000
0101
0000
0010
0000
0100
0000
0010
0000
0100
0000
0010
0000
1001
0000
0100
0000
1000
0000
0100
0000
1000
0000
0100
0000
1010
0000
0001
0000
0110
1000
0001
0100
,  // measure 26
1010
0000
0010
0000
0110
0000
0010
0000
1010
0000
0010
0000
0011
0000
0001
0000
1001
0100
0001
0100
0001
0100
1001
0000
0000
0000
0110
0000
1100
0000
0101
0000
,  // measure 27
0001
0000
0000
0000
0101
0000
0000
0000
0011
0000
0000
0000
0001
0000
0000
0000
0101
0000
0000
0000
0001
0000
0000
0000
1001
0000
0000
0000
1000
0000
0000
0000
1100
0000
0001
0000
0100
0000
0001
0000
0100
0000
0001
0000
1010
0000
0100
0000
1000
0000
0100
0000
1000
0000
0100
0000
1001
0000
0010
0000
0001
0100
0010
1000
,  // measure 28
0101
0000
0000
0000
0100
0000
0000
0000
0110
0000
0000
0000
0100
0000
0000
0000
1100
0000
0000
0000
0100
0000
0000
0000
0110
0000
0000
0000
0100
0000
0000
0000
0101
0000
1000
0000
0001
0000
1000
0000
0001
0000
1000
0000
0011
0000
0000
0000
0010
0000
0000
0000
0010
0000
0000
0000
0010
0000
0000
0000
0010
0100
0001
1000
,  // measure 29
0010
0100
0001
1000
0110
0000
0000
0000
0110
0000
0000
0000
0100
0000
0000
0000
1100
0000
0000
0000
0100
0000
0000
0000
0101
0000
0000
0000
0100
0000
0000
0000
1100
0000
0010
0000
1000
0000
0010
0000
1000
0000
0010
0000
1001
0000
0100
0000
0001
0000
0100
0000
0001
0000
0100
0000
0011
0000
1000
0000
0101
0010
1000
0100
,  // measure 30
0011
0000
0010
0000
0110
0000
0010
0000
1010
0000
0010
0000
0011
0000
0010
0000
0110
0001
1000
0001
1000
0001
1010
0000
1000
0000
1100
0000
1010
0000
1001
0000
,  // measure 31
0111
0011
1011
0011
0111
1110
0000
1101
0000
1101
0111
1011
1110
1101
1011
0111
,  // measure 32
1001
0000
0010
0000
1000
0000
0010
0000
0100
0000
0001
0000
0100
0000
0001
0000
1000
0000
0010
0000
1000
0000
0010
0000
0100
0000
0001
0000
0100
0000
0001
0000
0010
0000
0001
0000
0010
0000
0001
0000
0100
0000
1000
0000
0100
0000
1000
0000
0010
0000
0001
0000
0010
0000
0001
0000
0100
0000
1000
0000
0100
0010
0001
1000
,  // measure 33
0100
0010
0001
1000
0100
0000
1000
0000
0100
0000
0001
0000
0100
0000
0001
0000
0010
0000
0001
0000
0010
0000
0001
0000
0100
0000
1000
0000
0100
0000
1000
0000
0001
0000
1000
0000
0001
0000
1000
0000
0010
0000
0100
0000
0010
0000
0100
0000
0001
0000
1000
0000
0001
0000
1000
0000
0010
0000
0100
0000
0010
0001
0100
1000
,  // measure 34
1111
0110
0101
0101
1001
1000
1001
0101
0011
0110
1010
1001
0101
0110
1100
0110
,  // measure 35
0011
0000
0000
0000
0000
0000
0000
0000
0000
0000
0000
0000
1010
0000
0000
0000
0000
0000
0000
0000
0000
0000
0000
0000
0011
0000
0000
0000
0000
0000
0000
0000
0000
0000
0000
0000
1010
0000
0000
0000
0000
0000
0000
0000
0000
0000
0000
0000
0111
0000
0000
0000
1000
0000
0000
0000
0010
0000
0000
0000
0001
0000
0000
0000
0100
0000
0000
0000
1000
0000
0000
0000
0010
0000
0000
0000
0001
0000
0000
0000
0100
0000
0000
0000
1000
0000
0000
0000
0010
0000
0000
0000
0001
0000
0000
0000
1110
0000
0000
0000
0001
0000
0000
0000
1000
0000
0000
0000
0100
0000
0000
0000
0010
0000
0000
0000
0001
0000
0000
0000
1000
0000
0000
0000
0100
0000
0000
0000
0010
0000
0000
0000
0001
0000
0000
0000
1000
0000
0000
0000
0100
0000
0000
0000
1011
0000
0000
0000
0100
0000
0000
0000
0001
0000
0000
0000
0010
0000
0000
0000
1000
0000
0000
0000
0100
0000
0000
0000
0001
0000
0000
0000
0010
0000
0000
0000
1000
0000
0000
0000
0100
0000
0000
0010
0000
0000
1000
0000
0000
0001
0000
0000
,  // measure 36
0110
0000
0001
0000
0100
0000
0001
0000
1000
0000
0010
0000
1000
0000
0010
0000
0100
0000
0001
0000
0100
0000
0001
0000
1000
0000
0010
0000
1000
0000
0010
0000
0001
0000
1000
0000
0001
0000
1000
0000
0100
0000
0010
0000
0100
0000
0010
0000
0001
0000
1000
0000
0001
0000
1000
0000
0100
0000
0010
0000
0001
1000
0010
0100
,  // measure 37
0001
1000
0010
0100
0001
0000
0100
0000
0010
0000
1000
0000
0010
0000
1000
0000
0100
0000
0001
0000
0100
0000
0001
0000
1000
0000
0010
0000
1000
0000
0010
0000
0100
0000
1000
0000
0100
0000
1000
0000
0010
0000
0001
0000
0010
0000
0001
0000
1000
0000
0100
0000
1000
0000
0100
0000
0001
0000
0010
0000
0001
1000
0010
0100
,  // measure 38
1011
1010
0110
0101
0011
0001
0101
0110
1100
1001
1100
1010
0110
1100
0101
0011
,  // measure 39
0110
0000
0101
0000
0011
0000
0101
0000
1100
0000
1010
0000
0110
0000
0011
0000
0111
0000
0110
0000
1110
0000
0110
1000
0111
0000
0111
0000
1010
0000
1110
0001
,  // measure 40
1001
0000
0000
0000
0000
0000
0000
0000
0000
0000
0000
0000
1001
0000
0000
0000
0000
0000
0000
0000
0000
0000
0000
0000
1011
0000
0000
0000
0000
0000
0100
0000
0000
0000
0000
0000
0001
0000
0000
0000
0000
0000
0100
0000
0000
0000
0000
0000
1010
0000
0000
0000
0000
0000
0000
0000
0000
0000
0000
0000
1101
0000
0000
0000
0000
0000
0010
0000
0000
0000
0000
0000
1000
0000
0000
0000
0000
0000
0010
0000
0000
0000
0000
0000
0100
0000
0000
0000
0001
0000
0000
0000
0010
0000
0000
0000
1000
0000
0000
0000
0100
0000
0000
0000
0001
0000
0000
0000
0010
0000
0000
0000
1000
0000
0000
0000
0100
0000
0000
0000
0001
0000
0000
0000
0010
0000
0000
0000
1000
0000
0000
0000
0000
0000
0000
0000
0000
0000
0000
0000
0000
0000
0000
0000
0000
0000
0000
0000
0000
0000
0000
0000
0000
0000
0000
0000
1010
0000
0000
0000
0000
0000
0000
0000
0000
0000
0000
0000
0011
0000
0000
0000
0000
0000
0000
0000
0000
0000
0000
0000
0110
0000
0000
0000
0000
0000
0000
0000
0000
0000
0000
0000
,  // measure 41
1100
0000
0000
0000
0000
0000
0000
0000
0000
0000
0000
0000
1100
0000
0000
0000
0000
0000
0000
0000
0000
0000
0000
0000
1110
0000
0000
0000
0000
0000
0001
0000
0000
0000
0000
0000
1000
0000
0000
0000
0000
0000
0001
0000
0000
0000
0000
0000
0110
0000
0000
0000
0000
0000
0000
0000
0000
0000
0000
0000
0111
0000
0000
0000
0000
0000
1000
0000
0000
0000
0000
0000
0001
0000
0000
0000
0000
0000
1000
0000
0000
0000
0000
0000
0010
0000
0000
0000
0100
0000
0000
0000
0001
0000
0000
0000
1000
0000
0000
0000
0010
0000
0000
0000
0100
0000
0000
0000
0001
0000
0000
0000
1000
0000
0000
0000
0010
0000
0000
0000
0100
0000
0000
0000
0001
0000
0000
0000
1000
0000
0000
0000
0000
0000
0000
0000
0000
0000
0000
0000
0000
0000
0000
0000
0000
0000
0000
0000
0000
0000
0000
0000
0000
0000
0000
0000
0101
0000
0000
0000
0000
0000
0000
0000
0000
0000
0000
0000
1100
0000
0000
0000
0000
0000
0000
0000
0000
0000
0000
0000
0110
0000
0000
1000
0000
0000
0001
0000
0000
0100
0000
0000
,  // measure 42
0011
0000
0000
0000
0011
0000
0000
0000
0110
0000
0000
0000
1100
0000
0000
0000
0110
0000
0000
0000
0000
0000
0000
0000
1010
0000
0000
0000
0000
0000
0000
0000
22MM
0000
00MM
0000
00MM
0000
00MM
0000
00MM
0000
00MM
0000
3311
0000
0000
0000
0000
0000
0000
0000
0000
0000
0000
0000
0000
0000
0000
0000
1000
0100
0010
0001
,  // measure 43
1000
0100
0010
0001
1100
0000
0000
0000
0101
0000
0000
0000
0000
0000
0000
0000
0011
0000
0000
0000
0000
0000
0000
0000
1001
0000
0000
0000
0000
0000
0000
0000
0110
0000
0001
0000
0010
0000
0001
0000
0010
0000
0001
0000
1100
0000
0010
0000
0100
0000
0010
0000
0100
0000
0010
0000
0101
0000
1000
0000
0001
0010
1000
0100
,  // measure 44
0011
0000
0000
0000
0000
0000
0000
0000
0000
0000
0000
0000
0011
0000
0000
0000
0000
0000
0000
0000
0000
0000
0000
0000
1011
0000
0000
0000
0000
0000
0100
0000
0000
0000
0000
0000
0010
0000
0000
0000
0000
0000
0100
0000
0000
0000
0000
0000
1010
0000
0000
0000
0000
0000
0000
0000
0000
0000
0000
0000
1101
0000
0000
0000
0000
0000
0010
0000
0000
0000
0000
0000
0001
0000
0000
0000
0000
0000
0010
0000
0000
0000
0000
0000
0001
0000
0000
0000
0010
0000
0000
0000
0100
0000
0000
0000
1000
0000
0000
0000
0001
0000
0000
0000
0010
0000
0000
0000
0100
0000
0000
0000
1000
0000
0000
0000
0001
0000
0000
0000
0010
0000
0000
0000
0100
0000
0000
0000
1000
0000
0000
0000
0000
0000
0000
0000
0000
0000
0000
0000
0000
0000
0000
0000
0000
0000
0000
0000
0000
0000
0000
0000
0000
0000
0000
0000
1010
0000
0000
0000
0000
0000
0000
0000
0000
0000
0000
0000
0011
0000
0000
0000
0000
0000
0000
0000
0000
0000
0000
0000
0101
0000
0000
0000
0000
0000
0000
0000
0000
0000
0000
0000
,  // measure 45
0110
0000
0000
0000
0000
0000
0000
0000
0000
0000
0000
0000
0110
0000
0000
0000
0000
0000
0000
0000
0000
0000
0000
0000
1110
0000
0000
0000
0000
0000
0001
0000
0000
0000
0000
0000
0010
0000
0000
0000
0000
0000
0001
0000
0000
0000
0000
0000
1010
0000
0000
0000
0000
0000
0000
0000
0000
0000
0000
0000
0111
0000
0000
0000
0000
0000
1000
0000
0000
0000
0000
0000
0001
0000
0000
0000
0000
0000
1000
0000
0000
0000
0000
0000
0001
0000
0000
0000
1000
0000
0000
0000
0010
0000
0000
0000
0100
0000
0000
0000
0001
0000
0000
0000
1000
0000
0000
0000
0010
0000
0000
0000
0100
0000
0000
0000
0001
0000
0000
0000
1000
0000
0000
0000
0010
0000
0000
0000
0100
0000
0000
0000
0000
0000
0000
0000
0000
0000
0000
0000
0000
0000
0000
0000
0000
0000
0000
0000
0000
0000
0000
0000
0000
0000
0000
0000
0011
0000
0000
0000
0000
0000
0000
0000
0000
0000
0000
0000
1010
0000
0000
0000
0000
0000
0000
0000
0000
0000
0000
0000
0110
0000
0000
1000
0000
0000
0010
0000
0000
0001
0000
0000
,  // measure 46
1100
0000
0000
0000
1100
0000
0000
0000
0101
0000
0000
0000
1001
0000
0000
0000
1010
0000
0000
0000
0000
0000
0000
0000
0101
0000
0000
0000
0000
0000
0000
0000
MM22
0000
MM00
0000
MM00
0000
MM00
0000
MM00
0000
MM00
0000
1133
0000
0000
0000
0000
0000
0000
0000
0000
0000
0000
0000
0000
0000
0000
0000
0001
0010
0100
1000
,  // measure 47
0001
0010
0100
1000
0101
0000
0000
0000
1101
0000
0000
0000
1100
0000
0000
0000
1101
0000
0000
0000
1011
0000
0000
0000
0001
0000
0000
0000
0111
0000
0000
0000
0000
0000
0000
0000
1110
0000
0000
0000
1101
0000
0000
0000
1011
0000
0000
0000
0111
0000
0000
0000
1110
0000
0000
0000
1011
0000
0000
0000
1101
0000
0000
0000
,  // measure 48
0110
0000
0000
0000
0010
0000
0000
0000
0011
0000
0000
0000
0010
0000
0000
0000
1010
0000
0000
0000
0010
0000
0000
0000
0110
0000
0000
0000
0010
0000
0000
0000
0011
0000
0100
0000
0001
0000
0100
0000
0001
0000
0100
0000
1001
0000
0000
0000
0001
0000
0000
0000
0001
0000
0000
0000
0001
0000
0000
0000
0001
1000
0010
0100
,  // measure 49
0001
1000
0010
0100
1001
0000
0000
0000
1001
0000
0000
0000
1000
0000
0000
0000
1100
0000
0000
0000
1000
0000
0000
0000
1010
0000
0000
0000
0010
0000
0000
0000
0110
0000
0001
0000
0100
0000
0001
0000
0100
0000
0001
0000
1010
0000
0100
0000
1000
0000
0100
0000
1000
0000
0100
0000
0011
0000
0100
0000
1001
0010
0001
0100
,  // measure 50
1010
0000
0010
0000
0110
0000
0010
0000
0011
0000
0010
0000
0110
0000
0010
0000
1010
0001
1000
0001
1000
0001
1010
0000
0000
0000
0110
0000
0110
0000
0011
0000
,  // measure 51
0001
0000
0000
0000
0011
0000
0000
0000
0101
0000
0000
0000
0001
0000
0000
0000
0011
0000
0000
0000
0001
0000
0000
0000
1001
0000
0000
0000
0001
0000
0000
0000
1001
0000
0010
0000
1000
0000
0010
0000
1000
0000
0010
0000
0101
0000
0010
0000
0001
0000
0010
0000
0001
0000
0010
0000
1100
0000
0001
0000
1000
0010
0001
0100
,  // measure 52
1010
0000
0000
0000
1000
0000
0000
0000
1001
0000
0000
0000
1000
0000
0000
0000
1100
0000
0000
0000
1000
0000
0000
0000
1001
0000
0000
0000
1000
0000
0000
0000
1001
0000
0100
0000
0001
0000
0100
0000
0001
0000
0100
0000
0011
0000
0000
0000
0010
0000
0000
0000
0010
0000
0000
0000
0010
0000
0000
0000
0010
0001
1000
0100
,  // measure 53
0010
0001
1000
0100
0011
0000
0000
0000
0011
0000
0000
0000
0010
0000
0000
0000
0110
0000
0000
0000
0010
0000
0000
0000
1010
0000
0000
0000
1000
0000
0000
0000
1100
0000
0010
0000
1000
0000
0010
0000
1000
0000
0010
0000
0101
0000
0010
0000
0001
0000
0010
0000
0001
0000
0010
0000
1001
0000
0100
0000
1001
0010
0100
0001
,  // measure 54
1010
0000
0010
0000
0011
0000
0010
0000
1010
0000
0010
0000
0110
0000
0010
0000
0011
0100
0001
0100
0001
0100
0011
0000
0000
0000
0011
0000
0110
0000
1100
0000
,  // measure 55
1000
0000
0000
0000
1100
0000
0000
0000
0101
0000
0000
0000
0001
0000
0000
0000
0011
0000
0000
0000
0001
0000
0000
0000
0101
0000
0000
0000
0001
0000
0000
0000
1101
0000
0000
0000
1100
0000
0000
0000
1101
0000
0000
0000
0101
0000
0000
0000
1101
0000
0000
0000
1101
0000
0000
0000
1100
0000
0000
0000
1100
0001
1000
0001
,  // measure 56
0110
0000
0000
0000
0000
0000
0000
0000
0000
0000
0000
0000
0110
0000
0000
0000
0000
0000
0000
0000
0000
0000
0000
0000
0111
0000
0000
0000
0000
0000
1000
0000
0000
0000
0000
0000
0001
0000
0000
0000
0000
0000
1000
0000
0000
0000
0000
0000
0101
0000
0000
0000
0000
0000
0000
0000
0000
0000
0000
0000
1110
0000
0000
0000
0000
0000
0001
0000
0000
0000
0000
0000
1000
0000
0000
0000
0000
0000
0001
0000
0000
0000
0000
0000
0010
0000
0000
0000
0100
0000
0000
0000
0001
0000
0000
0000
0010
0000
0000
0000
1000
0000
0000
0000
0100
0000
0000
0000
0001
0000
0000
0000
0010
0000
0000
0000
1000
0000
0000
0000
0100
0000
0000
0000
0001
0000
0000
0000
0010
0000
0000
0000
0000
0000
0000
0000
0000
0000
0000
0000
0000
0000
0000
0000
0000
0000
0000
0000
0000
0000
0000
0000
0000
0000
0000
0000
1001
0000
0000
0000
0000
0000
0000
0000
0000
0000
0000
0000
0101
0000
0000
0000
0000
0000
0000
0000
0000
0000
0000
0000
0110
0000
0000
0000
0000
0000
0000
0000
0000
0000
0000
0000
,  // measure 57
0011
0000
0000
0000
0000
0000
0000
0000
0000
0000
0000
0000
0011
0000
0000
0000
0000
0000
0000
0000
0000
0000
0000
0000
1101
0000
0000
0000
0000
0000
0010
0000
0000
0000
0000
0000
1000
0000
0000
0000
0000
0000
0010
0000
0000
0000
0000
0000
1100
0000
0000
0000
0000
0000
0000
0000
0000
0000
0000
0000
1011
0000
0000
0000
0000
0000
0100
0000
0000
0000
0000
0000
0001
0000
0000
0000
0000
0000
0010
0000
0000
0000
0000
0000
0100
0000
0000
0000
0010
0000
0000
0000
1000
0000
0000
0000
0001
0000
0000
0000
0100
0000
0000
0000
0010
0000
0000
0000
1000
0000
0000
0000
0001
0000
0000
0000
0100
0000
0000
0000
0010
0000
0000
0000
1000
0000
0000
0000
0001
0000
0000
0000
0000
0000
0000
0000
0000
0000
0000
0000
0000
0000
0000
0000
0000
0000
0000
0000
0000
0000
0000
0000
0000
0000
0000
0000
0011
0000
0000
0000
0000
0000
0000
0000
0000
0000
0000
0000
1010
0000
0000
0000
0000
0000
0000
0000
0000
0000
0000
0000
1001
0000
0000
0100
0000
0000
0001
0000
0000
1000
0000
0000
,  // measure 58
0110
0000
0000
0000
0011
0000
0000
0000
0110
0000
0000
0000
1100
0000
0000
0000
1010
0000
0000
0000
0000
0000
0000
0000
0110
0000
0000
0000
0000
0000
0000
0000
2M2M
0000
0M0M
0000
0M0M
0000
0M0M
0000
0M0M
0000
0M0M
0000
3131
0000
0000
0000
0000
0000
0000
0000
0000
0000
0000
0000
0000
0000
0000
0000
0001
0010
0100
1000
,  // measure 59
0001
0010
0100
1000
0011
0000
0000
0000
0101
0000
0000
0000
0100
0000
0000
0000
0101
0000
0000
0000
0100
0000
0000
0000
1100
0000
0000
0000
0100
0000
0000
0000
0110
0000
0001
0000
0100
0000
0001
0000
0100
0000
0001
0000
1010
0000
0100
0000
0001
0000
0100
0000
0001
0000
0100
0000
1001
0000
0010
0000
1000
0100
0010
0001
,  // measure 60
1100
0000
0000
0000
0000
0000
0000
0000
0000
0000
0000
0000
1100
0000
0000
0000
0000
0000
0000
0000
0000
0000
0000
0000
1011
0000
0000
0000
0000
0000
0100
0000
0000
0000
0000
0000
0001
0000
0000
0000
0000
0000
0100
0000
0000
0000
0000
0000
1010
0000
0000
0000
0000
0000
0000
0000
0000
0000
0000
0000
1101
0000
0000
0000
0000
0000
0010
0000
0000
0000
0000
0000
0001
0000
0000
0000
0000
0000
0010
0000
0000
0000
0000
0000
0100
0000
0000
0000
0001
0000
0000
0000
1000
0000
0000
0000
0010
0000
0000
0000
0100
0000
0000
0000
0001
0000
0000
0000
1000
0000
0000
0000
0010
0000
0000
0000
0100
0000
0000
0000
0001
0000
0000
0000
1000
0000
0000
0000
0010
0000
0000
0000
0000
0000
0000
0000
0000
0000
0000
0000
0000
0000
0000
0000
0000
0000
0000
0000
0000
0000
0000
0000
0000
0000
0000
0000
1010
0000
0000
0000
0000
0000
0000
0000
0000
0000
0000
0000
0011
0000
0000
0000
0000
0000
0000
0000
0000
0000
0000
0000
0101
0000
0000
0000
0000
0000
0000
0000
0000
0000
0000
0000
,  // measure 61
0110
0000
0000
0000
0000
0000
0000
0000
0000
0000
0000
0000
0110
0000
0000
0000
0000
0000
0000
0000
0000
0000
0000
0000
0111
0000
0000
0000
0000
0000
1000
0000
0000
0000
0000
0000
0001
0000
0000
0000
0000
0000
1000
0000
0000
0000
0000
0000
0011
0000
0000
0000
0000
0000
0000
0000
0000
0000
0000
0000
1011
0000
0000
0000
0000
0000
0100
0000
0000
0000
0000
0000
0010
0000
0000
0000
0000
0000
0100
0000
0000
0000
0000
0000
1000
0000
0000
0000
0001
0000
0000
0000
0100
0000
0000
0000
0010
0000
0000
0000
1000
0000
0000
0000
0001
0000
0000
0000
0100
0000
0000
0000
0010
0000
0000
0000
1000
0000
0000
0000
0001
0000
0000
0000
0100
0000
0000
0000
0010
0000
0000
0000
0000
0000
0000
0000
0000
0000
0000
0000
0000
0000
0000
0000
0000
0000
0000
0000
0000
0000
0000
0000
0000
0000
0000
0000
1010
0000
0000
0000
0000
0000
0000
0000
0000
0000
0000
0000
0011
0000
0000
0000
0000
0000
0000
0000
0000
0000
0000
0000
0101
0000
0000
0010
0000
0000
0001
0000
0000
0100
0000
0000
,  // measure 62
1010
0000
0000
0000
1100
0000
0000
0000
0101
0000
0000
0000
1001
0000
0000
0000
0011
0000
0000
0000
0000
0000
0000
0000
0110
0000
0000
0000
0000
0000
0000
0000
0202
0000
M0M0
0000
M0M0
0000
M0M0
0000
M0M0
0000
M0M0
0000
1313
0000
0000
0000
0000
0000
0000
0000
0000
0000
0000
0000
0000
0000
0000
0000
0100
0001
1000
0010
,  // measure 63
0100
0001
1000
0010
0101
0000
0000
0000
1011
0000
0000
0000
1010
0000
0000
0000
1011
0000
0000
0000
1011
0000
0000
0000
0000
0000
0000
0000
0111
0000
0000
0000
0000
0000
0000
0000
0111
0000
0000
0000
1101
0000
0000
0000
1101
0000
0000
0000
1110
0000
0000
0000
0111
0000
0000
0000
1011
0000
0000
0000
1110
0000
0000
0000
,  // measure 64
0011
0000
0000
0000
0010
0000
0000
0000
0011
0000
0000
0000
0010
0000
0000
0000
1010
0000
0000
0000
0010
0000
0000
0000
0110
0000
0000
0000
0010
0000
0000
0000
1010
0000
0001
0000
1000
0000
0001
0000
1000
0000
0001
0000
1100
0000
0000
0000
0100
0000
0000
0000
0100
0000
0000
0000
0100
0000
0000
0000
0100
0001
0010
1000
,  // measure 65
0100
0001
0010
1000
0101
0000
0000
0000
0101
0000
0000
0000
0001
0000
0000
0000
1001
0000
0000
0000
0001
0000
0000
0000
0011
0000
0000
0000
0001
0000
0000
0000
0101
0000
0010
0000
0100
0000
0010
0000
0100
0000
0010
0000
1001
0000
0100
0000
1000
0000
0100
0000
1000
0000
0100
0000
1010
0000
0001
0000
0110
1000
0001
0100
,  // measure 66
1010
0000
0010
0000
0110
0000
0010
0000
1010
0000
0010
0000
0011
0000
0001
0000
1001
0100
0001
0100
0001
0100
1001
0000
0000
0000
0110
0000
1100
0000
0101
0000
,  // measure 67
0001
0000
0000
0000
0101
0000
0000
0000
0011
0000
0000
0000
0001
0000
0000
0000
0101
0000
0000
0000
0001
0000
0000
0000
1001
0000
0000
0000
1000
0000
0000
0000
1100
0000
0001
0000
0100
0000
0001
0000
0100
0000
0001
0000
1010
0000
0100
0000
1000
0000
0100
0000
1000
0000
0100
0000
1001
0000
0010
0000
0001
0100
0010
1000
,  // measure 68
0101
0000
0000
0000
0100
0000
0000
0000
0110
0000
0000
0000
0100
0000
0000
0000
1100
0000
0000
0000
0100
0000
0000
0000
0110
0000
0000
0000
0100
0000
0000
0000
0101
0000
1000
0000
0001
0000
1000
0000
0001
0000
1000
0000
0011
0000
0000
0000
0010
0000
0000
0000
0010
0000
0000
0000
0010
0000
0000
0000
0010
0100
0001
1000
,  // measure 69
0010
0100
0001
1000
0110
0000
0000
0000
0110
0000
0000
0000
0100
0000
0000
0000
1100
0000
0000
0000
0100
0000
0000
0000
0101
0000
0000
0000
0100
0000
0000
0000
1100
0000
0010
0000
1000
0000
0010
0000
1000
0000
0010
0000
1001
0000
0100
0000
0001
0000
0100
0000
0001
0000
0100
0000
0011
0000
1000
0000
0101
0010
1000
0100
,  // measure 70
0011
0000
0010
0000
0110
0000
0010
0000
1010
0000
0010
0000
0011
0000
0010
0000
0110
0001
1000
0001
1000
0001
1010
0000
1000
0000
1100
0000
1010
0000
1001
0000
,  // measure 71
0001
0000
0000
0000
0101
0000
0000
0000
0110
0000
0000
0000
0010
0000
0000
0000
1010
0000
0000
0000
0010
0000
0000
0000
0011
0000
0000
0000
0001
0000
0000
0000
1101
0000
0000
0000
1100
0000
0000
0000
1011
0000
0000
0000
0011
0000
0000
0000
0111
0000
0000
0000
1110
0000
0000
0000
0110
0000
0000
0000
1110
0001
0010
0100
,  // measure 72
1001
0000
0010
0000
1000
0000
0010
0000
0100
0000
0001
0000
0100
0000
0001
0000
1000
0000
0010
0000
1000
0000
0010
0000
0100
0000
0001
0000
0100
0000
0001
0000
0010
0000
0001
0000
0010
0000
0001
0000
0100
0000
1000
0000
0100
0000
1000
0000
0010
0000
0001
0000
0010
0000
0001
0000
0100
0000
1000
0000
0100
0010
0001
1000
,  // measure 73
0100
0010
0001
1000
0100
0000
1000
0000
0100
0000
0001
0000
0100
0000
0001
0000
0010
0000
0001
0000
0010
0000
0001
0000
0100
0000
1000
0000
0100
0000
1000
0000
0001
0000
1000
0000
0001
0000
1000
0000
0010
0000
0100
0000
0010
0000
0100
0000
0001
0000
1000
0000
0001
0000
1000
0000
0010
0000
0100
0000
0010
0001
0100
1000
,  // measure 74
1111
0110
0101
0101
1001
1000
1001
0101
0011
0110
1010
1001
0101
0110
1100
0110
,  // measure 75
0011
0000
0000
0000
0000
0000
0000
0000
0000
0000
0000
0000
1010
0000
0000
0000
0000
0000
0000
0000
0000
0000
0000
0000
0011
0000
0000
0000
0000
0000
0000
0000
0000
0000
0000
0000
1010
0000
0000
0000
0000
0000
0000
0000
0000
0000
0000
0000
0111
0000
0000
0000
1000
0000
0000
0000
0010
0000
0000
0000
0001
0000
0000
0000
0100
0000
0000
0000
1000
0000
0000
0000
0010
0000
0000
0000
0001
0000
0000
0000
0100
0000
0000
0000
1000
0000
0000
0000
0010
0000
0000
0000
0001
0000
0000
0000
1110
0000
0000
0000
0001
0000
0000
0000
1000
0000
0000
0000
0100
0000
0000
0000
0010
0000
0000
0000
0001
0000
0000
0000
1000
0000
0000
0000
0100
0000
0000
0000
0010
0000
0000
0000
0001
0000
0000
0000
1000
0000
0000
0000
0100
0000
0000
0000
1011
0000
0000
0000
0100
0000
0000
0000
0001
0000
0000
0000
0010
0000
0000
0000
1000
0000
0000
0000
0100
0000
0000
0000
0001
0000
0000
0000
0010
0000
0000
0000
1000
0000
0000
0000
0100
0000
0000
0010
0000
0000
1000
0000
0000
0001
0000
0000
,  // measure 76
0110
0000
0001
0000
0100
0000
0001
0000
1000
0000
0010
0000
1000
0000
0010
0000
0100
0000
0001
0000
0100
0000
0001
0000
1000
0000
0010
0000
1000
0000
0010
0000
0001
0000
1000
0000
0001
0000
1000
0000
0100
0000
0010
0000
0100
0000
0010
0000
0001
0000
1000
0000
0001
0000
1000
0000
0100
0000
0010
0000
0001
1000
0010
0100
,  // measure 77
0001
1000
0010
0100
0001
0000
0100
0000
0010
0000
1000
0000
0010
0000
1000
0000
0100
0000
0001
0000
0100
0000
0001
0000
1000
0000
0010
0000
1000
0000
0010
0000
0100
0000
1000
0000
0100
0000
1000
0000
0010
0000
0001
0000
0010
0000
0001
0000
1000
0000
0100
0000
1000
0000
0100
0000
0001
0000
0010
0000
0001
1000
0010
0100
,  // measure 78
1011
1010
0110
0101
0011
0001
0101
0110
1100
1001
1100
1010
0110
1100
0101
0011
,  // measure 79
0111
0110
1110
0110
0111
1110
0000
1101
0000
1101
1110
0111
1101
0111
1011
1011
,  // measure 80
2002
0000
0000
0000
,  // measure 81
3003
0000
0000
0000
;
