#TITLE:Masters of Land, Sea, and Sky;
#SUBTITLE:E.V.O. - Search for Eden (1993);
#ARTIST:Koichi Sugiyama;
#TITLETRANSLIT:;
#SUBTITLETRANSLIT:;
#ARTISTTRANSLIT:;
#GENRE:;
#CREDIT:;
#BANNER:;
#BACKGROUND:;
#LYRICSPATH:;
#CDTITLE:!cdtitle.png;
#MUSIC:Masters of Land, Sea, and Sky.ogg;
#OFFSET:-0.016000;
#SAMPLESTART:1.602000;
#SAMPLELENGTH:15.000000;
#SELECTABLE:YES;
#BPMS:0.000000=151.369003
;
#STOPS:
;
#BGCHANGES:;
#KEYSOUNDS:;
#ATTACKS:;

//---------------dance-single - 2016----------------
#NOTES:
     dance-single:
     :
     Hard:
     14:
     1.684914,1.533272,3.143208,0.306654,1.981459,2000.000000,1463.000000,533.000000,52.000000,0.000000,100.000000,1.684914,1.533272,3.143208,0.306654,1.981459,2000.000000,1463.000000,533.000000,52.000000,0.000000,100.000000:
// measure 0
1001
0000
1001
0000
1001
0000
0000
0000
0100
0000
0000
0000
1001
0000
1001
0000
1001
0000
0010
0000
0100
0000
0010
0000
0001
0100
0010
1000
0001
1000
0010
0100
,  // measure 1
1001
0100
0010
0100
1010
0001
0100
1000
0101
0010
1000
0100
0011
1000
0100
0001
,  // measure 2
1010
1001
0100
1001
0010
1001
0100
0010
0101
0101
0010
1000
0110
0001
0100
0010
,  // measure 3
1100
0010
0001
1000
0011
0100
1001
0010
1100
0001
0010
0100
1010
0001
0110
1000
,  // measure 4
0101
0010
0100
1000
0011
0100
1001
0010
0001
0010
0000
0100
1001
0110
1001
0110
,  // measure 5
1001
0010
0100
0010
0101
1000
0010
0001
0110
1000
0001
0100
1010
0001
0100
1000
,  // measure 6
0011
0101
0010
0101
1000
0101
0010
1000
0110
0110
0001
0010
1100
0010
0101
1000
,  // measure 7
0011
0100
0010
0001
0110
1000
0101
0010
1100
0001
0010
0100
1010
0001
0110
1000
,  // measure 8
0101
0010
0001
1000
0101
0010
1001
0100
1010
0110
0001
0010
0101
1010
1100
0011
,  // measure 9
1001
0010
0001
0010
0001
0010
0001
0010
1001
0100
1000
0100
1000
0100
1000
0100
,  // measure 10
1010
0001
0010
0001
0010
0001
0010
0001
0110
1000
0100
1000
0100
1000
0100
1000
,  // measure 11
0110
0001
0010
0001
0110
1000
0100
1000
0101
0010
0001
0010
1001
0100
1000
0100
,  // measure 12
1010
0001
0010
0001
0110
1000
0100
1000
0101
0010
0001
0010
0101
1000
0100
1000
,  // measure 13
0110
0001
0010
0001
1000
0100
1000
0100
1010
0001
0010
0001
1000
0100
1000
0100
,  // measure 14
1001
1001
1001
1001
1001
0000
0010
0100
0010
0000
1001
0000
0010
0100
1001
0000
,  // measure 15
1001
0000
0000
0000
0000
0000
0000
0000
0000
0000
0000
0000
0000
0000
0000
0000
0000
0000
0000
0000
0000
0000
0000
0000
0000
0000
0000
0000
0000
0000
0000
0000
0000
0000
0000
0000
0000
0000
0000
0000
0000
0000
0000
0000
0000
0000
0000
0000
2002
0000
0000
0000
0000
0000
0000
0000
0000
0000
0000
0000
0000
0000
0000
0000
0000
0000
0000
0000
0000
0000
0000
0000
0000
0000
0000
0000
0000
0000
0000
0000
0000
0000
0000
0000
0000
0000
0000
0000
0000
0000
0000
0000
0000
0000
0000
0000
0000
0000
0000
0000
0000
0000
0000
0000
0000
0000
0000
0000
0000
0000
0000
0000
0000
0000
0000
0000
0000
0000
0000
0000
0000
0000
0000
0000
0000
0000
0000
0000
0000
0000
0000
0000
0000
0000
0000
0000
0000
0000
0000
0000
0000
0003
0000
0000
3001
0000
0000
0000
0000
0000
0000
0000
0010
0000
0000
0000
0000
0000
0000
0000
0100
0000
0000
0000
0000
0000
0000
0000
1000
0000
0000
0000
0000
0000
0000
0000
0100
0000
0000
0000
0000
0000
0000
0000
0010
0000
0000
0000
0000
0000
0000
0000
,  // measure 16
1001
0100
0010
0100
1010
0001
0100
1000
0101
0010
1000
0100
0011
1000
0100
0001
,  // measure 17
1010
1001
0100
1001
0010
1001
0100
0010
0101
0101
0010
1000
0110
0001
0100
0010
,  // measure 18
1100
0010
0001
1000
0011
0100
1001
0010
1100
0001
0010
0100
1010
0001
0110
1000
,  // measure 19
0101
0010
0100
1000
0011
0100
1001
0010
0001
0010
0000
0100
1001
0110
1001
0110
,  // measure 20
1001
0010
0100
0010
0101
1000
0010
0001
0110
1000
0001
0100
1010
0001
0100
1000
,  // measure 21
0011
0101
0010
0101
1000
0101
0010
1000
0110
0110
0001
0010
1100
0010
0101
1000
,  // measure 22
0011
0100
0010
0001
0110
1000
0101
0010
1100
0001
0010
0100
1010
0001
0110
1000
,  // measure 23
0101
0010
0001
1000
0101
0010
1001
0100
1010
0110
0001
0010
0101
1010
1100
0011
,  // measure 24
1001
0010
0001
0010
0001
0010
0001
0010
1001
0100
1000
0100
1000
0100
1000
0100
,  // measure 25
1010
0001
0010
0001
0010
0001
0010
0001
0110
1000
0100
1000
0100
1000
0100
1000
,  // measure 26
0110
0001
0010
0001
0110
1000
0100
1000
0101
0010
0001
0010
1001
0100
1000
0100
,  // measure 27
1010
0001
0010
0001
0110
1000
0100
1000
0101
0010
0001
0010
0101
1000
0100
1000
,  // measure 28
0110
0001
0010
0001
1000
0100
1000
0100
1010
0001
0010
0001
1000
0100
1000
0100
,  // measure 29
1001
1001
1001
1001
1001
0000
0010
0100
0010
0000
1001
0000
0010
0100
1001
0000
,  // measure 30
1001
0000
0000
0000
0000
0000
0000
0000
0000
0000
0000
0000
0000
0000
0000
0000
0000
0000
0000
0000
0000
0000
0000
0000
0000
0000
0000
0000
0000
0000
0000
0000
0000
0000
0000
0000
0000
0000
0000
0000
0000
0000
0000
0000
0000
0000
0000
0000
2002
0000
0000
0000
0000
0000
0000
0000
0000
0000
0000
0000
0000
0000
0000
0000
0000
0000
0000
0000
0000
0000
0000
0000
0000
0000
0000
0000
0000
0000
0000
0000
0000
0000
0000
0000
0000
0000
0000
0000
0000
0000
0000
0000
0000
0000
0000
0000
0000
0000
0000
0000
0000
0000
0000
0000
0000
0000
0000
0000
0000
0000
0000
0000
0000
0000
0000
0000
0000
0000
0000
0000
0000
0000
0000
0000
0000
0000
0000
0000
0000
0000
0000
0000
0000
0000
0000
0000
0000
0000
0000
0000
0000
0003
0000
0000
3001
0000
0000
0000
0000
0000
0000
0000
0010
0000
0000
0000
0000
0000
0000
0000
0100
0000
0000
0000
0000
0000
0000
0000
1000
0000
0000
0000
0000
0000
0000
0000
0100
0000
0000
0000
0000
0000
0000
0000
0010
0000
0000
0000
0000
0000
0000
0000
,  // measure 31
2001
0010
0100
0010
0101
0000
0100
0001
0110
0001
0010
0100
0011
0000
3210
0000
,  // measure 32
0000
0000
0010
1000
0011
0000
0001
0010
1000
0000
1010
0001
1000
0000
0011
1000
,  // measure 33
0321
1000
0100
0001
1100
0000
0100
1000
0101
1000
0001
0100
1001
0000
1032
0000
,  // measure 34
0000
0000
0010
0100
1010
0000
1000
0100
1000
0000
0110
1000
0100
0000
1100
0010
,  // measure 35
2103
0001
0100
0001
0110
0000
0010
0100
0011
0100
0001
0010
0101
0000
3210
0000
,  // measure 36
0000
0000
0001
0010
1001
0000
0010
0001
1010
0000
1001
0010
1000
0000
0011
1000
,  // measure 37
0321
0100
0001
0100
1001
0000
0100
1000
0101
1000
0100
0001
1100
0000
0232
1010
,  // measure 38
1010
0000
0000
0000
0000
0000
0000
0000
0010
0000
0000
0000
0000
0000
0000
0000
0000
0000
0000
0000
1000
0000
0000
0000
0000
0000
0000
0000
0010
0000
0000
0003
0301
0000
0000
0000
0010
0000
0000
0000
0100
0000
0000
0000
1000
0000
0000
0000
0001
0000
0000
0000
0100
0000
0000
0000
0010
0000
0000
0000
1000
0000
0000
0000
,  // measure 39
0102
0000
0000
0000
0000
0000
0000
0000
0010
0000
0000
0000
0000
0000
0000
0003
0102
0000
0000
0000
0000
0000
0000
0000
1000
0000
0000
0000
0000
0000
0000
0000
0123
0000
0000
0000
0000
0000
0000
0000
0001
0000
0000
0000
0000
0000
0000
0030
0210
0000
0000
0000
0000
0000
0000
0000
1000
0000
0000
0000
0000
0000
0000
0000
,  // measure 40
0312
0000
0000
0000
0000
0000
0000
0000
1010
0000
0000
0000
0000
0000
0000
0000
0010
0000
0000
0000
0010
0000
0000
0000
0000
0000
0000
0000
1000
0000
0000
0000
0010
0000
0000
0000
0100
0000
0000
0000
1000
0000
0000
0000
0000
0000
0000
0000
1023
0000
0000
0000
0101
0000
0000
0000
1000
0000
0000
0000
0101
0000
0000
0030
,  // measure 41
1020
0000
0000
0000
0000
0000
0000
0000
0001
0000
0000
0000
0000
0000
0000
0030
2010
0000
0000
0000
0000
0000
0000
0000
0100
0000
0000
0000
0000
0000
0000
0000
3021
0000
0000
0000
0000
0000
0000
0000
0001
0000
0000
0000
0000
0000
0000
0000
1230
0000
0000
0000
0000
0000
0000
0000
0010
0000
0000
0000
0000
0000
0000
0000
,  // measure 42
0321
0000
0000
0000
0000
0000
0000
0000
1001
0000
0000
0000
0000
0000
0000
0000
1000
0000
0000
0000
0100
0000
0000
0000
0000
0000
0000
0000
0001
0000
0000
0000
0100
0000
0000
0000
1000
0000
0000
0000
0101
0000
0000
0000
0000
0000
0000
0000
0132
0000
0000
0000
1010
0000
0000
0000
0100
0000
0000
0000
1010
0000
0000
0003
,  // measure 43
1011
1010
1010
0001
0010
0001
0010
0100
0010
1000
0100
1000
0011
1100
0011
1100
,  // measure 44
0011
0100
1000
0100
0010
0001
0010
0100
1000
0100
0010
0001
0010
0100
1000
0100
,  // measure 45
0011
0000
1000
0100
0011
0000
0101
1010
0110
0000
0011
1001
0110
0000
0101
1010
,  // measure 46
1100
0000
0110
0101
1100
0000
1010
0011
0101
0000
0011
0110
1010
0000
1100
0101
,  // measure 47
1011
0100
1000
0100
0010
0100
0010
0001
0010
0100
0010
0100
0011
1100
0011
1100
,  // measure 48
0011
0100
0010
0001
1000
0010
0100
0001
1000
0001
0100
0010
0001
0010
0100
1000
,  // measure 49
0101
0000
0001
1000
0110
0000
1100
0101
1001
0000
0011
0101
0110
0000
1100
1001
,  // measure 50
0101
0000
0011
0101
0110
0000
0011
1001
1100
0000
0110
1100
0110
0000
0011
0101
,  // measure 51
1001
0000
1001
0000
1001
0000
0000
0000
0100
0000
0000
0000
1001
0000
1001
0000
1001
0000
0010
0000
0100
0000
0010
0000
0001
0100
0010
1000
0001
1000
0010
0100
,  // measure 52
1001
0100
0010
0100
1010
0001
0100
1000
0101
0010
1000
0100
0011
1000
0100
0001
,  // measure 53
1010
1001
0100
1001
0010
1001
0100
0010
0101
0101
0010
1000
0110
0001
0100
0010
,  // measure 54
1100
0010
0001
1000
0011
0100
1001
0010
1100
0001
0010
0100
1010
0001
0110
1000
,  // measure 55
0101
0010
0100
1000
0011
0100
1001
0010
0001
0010
0000
0100
1001
0110
1001
0110
,  // measure 56
1001
0010
0100
0010
0101
1000
0010
0001
0110
1000
0001
0100
1010
0001
0100
1000
,  // measure 57
0011
0101
0010
0101
1000
0101
0010
1000
0110
0110
0001
0010
1100
0010
0101
1000
,  // measure 58
0011
0100
0010
0001
0110
1000
0101
0010
1100
0001
0010
0100
1010
0001
0110
1000
,  // measure 59
0101
0010
0001
1000
0101
0010
1001
0100
1010
0110
0001
0010
0101
1010
1100
0011
,  // measure 60
1001
0010
0001
0010
0001
0010
0001
0010
1001
0100
1000
0100
1000
0100
1000
0100
,  // measure 61
1010
0001
0010
0001
0010
0001
0010
0001
0110
1000
0100
1000
0100
1000
0100
1000
,  // measure 62
0110
0001
0010
0001
0110
1000
0100
1000
0101
0010
0001
0010
1001
0100
1000
0100
,  // measure 63
1010
0001
0010
0001
0110
1000
0100
1000
0101
0010
0001
0010
0101
1000
0100
1000
,  // measure 64
0110
0001
0010
0001
1000
0100
1000
0100
1010
0001
0010
0001
1000
0100
1000
0100
,  // measure 65
1001
1001
1001
1001
1001
0000
0010
0100
0010
0000
1001
0000
0010
0100
1001
0000
,  // measure 66
1001
0000
0000
0000
0000
0000
0000
0000
0000
0000
0000
0000
0000
0000
0000
0000
0000
0000
0000
0000
0000
0000
0000
0000
0000
0000
0000
0000
0000
0000
0000
0000
0000
0000
0000
0000
0000
0000
0000
0000
0000
0000
0000
0000
0000
0000
0000
0000
2002
0000
0000
0000
0000
0000
0000
0000
0000
0000
0000
0000
0000
0000
0000
0000
0000
0000
0000
0000
0000
0000
0000
0000
0000
0000
0000
0000
0000
0000
0000
0000
0000
0000
0000
0000
0000
0000
0000
0000
0000
0000
0000
0000
0000
0000
0000
0000
0000
0000
0000
0000
0000
0000
0000
0000
0000
0000
0000
0000
0000
0000
0000
0000
0000
0000
0000
0000
0000
0000
0000
0000
0000
0000
0000
0000
0000
0000
0000
0000
0000
0000
0000
0000
0000
0000
0000
0000
0000
0000
0000
0000
0000
0003
0000
0000
3001
0000
0000
0000
0000
0000
0000
0000
0010
0000
0000
0000
0000
0000
0000
0000
0100
0000
0000
0000
0000
0000
0000
0000
1000
0000
0000
0000
0000
0000
0000
0000
0100
0000
0000
0000
0000
0000
0000
0000
0010
0000
0000
0000
0000
0000
0000
0000
,  // measure 67
1001
0100
0010
0100
1010
0001
0100
1000
0101
0010
1000
0100
0011
1000
0100
0001
,  // measure 68
1010
1001
0100
1001
0010
1001
0100
0010
0101
0101
0010
1000
0110
0001
0100
0010
,  // measure 69
1100
0010
0001
1000
0011
0100
1001
0010
1100
0001
0010
0100
1010
0001
0110
1000
,  // measure 70
0101
0010
0100
1000
0011
0100
1001
0010
0001
0010
0000
0100
1001
0110
1001
0110
,  // measure 71
1001
0010
0100
0010
0101
1000
0010
0001
0110
1000
0001
0100
1010
0001
0100
1000
,  // measure 72
0011
0101
0010
0101
1000
0101
0010
1000
0110
0110
0001
0010
1100
0010
0101
1000
,  // measure 73
0011
0100
0010
0001
0110
1000
0101
0010
1100
0001
0010
0100
1010
0001
0110
1000
,  // measure 74
0101
0010
0001
1000
0101
0010
1001
0100
1010
0110
0001
0010
0101
1010
1100
0011
,  // measure 75
1001
0010
0001
0010
0001
0010
0001
0010
1001
0100
1000
0100
1000
0100
1000
0100
,  // measure 76
1010
0001
0010
0001
0010
0001
0010
0001
0110
1000
0100
1000
0100
1000
0100
1000
,  // measure 77
0110
0001
0010
0001
0110
1000
0100
1000
0101
0010
0001
0010
1001
0100
1000
0100
,  // measure 78
1010
0001
0010
0001
0110
1000
0100
1000
0101
0010
0001
0010
0101
1000
0100
1000
,  // measure 79
0110
0001
0010
0001
1000
0100
1000
0100
1010
0001
0010
0001
1000
0100
1000
0100
,  // measure 80
1001
1001
1001
1001
1001
0000
0010
0100
0010
0000
1001
0000
0010
0100
1001
0000
,  // measure 81
1001
0000
0000
0000
0000
0000
0000
0000
0000
0000
0000
0000
0000
0000
0000
0000
0000
0000
0000
0000
0000
0000
0000
0000
0000
0000
0000
0000
0000
0000
0000
0000
0000
0000
0000
0000
0000
0000
0000
0000
0000
0000
0000
0000
0000
0000
0000
0000
2002
0000
0000
0000
0000
0000
0000
0000
0000
0000
0000
0000
0000
0000
0000
0000
0000
0000
0000
0000
0000
0000
0000
0000
0000
0000
0000
0000
0000
0000
0000
0000
0000
0000
0000
0000
0000
0000
0000
0000
0000
0000
0000
0000
0000
0000
0000
0000
0000
0000
0000
0000
0000
0000
0000
0000
0000
0000
0000
0000
0000
0000
0000
0000
0000
0000
0000
0000
0000
0000
0000
0000
0000
0000
0000
0000
0000
0000
0000
0000
0000
0000
0000
0000
0000
0000
0000
0000
0000
0000
0000
0000
0000
0003
0000
0000
3001
0000
0000
0000
0000
0000
0000
0000
0010
0000
0000
0000
0000
0000
0000
0000
0100
0000
0000
0000
0000
0000
0000
0000
1000
0000
0000
0000
0000
0000
0000
0000
0100
0000
0000
0000
0000
0000
0000
0000
0010
0000
0000
0000
0000
0000
0000
0000
,  // measure 82
2001
0010
0100
0010
0101
0000
0100
0001
0110
0001
0010
0100
0011
0000
3210
0000
,  // measure 83
0000
0000
0010
1000
0011
0000
0001
0010
1000
0000
1010
0001
1000
0000
0011
1000
,  // measure 84
0321
1000
0100
0001
1100
0000
0100
1000
0101
1000
0001
0100
1001
0000
1032
0000
,  // measure 85
0000
0000
0010
0100
1010
0000
1000
0100
1000
0000
0110
1000
0100
0000
1100
0010
,  // measure 86
2103
0001
0100
0001
0110
0000
0010
0100
0011
0100
0001
0010
0101
0000
3210
0000
,  // measure 87
0000
0000
0001
0010
1001
0000
0010
0001
1010
0000
1001
0010
1000
0000
0011
1000
,  // measure 88
0321
0100
0001
0100
1001
0000
0100
1000
0101
1000
0100
0001
1100
0000
0232
1010
,  // measure 89
1010
0000
0000
0000
0000
0000
0000
0000
0010
0000
0000
0000
0000
0000
0000
0000
0000
0000
0000
0000
1000
0000
0000
0000
0000
0000
0000
0000
0010
0000
0000
0003
0301
0000
0000
0000
0010
0000
0000
0000
0100
0000
0000
0000
1000
0000
0000
0000
0001
0000
0000
0000
0100
0000
0000
0000
0010
0000
0000
0000
1000
0000
0000
0000
,  // measure 90
0102
0000
0000
0000
0000
0000
0000
0000
0010
0000
0000
0000
0000
0000
0000
0003
0102
0000
0000
0000
0000
0000
0000
0000
1000
0000
0000
0000
0000
0000
0000
0000
0123
0000
0000
0000
0000
0000
0000
0000
0001
0000
0000
0000
0000
0000
0000
0030
0210
0000
0000
0000
0000
0000
0000
0000
1000
0000
0000
0000
0000
0000
0000
0000
,  // measure 91
0312
0000
0000
0000
0000
0000
0000
0000
1010
0000
0000
0000
0000
0000
0000
0000
0010
0000
0000
0000
0010
0000
0000
0000
0000
0000
0000
0000
1000
0000
0000
0000
0010
0000
0000
0000
0100
0000
0000
0000
1000
0000
0000
0000
0000
0000
0000
0000
1023
0000
0000
0000
0101
0000
0000
0000
1000
0000
0000
0000
0101
0000
0000
0030
,  // measure 92
1020
0000
0000
0000
0000
0000
0000
0000
0001
0000
0000
0000
0000
0000
0000
0030
2010
0000
0000
0000
0000
0000
0000
0000
0100
0000
0000
0000
0000
0000
0000
0000
3021
0000
0000
0000
0000
0000
0000
0000
0001
0000
0000
0000
0000
0000
0000
0000
1230
0000
0000
0000
0000
0000
0000
0000
0010
0000
0000
0000
0000
0000
0000
0000
,  // measure 93
0321
0000
0000
0000
0000
0000
0000
0000
1001
0000
0000
0000
0000
0000
0000
0000
1000
0000
0000
0000
0100
0000
0000
0000
0000
0000
0000
0000
0001
0000
0000
0000
0100
0000
0000
0000
1000
0000
0000
0000
0101
0000
0000
0000
0000
0000
0000
0000
0132
0000
0000
0000
1010
0000
0000
0000
0100
0000
0000
0000
1010
0000
0000
0003
,  // measure 94
1011
1010
1010
0001
0010
0001
0010
0100
0010
1000
0100
1000
0011
1100
0011
1100
,  // measure 95
0011
0100
1000
0100
0010
0001
0010
0100
1000
0100
0010
0001
0010
0100
1000
0100
,  // measure 96
0011
0000
1000
0100
0011
0000
0101
1010
0110
0000
0011
1001
0110
0000
0101
1010
,  // measure 97
1100
0000
0110
0101
1100
0000
1010
0011
0101
0000
0011
0110
1010
0000
1100
0101
,  // measure 98
1011
0100
1000
0100
0010
0100
0010
0001
0010
0100
0010
0100
0011
1100
0011
1100
,  // measure 99
0011
0100
0010
0001
1000
0010
0100
0001
1000
0001
0100
0010
0001
0010
0100
1000
,  // measure 100
0101
0000
0001
1000
0110
0000
1100
0101
1001
0000
0011
0101
0110
0000
1100
1001
,  // measure 101
0101
0000
0011
0101
0110
0000
0011
1001
1100
0000
0110
1100
0110
0000
0011
0101
,  // measure 102
1001
0000
1001
0000
1001
0000
0000
0000
0100
0000
0000
0000
1001
0000
1001
0000
1001
0000
0010
0000
0100
0000
0010
0000
0001
0100
0010
1000
0001
1000
0010
0100
,  // measure 103
2002
0000
0000
0000
,  // measure 104
3003
0000
0000
0000
;
