#TITLE:MOONLIGHT SHADOW (New Vocal Version);
#SUBTITLE:;
#ARTIST:MISSING HEART;
#TITLETRANSLIT:;
#SUBTITLETRANSLIT:;
#ARTISTTRANSLIT:;
#GENRE:;
#CREDIT:;
#BANNER:;
#BACKGROUND:;
#LYRICSPATH:;
#CDTITLE:!cdtitle.png;
#MUSIC:MOONLIGHT SHADOW (New Vocal Version).mp3;
#OFFSET:-0.065000;
#SAMPLESTART:38.070000;
#SAMPLELENGTH:15.000000;
#SELECTABLE:YES;
#DISPLAYBPM:140.000000;
#BPMS:0.000000=140.007004
,17.000000=140.000000
,18.000000=140.007004
,35.000000=140.000000
,36.000000=140.007004
,53.000000=140.000000
,54.000000=140.007004
,71.000000=140.000000
,72.000000=140.007004
,89.000000=140.000000
,90.000000=140.007004
,107.000000=140.000000
,108.000000=140.007004
,124.000000=140.000000
,125.000000=140.007004
,142.000000=140.000000
,143.000000=140.007004
,160.000000=140.000000
,161.000000=140.007004
,178.000000=140.000000
,179.000000=140.007004
,196.000000=140.000000
,197.000000=140.007004
;
#STOPS:
;
#BGCHANGES:;
#KEYSOUNDS:;
#ATTACKS:;

//---------------dance-single - 2013 dump----------------
#NOTES:
     dance-single:
     :
     Hard:
     82:
     2.242081,2.670062,2.315592,0.492203,4.144574,1403.000000,1123.000000,207.000000,44.000000,0.000000,87.000000,2.242081,2.670062,2.315592,0.492203,4.144574,1403.000000,1123.000000,207.000000,44.000000,0.000000,87.000000:
2000
3020
0231
0000
0000
0302
0023
0032
,
0203
0320
0230
0000
0000
0320
0000
0000
,
0000
0000
2030
3200
2300
3020
0000
0000
,
0230
0302
0023
0000
0230
0000
0302
2003
,
3002
0000
2003
0000
3010
0010
0100
0100
0001
0001
0100
0100
0010
0010
0100
0100
,
1000
0000
1000
0000
0100
0000
0100
0000
1000
0000
1000
0000
0100
0000
0100
0000
0010
0000
0010
0000
0001
0000
0001
0000
1000
0100
0010
0001
0010
0100
1000
0100
,
0010
0000
0000
0000
0001
0000
0000
0000
1000
0000
0000
0000
0100
0000
0000
0000
0010
0000
0000
0000
1000
0000
0000
0000
0001
0000
0000
0000
0100
0000
0000
0000
0001
0000
0000
0000
0010
0000
0000
0000
0001
0000
0000
0000
0100
0000
0000
0000
1011
0000
0000
0000
0000
0000
0100
0000
0000
0000
0000
0000
1000
0000
0000
0000
0000
0000
0010
0000
0000
0000
0000
0000
0001
0000
0000
0000
0000
0000
0100
0000
0000
0000
0000
0000
0001
0000
0000
0000
0000
0000
1000
0000
0000
0000
0000
0000
0111
0000
0000
0000
0000
0000
1000
0000
0000
0000
0000
0000
0001
0000
0000
0000
0000
0000
0100
0000
0000
0000
0000
0000
0010
0000
0000
0000
0000
0000
0001
0000
0000
0000
0000
0000
0100
0000
0000
0000
0000
0000
0010
0000
0000
0000
0000
0000
1101
0000
0000
0000
0000
0000
0010
0000
0000
0000
0000
0000
0001
0000
0000
0000
0000
0000
0100
0000
0000
0000
0000
0000
1000
0000
0000
0000
0000
0000
0010
0000
0000
0000
0000
0000
0001
0000
0000
0000
0000
0000
1000
0000
0000
0000
0000
0000
,
0111
1000
0001
0010
0001
0100
0010
0001
1110
0001
0010
0001
0100
0010
1000
0100
1011
0100
0010
0001
0100
0001
0010
1000
0111
1000
0010
0001
0010
0100
1000
0100
,
1011
0100
0010
0001
0100
1000
0010
0001
1110
0001
0100
0010
0001
1000
0100
0010
1101
0010
1000
0001
0100
1000
0010
0100
1011
0100
0010
1000
0100
0010
0001
1000
,
0111
0000
0000
0000
0000
0000
1000
0000
0000
0000
0000
0000
0001
0000
0000
0000
0000
0000
0100
0000
0000
0000
0000
0000
0010
0000
0000
0000
0000
0000
1000
0000
0000
0000
0000
0000
0010
0000
0000
0000
0000
0000
0100
0000
0000
0000
0000
0000
2022
0000
0000
0000
0000
0000
0000
0000
0000
0000
0000
0000
0100
0000
0000
0000
0000
0000
0000
0000
0000
0000
0000
0000
0100
0000
0000
0000
0000
0000
0000
0000
0000
0000
0000
0000
3133
0000
0000
0000
0000
0000
0000
0000
0000
0000
0000
0000
2202
0000
0000
0000
0000
0000
0000
0000
0000
0000
0000
0000
0010
0000
0000
0000
0000
0000
0000
0000
0000
0000
0000
0000
0010
0000
0000
0000
0000
0000
0000
0000
0000
0000
0000
0000
3313
0000
0000
0000
0000
0000
0000
0000
0000
0000
0000
0000
1011
0000
0000
0000
0100
0000
0000
0000
0010
0000
0000
0000
0001
0000
0000
0000
1000
0000
0000
0000
0100
0000
0000
0000
0010
0000
0000
0000
0000
0000
0000
0000
0000
0000
0000
0000
0000
0000
0000
0000
0000
0000
0000
0000
0000
0000
0000
0000
,
1101
0000
0000
0000
0010
0000
0000
0000
0100
0000
0000
0000
1000
0000
0000
0000
0001
0000
0000
0000
0010
0000
0000
0000
0100
0000
0000
0000
0000
0000
0000
0000
0000
0000
0000
0000
0000
0000
0000
0000
0000
0000
0000
0000
0000
0000
0000
0000
1011
0000
0000
0000
0000
0000
0100
0000
0000
0000
0000
0000
1000
0000
0000
0000
0000
0000
0010
0000
0000
0000
0000
0000
0100
0000
0000
0000
0000
0000
0001
0000
0000
0000
0000
0000
0010
0000
0000
0000
0000
0000
0001
0000
0000
0000
0000
0000
1110
0000
0000
0000
0000
0000
0001
0000
0000
0000
0000
0000
0100
0000
0000
0000
0000
0000
0010
0000
0000
0000
0000
0000
0001
0000
0000
0000
0000
0000
0100
0000
0000
0000
0000
0000
1000
0000
0000
0000
0000
0000
0010
0000
0000
0000
0000
0000
1101
0000
0000
0000
0000
0000
0010
0000
0000
0000
0000
0000
1000
0000
0000
0000
0000
0000
0001
0000
0000
0000
0000
0000
0100
0000
0000
0000
0000
0000
1000
0000
0000
0000
0000
0000
0010
0000
0000
0000
0000
0000
0001
0000
0000
0000
0000
0000
,
1110
0001
1000
0100
0010
1000
0001
0100
1011
0100
1000
0010
0001
0100
0010
1000
0111
1000
0001
0100
0010
1000
0100
0001
1110
0001
0010
1000
0100
0001
1000
0100
,
1011
0100
0010
1000
0100
1000
0010
0001
1110
0001
0100
1000
0001
0100
0010
0100
1011
0100
1000
0001
0100
0001
0010
0001
1110
0001
0100
1000
0010
0100
1000
0001
,
1110
0000
0000
0000
0000
0000
0001
0000
0000
0000
0000
0000
1000
0000
0000
0000
0000
0000
0010
0000
0000
0000
0000
0000
1000
0000
0000
0000
0000
0000
0100
0000
0000
0000
0000
0000
0010
0000
0000
0000
0000
0000
1000
0000
0000
0000
0000
0000
0222
0000
0000
0000
0000
0000
0000
0000
0000
0000
0000
0000
1000
0000
0000
0000
0000
0000
0000
0000
0000
0000
0000
0000
1000
0000
0000
0000
0000
0000
0000
0000
0000
0000
0000
0000
1333
0000
0000
0000
0000
0000
0000
0000
0000
0000
0000
0000
2220
0000
0000
0000
0000
0000
0000
0000
0000
0000
0000
0000
0001
0000
0000
0000
0000
0000
0000
0000
0000
0000
0000
0000
0001
0000
0000
0000
0000
0000
0000
0000
0000
0000
0000
0000
3331
0000
0000
0000
0000
0000
0000
0000
0000
0000
0000
0000
0111
0000
0000
0000
1000
0000
0000
0000
0100
0000
0000
0000
0010
0000
0000
0000
0001
0000
0000
0000
1000
0000
0000
0000
0100
0000
0000
0000
0000
0000
0000
0000
0000
0000
0000
0000
0000
0000
0000
0000
0000
0000
0000
0000
0000
0000
0000
0000
,
1110
0001
0010
0100
1000
0001
0010
0000
0000
0000
0000
0000
1111
0000
0000
0010
0000
0000
0010
0000
0000
0010
0000
0000
0100
0000
0000
0100
0000
0000
1000
0000
0000
1000
0000
0000
0010
0000
0000
0010
0000
0000
0100
0000
0000
0100
0000
0000
,
0010
0010
0010
0010
0001
0001
0010
0010
0100
0100
1000
1000
1000
1000
1000
1000
,
1000
1000
1000
1000
1010
1010
1010
1010
1010
1010
0110
0110
0101
0101
0101
0101
,
0101
0001
0001
0001
0101
0101
0110
0110
1010
1010
1100
1100
1000
1000
0010
0010
,
0100
0100
0001
0001
1000
1000
1000
1000
0010
0010
0100
0100
0001
0001
1000
1000
,
0010
0010
0001
0001
0100
0100
0001
0001
1000
1000
0010
0010
0010
0010
0010
0010
,
0100
0100
1000
1000
1010
0010
1010
1000
1001
0001
0001
0001
0101
0100
0110
0010
,
1010
1000
1000
1000
1011
0010
0010
0100
1101
1000
1000
0010
0111
1000
1000
0001
,
1110
0000
0010
0000
0010
0000
0100
0000
1011
0100
0010
1000
0010
0001
0010
0100
1000
0001
0100
0010
1100
0010
0001
0100
1000
0001
1000
0100
1010
0001
0100
0010
,
0101
1000
0001
0010
1100
0001
0100
0010
1001
0100
1000
0001
0010
0001
0100
1000
0010
0100
1000
0100
0011
1000
0001
0100
0001
1000
0010
0100
1000
0010
0100
0010
,
1000
0100
0001
0010
0001
0100
0010
1000
0101
0010
0001
0100
1010
0001
0100
0010
1001
0100
1000
0010
0101
0010
0001
0010
1000
0100
0001
1000
0001
0010
0100
0001
,
1010
0000
0100
0000
0010
0000
0001
0000
1010
0000
0100
0000
1000
0000
0010
0000
0101
0000
0010
0000
0001
0000
0100
0000
1000
0000
0001
0000
0010
0000
1000
0000
0110
0000
0001
0000
0010
0000
0001
0000
0100
0000
0010
0000
1000
0000
0010
0000
0100
1000
0001
0010
0100
1000
0001
0010
0100
0000
0000
0000
0000
0000
0000
0000
,
0010
0001
1000
0100
0010
0001
1000
0100
0010
0000
0000
0000
0000
0000
0000
0000
1001
0000
0100
0000
1000
0000
0001
0000
0010
0000
0001
0000
0100
0000
0010
0000
0001
0000
0100
0000
1000
0000
0010
0000
0101
0000
0010
0000
0001
0000
0100
0000
1010
0000
0001
0000
0100
0000
0010
0000
1000
0000
0001
0000
0100
0000
0010
0000
,
0101
0010
0001
0100
1010
0001
0010
0001
1100
0010
0001
0100
0010
1000
0100
1000
0010
0001
0100
0010
1001
0100
1000
0010
0001
0100
0010
1000
0001
0100
0001
0010
,
0001
0100
1000
0010
0100
0001
0100
1000
0110
1000
0001
0100
0011
0100
1000
0010
1100
0001
0010
0100
1001
0100
1000
0010
1000
0001
0100
0010
0001
0100
1000
0100
,
0011
0000
1000
0000
0100
0000
0010
0000
1001
0000
0100
0000
1000
0000
0001
0000
1100
0000
0001
0000
0010
0000
1000
0000
0100
0000
0001
0000
1000
0000
0100
0000
1010
0000
0001
0000
0100
0000
0001
0000
1000
0000
0010
0000
0100
0000
1000
0000
0010
1000
0001
0100
0010
1000
0001
0100
0010
0000
0000
0000
0000
0000
0000
0000
,
0100
1000
0010
0001
0100
1000
0010
0001
0100
0000
0000
0000
0000
0000
0000
0000
1111
0000
0000
0000
0011
0000
0000
0000
0110
0000
0000
0000
0110
0000
0000
0000
1100
0000
0000
0000
1100
0000
0000
0000
1100
0000
0000
0000
1100
0000
0000
0000
1010
0000
0000
0000
1010
0000
0000
0000
0110
0000
0000
0000
0110
0000
0000
0000
,
0101
0101
1001
1001
1100
1100
0110
0110
0011
0011
0101
0101
0001
0001
0010
0010
,
0100
0100
1000
1000
1001
1001
1001
1001
1001
1001
1010
1010
1100
1100
1100
1100
,
1100
1100
0110
0110
0011
0011
0101
0101
1001
1001
1010
1010
1000
0010
0100
0001
,
1100
0010
1001
0100
0011
0010
0010
0010
0110
0100
0100
0100
1100
1000
1000
1000
,
1010
0010
0110
0100
0101
0001
0011
0010
0110
0100
1100
1000
0010
0100
0001
0100
,
1010
0001
0110
1000
0101
0010
0101
0010
1001
0100
0010
0100
1001
0010
1001
0100
,
1001
0010
0100
0001
1100
0010
0001
0010
1100
0001
0010
0001
1100
0010
0001
0010
,
1100
0000
0001
0000
1111
0000
0001
0000
1111
0000
0000
0000
0000
0000
0000
0000
1000
0010
1000
0010
1000
0010
1000
0010
0001
0100
0001
0100
0001
0100
0001
0100
,
0010
0100
0010
0100
0010
0100
0010
0100
1010
0001
1000
0001
1000
0001
1000
0001
1000
0100
1000
0100
1000
0100
1000
0100
1000
0001
1000
0001
1000
0001
1000
0001
,
1010
0100
0010
0100
0011
0100
0010
0100
1010
0000
0010
0000
0010
0000
0010
0000
0110
0000
0100
0000
0100
0000
0100
0000
0101
0000
0001
0000
0101
0000
0100
0000
,
1000
0100
0010
0001
1100
0010
0001
0100
1001
0010
0001
0100
1010
0001
0100
0010
,
1001
0000
0000
0000
0000
0000
0000
0000
0000
0000
0000
0000
0100
0000
0000
0000
0000
0000
0000
0000
0000
0000
0000
0000
1000
0000
0000
0000
0000
0000
0000
0000
0000
0000
0000
0000
0100
0000
0000
1000
0000
0000
0001
0000
0000
0010
0000
0000
1001
0000
0000
0000
0000
0000
0000
0000
0010
0000
0000
0000
0000
0000
0000
0000
0100
0000
0000
0000
0000
0000
0000
0000
0001
0000
0000
0000
0000
0000
0000
0000
0100
0000
0000
0000
0000
0000
0000
0000
0001
0000
0000
0000
0000
0000
0000
0000
1110
0000
0000
0000
0000
0000
0000
0000
0001
0000
0000
0000
0000
0000
0000
0000
0100
0000
0000
0000
0000
0000
0000
0000
1000
0000
0000
0000
0000
0000
0000
0000
0010
0000
0000
0000
0000
0000
0000
0000
0100
0000
0000
0000
0000
0000
0000
0000
1011
0000
0000
0000
0000
0000
0000
0000
0100
0000
0000
0000
0000
0000
0000
0000
1000
0000
0000
0000
0000
0000
0000
0000
0010
0000
0000
0000
0000
0000
0000
0000
0100
0000
0000
0000
0000
0000
0000
0000
0001
0000
0000
0000
0000
0000
0000
0000
,
1110
0001
0100
1011
0100
0010
1101
0010
0001
0100
1000
0010
1000
0100
1000
0111
1000
0001
0100
0010
0001
0100
0010
1000
,
0010
0001
0100
0010
0100
1000
0111
1000
0100
1011
0100
0001
1110
0001
0100
1011
0100
0001
1000
0010
0100
1000
0001
1000
,
0111
0000
0000
0000
0000
0000
0000
0000
1000
0000
0000
0000
0000
0000
0000
0000
0100
0000
0000
0000
0000
0000
0000
0000
1011
0000
0000
0000
0000
0000
0000
0000
0100
0000
0000
0000
0000
0000
0000
0000
1000
0000
0000
0000
0000
0000
0000
0000
0222
0000
0000
0000
0000
0000
0000
0000
0000
0000
0000
0000
1000
0000
0000
0000
0000
0000
0000
0000
0000
0000
0000
0000
1000
0000
0000
0000
0000
0000
0000
0000
0000
0000
0000
0000
1333
0000
0000
0000
0000
0000
0000
0000
0000
0000
0000
0000
2220
0000
0000
0000
0000
0000
0000
0000
0000
0000
0000
0000
0001
0000
0000
0000
0000
0000
0000
0000
0000
0000
0000
0000
0001
0000
0000
0000
0000
0000
0000
0000
0000
0000
0000
0000
3331
0000
0000
0000
0000
0000
0000
0000
0000
0000
0000
0000
1110
0000
0000
0001
0000
0000
0010
0000
0000
0100
0000
0000
1000
0000
0000
0001
0000
0000
0010
0000
0000
0100
0000
0000
1000
0000
0000
0001
0000
0000
0010
0000
0000
0100
0000
0000
1000
0000
0000
0001
0000
0000
0010
0000
0000
0100
0000
0000
,
1000
0100
0010
0001
1000
0100
0010
0001
1000
0100
0010
0001
1000
0100
0010
0001
1110
0000
0001
0000
0100
0000
0010
0000
1000
0000
0001
0000
0100
0000
0001
0000
0010
0000
0100
0000
1000
0000
0001
0000
1110
0000
0001
0000
0010
0000
1000
0000
0111
0000
1000
0000
0010
0000
0100
0000
0010
0000
0001
0000
0100
0000
0010
0000
,
1101
0010
1000
0001
0100
1000
0010
0100
1011
0100
1000
0001
0100
0010
0001
1000
0100
0010
1000
0010
1101
0010
0001
0100
1000
0100
1000
0001
0100
0010
0001
1000
,
0100
1000
0010
0100
0001
0010
0001
0100
1011
0100
1000
0001
1110
0001
1000
0100
1011
0100
1000
0001
1110
0001
0100
1000
0001
0100
0001
1000
0100
0010
0001
0100
,
1011
0000
0000
0000
0000
0000
0100
0000
0000
0000
0000
0000
0010
0000
0000
0000
0000
0000
0001
0000
1000
0000
0000
0000
0100
0000
0000
0000
0010
0000
0000
0000
0001
0000
0000
0000
1000
0000
0000
0100
0000
0000
0010
0000
0000
0001
0000
0000
2222
0000
0000
0000
0000
0000
0000
0000
0000
0000
0000
0000
0000
0000
0000
0000
0000
0000
0000
0000
0000
0000
0000
0000
0000
0000
0000
0000
0000
0000
0000
0000
0000
0000
0000
0000
0000
0000
0000
0000
0000
0000
0000
0000
0000
0000
0000
0000
0003
0000
0000
0000
0000
0000
0000
0000
0000
0000
0000
0000
0000
0000
0000
0000
0000
0000
0000
0000
0000
0000
0000
0000
0000
0000
0000
0000
0000
0000
0000
0000
0000
0000
0000
0000
0000
0000
0000
0000
0000
0000
0000
0000
0000
0000
0000
0000
0030
0000
0000
0000
0000
0000
0000
0000
0000
0000
0000
0000
0000
0000
0000
0000
0000
0000
0000
0000
0000
0000
0000
0000
0000
0000
0000
0000
0000
0000
0000
0000
0000
0000
0000
0000
0000
0000
0000
0000
0000
0000
0000
0000
0000
0000
0000
0000
,
0300
3000
0000
0000
;
