#TITLE:Live for Live;
#SUBTITLE:Live-A-Live (1994);
#ARTIST:Yoko Shimomura;
#TITLETRANSLIT:;
#SUBTITLETRANSLIT:;
#ARTISTTRANSLIT:;
#GENRE:;
#CREDIT:;
#BANNER:16x9foronce-bn.png;
#BACKGROUND:16x9foronce-bg.png;
#LYRICSPATH:;
#CDTITLE:!cdtitle.png;
#MUSIC:Live for Live.ogg;
#OFFSET:-0.006667;
#SAMPLESTART:88.903000;
#SAMPLELENGTH:15.000000;
#SELECTABLE:YES;
#BPMS:0.000000=65.128998
,8.000000=64.970001
,11.000000=64.969002
,12.000000=64.970001
,13.000000=64.969002
,14.000000=64.970001
,15.000000=64.969002
,16.000000=65.082001
,17.000000=65.080002
,24.000000=64.985001
,29.000000=64.986000
,30.000000=64.985001
,32.000000=65.323997
,40.000000=65.055000
,48.000000=65.094002
,55.000000=65.095001
,56.000000=130.216995
,57.000000=130.210999
,58.000000=130.216995
,59.000000=130.210999
,60.000000=130.216995
,61.000000=130.210999
,62.000000=130.216995
,63.000000=130.210999
,64.000000=129.531006
,68.000000=127.892006
,72.000000=130.192993
,73.000000=128.337006
,74.000000=127.337997
,75.000000=128.796005
,76.000000=128.888000
,77.000000=127.609009
,78.000000=127.790009
,79.000000=128.697998
,80.000000=130.546997
,81.000000=128.681000
,82.000000=129.514008
,83.000000=128.039993
,84.000000=129.095993
,85.000000=127.630989
,86.000000=129.466995
,87.000000=127.264999
,88.000000=129.246994
,89.000000=128.876007
,90.000000=129.806000
,91.000000=128.324997
,92.000000=129.852997
,93.000000=128.005997
,94.000000=129.664993
,95.000000=128.182007
,96.000000=128.050995
,97.000000=129.526001
,98.000000=130.369995
,99.000000=127.231003
,100.000000=128.876007
,101.000000=127.237000
,102.000000=128.876007
,103.000000=129.613007
,104.000000=129.240997
,105.000000=128.130997
,106.000000=127.682007
,107.000000=129.701004
,108.000000=129.240997
,109.000000=126.866997
,110.000000=127.411011
,111.000000=128.681000
,112.000000=130.388000
,113.000000=127.972000
,114.000000=130.292999
,115.000000=128.063004
,116.000000=129.078995
,117.000000=130.005005
,118.000000=128.434006
,119.000000=126.089005
,120.000000=129.264008
,121.000000=128.154007
,122.000000=130.481995
,123.000000=129.537003
,124.000000=128.617004
,125.000000=128.427994
,126.000000=129.171005
,127.000000=128.063004
,128.000000=129.240997
,129.000000=128.313995
,130.000000=130.552994
,131.000000=127.224998
,132.000000=128.731995
,133.000000=127.630989
,134.000000=124.201996
,135.000000=126.288002
,136.000000=128.268005
,137.000000=130.500000
,138.000000=129.281006
,139.000000=126.733002
,140.000000=129.328003
,141.000000=128.222000
,142.000000=128.957001
,143.000000=128.589005
,144.000000=129.095993
,145.000000=130.783997
,146.000000=128.634995
,147.000000=128.085007
,148.000000=130.028000
,149.000000=128.542999
,150.000000=130.311005
,151.000000=127.541000
,152.000000=130.884995
,153.000000=127.955002
,155.000000=128.542999
,156.000000=129.595001
,157.000000=130.151993
,158.000000=126.978996
,159.000000=127.517998
,160.000000=130.778000
,161.000000=126.726997
,162.000000=129.182999
,163.000000=128.628998
,164.000000=128.858994
,165.000000=129.044006
,166.000000=127.129997
,167.000000=125.185005
,168.000000=130.897003
,169.000000=127.377007
,170.000000=128.285004
,171.000000=128.462006
,172.000000=129.367996
,173.000000=126.995003
,174.000000=127.264999
,175.000000=130.022995
,176.000000=128.940002
,177.000000=129.822998
,179.000000=126.850006
,180.000000=130.339996
,181.000000=128.888000
,182.000000=128.154007
,183.000000=127.400009
,184.000000=129.078995
,185.000000=130.011002
,186.000000=128.709000
,187.000000=129.636002
,188.000000=130.246002
,189.000000=128.612000
,190.000000=128.606003
,191.000000=126.843994
,192.000000=129.281006
,193.000000=129.636002
,194.000000=129.078995
,195.000000=128.669006
,196.000000=127.489998
,197.000000=128.399002
,198.000000=127.851990
,199.000000=128.210999
,200.000000=130.617996
,201.000000=127.286995
,202.000000=128.376999
,203.000000=129.671005
,204.000000=128.057007
,205.000000=127.152000
,207.000000=129.904999
,208.000000=130.339996
,209.000000=129.182999
,210.000000=129.177002
,211.000000=126.671005
,212.000000=130.529007
,213.000000=130.011002
,214.000000=127.073990
,215.000000=127.428001
,216.000000=129.125000
,217.000000=130.011002
,219.000000=128.205002
,220.000000=129.917007
,221.000000=129.031998
,222.000000=128.479996
,223.000000=128.210999
,224.000000=127.931999
,225.000000=129.403000
,227.000000=128.388000
,228.000000=128.662994
,229.000000=128.205002
,230.000000=127.208008
,231.000000=124.984001
,232.000000=130.529007
,233.000000=128.537003
,234.000000=128.531006
,235.000000=129.759003
,236.000000=128.940002
,237.000000=130.576996
,239.000000=127.433998
,240.000000=131.291000
,241.000000=127.613998
,242.000000=129.636002
,243.000000=129.917007
,244.000000=128.755005
,245.000000=129.822998
,247.000000=128.675003
,248.000000=131.386993
,249.000000=129.869995
,251.000000=128.479996
,252.000000=129.589996
,253.000000=129.356995
,255.000000=129.251999
,256.000000=129.869995
,257.000000=130.488007
,259.000000=128.434006
,260.000000=129.125000
,261.000000=128.570999
,263.000000=126.094994
,264.000000=128.940002
,265.000000=128.570999
,267.000000=129.904999
,268.000000=130.022995
,269.000000=129.893997
,271.000000=127.455994
,272.000000=131.386993
,273.000000=128.570999
,275.000000=129.869995
,276.000000=128.848007
,277.000000=130.481995
,279.000000=127.500999
,280.000000=131.291000
,281.000000=128.848007
,282.000000=130.908997
,283.000000=129.682999
,284.000000=128.296997
,285.000000=129.403000
,287.000000=129.240997
,288.000000=131.100006
,289.000000=129.893997
,291.000000=128.503006
,292.000000=129.171005
,293.000000=129.964005
,294.000000=126.316010
,295.000000=124.481003
,296.000000=128.479996
,297.000000=128.570999
,298.000000=128.479996
,299.000000=128.388000
,300.000000=129.309998
,301.000000=125.961998
,302.000000=128.296997
,303.000000=130.057999
,304.000000=128.848007
,305.000000=129.031998
,307.000000=129.776993
,308.000000=129.682999
,309.000000=127.252991
,311.000000=128.205002
,312.000000=130.813995
,313.000000=129.078995
,315.000000=129.449997
,316.000000=128.755005
,317.000000=128.709000
,319.000000=127.252991
,320.000000=130.813995
,321.000000=129.125000
,323.000000=129.031998
,325.000000=128.662994
,327.000000=126.050003
,328.000000=129.682999
,329.000000=127.885994
,331.000000=128.479996
,332.000000=129.218002
,333.000000=127.500999
,334.000000=126.850006
,335.000000=129.893997
,336.000000=128.940002
,337.000000=129.613007
,339.000000=128.697998
,340.000000=129.682999
,341.000000=127.208008
,343.000000=129.496002
,345.000000=129.125000
,347.000000=129.218002
,348.000000=130.246002
,349.000000=127.118996
,350.000000=129.125000
,351.000000=128.514008
,352.000000=130.623993
,353.000000=129.125000
,355.000000=128.904999
,356.000000=129.067001
,357.000000=126.316010
,358.000000=129.218002
,359.000000=127.897995
,360.000000=130.339996
,361.000000=126.403999
,362.000000=128.388000
,363.000000=129.160004
,364.000000=128.537003
,367.000000=128.531006
,368.000000=131.237000
,369.000000=126.403999
,370.000000=128.388000
,371.000000=128.113998
,372.000000=128.766998
,373.000000=128.761002
,374.000000=128.766998
,375.000000=128.761002
,376.000000=128.755005
,377.000000=127.841003
,378.000000=130.908997
,379.000000=127.926010
,380.000000=128.848007
,381.000000=128.022995
,382.000000=129.496002
,383.000000=127.682007
,384.000000=128.662994
,385.000000=127.727997
,386.000000=126.337997
,387.000000=127.359993
,388.000000=127.377007
,390.000000=129.882004
,391.000000=124.967010
,392.000000=131.003998
,393.000000=129.403000
,394.000000=128.662994
,395.000000=129.276001
,396.000000=129.125000
,397.000000=129.345001
,398.000000=128.662994
,399.000000=126.582001
,400.000000=130.813995
,401.000000=128.296997
,402.000000=129.869995
,403.000000=129.182999
,404.000000=129.218002
,405.000000=128.973999
,406.000000=127.479004
,407.000000=127.660004
,408.000000=127.568993
,409.000000=128.022995
,410.000000=128.296997
,411.000000=126.850006
,412.000000=128.113998
,413.000000=130.813995
,414.000000=126.938995
,415.000000=127.931999
,416.000000=126.316010
,417.000000=130.339996
,418.000000=128.479996
,419.000000=126.761002
,420.000000=129.218002
,421.000000=126.492989
,422.000000=128.755005
,423.000000=124.138000
,424.000000=129.125000
,425.000000=130.529007
,426.000000=129.309998
,427.000000=126.850006
,428.000000=128.205002
,429.000000=128.479996
,430.000000=130.623993
,431.000000=125.616005
,432.000000=129.770996
,433.000000=130.623993
,434.000000=129.403000
,435.000000=126.671005
,436.000000=127.029007
,437.000000=129.869995
,438.000000=130.623993
,439.000000=125.523003
,440.000000=129.776993
,441.000000=129.496002
,442.000000=130.529007
,443.000000=126.850006
,444.000000=128.113998
,445.000000=129.776993
,446.000000=128.388000
,447.000000=127.847000
,448.000000=129.682999
,449.000000=129.397003
,450.000000=130.535004
,451.000000=125.436005
,452.000000=129.964005
,453.000000=129.031998
,454.000000=127.931999
,455.000000=128.570999
,456.000000=129.218002
,457.000000=129.776993
,458.000000=131.964996
,459.000000=129.031998
,461.000000=129.125000
,462.000000=130.529007
,464.000000=128.755005
,465.000000=129.964005
,466.000000=128.662994
,467.000000=130.080994
,469.000000=128.639999
,471.000000=128.479996
,472.000000=130.199005
,474.000000=127.682007
,475.000000=128.824005
,476.000000=128.205002
,477.000000=131.291000
,479.000000=129.520004
,481.000000=127.568993
,482.000000=130.576996
,484.000000=129.660004
,485.000000=128.046005
,486.000000=127.931999
,487.000000=127.609009
,488.000000=129.218002
,489.000000=128.296997
,490.000000=128.067993
,491.000000=124.352005
,492.000000=129.776993
,493.000000=129.496002
,494.000000=125.873993
,495.000000=125.347992
,496.000000=128.479996
,497.000000=129.589996
,498.000000=128.205002
,499.000000=124.223999
,500.000000=129.356995
,502.000000=128.761002
,503.000000=124.999992
,504.000000=129.682999
,505.000000=126.227005
,506.000000=128.848007
,507.000000=128.662994
,508.000000=129.031998
,509.000000=126.227005
,510.000000=128.022995
,511.000000=127.118996
,512.000000=131.675003
,513.000000=126.227005
,514.000000=128.940002
,515.000000=128.570999
,516.000000=127.841003
,517.000000=127.479004
,518.000000=127.750000
,519.000000=122.605003
,520.000000=129.403000
,521.000000=127.841003
,522.000000=128.570999
,523.000000=127.841003
,524.000000=126.671005
,525.000000=128.113998
,526.000000=126.938995
,527.000000=127.439003
,528.000000=128.520004
,529.000000=127.796005
,530.000000=128.893997
,531.000000=125.304993
,532.000000=127.750000
,533.000000=128.141998
,534.000000=126.733002
,535.000000=127.529999
,536.000000=127.479004
,537.000000=129.031998
,538.000000=128.848007
,539.000000=126.442993
,540.000000=127.841003
,541.000000=126.989990
,542.000000=128.063004
,543.000000=127.496010
,544.000000=128.479996
,545.000000=129.014999
,546.000000=127.585999
,547.000000=126.582001
,548.000000=127.841003
,549.000000=126.582001
,550.000000=128.662994
,551.000000=125.896011
,552.000000=129.125000
,553.000000=126.984001
,555.000000=127.389008
,556.000000=127.750000
,557.000000=127.613998
,559.000000=124.567009
,560.000000=129.496002
,561.000000=126.961998
,563.000000=127.389008
,564.000000=127.727997
,565.000000=126.805000
,567.000000=126.205002
,568.000000=129.403000
,569.000000=126.403999
,571.000000=126.139000
,572.000000=129.031998
,573.000000=126.850006
,575.000000=127.297997
,576.000000=128.113998
,577.000000=127.613998
,579.000000=126.050003
,580.000000=129.125000
,581.000000=123.967010
,582.000000=123.620995
,583.000000=107.210999
,584.000000=108.540001
,588.000000=107.695999
,591.000000=109.000000
,592.000000=107.574997
,593.000000=108.875999
,595.000000=108.872002
,596.000000=107.820999
,597.000000=107.817001
,600.000000=108.547997
,604.000000=107.817001
,608.000000=108.490997
,612.000000=106.944000
,616.000000=109.273003
,624.000000=107.921997
,632.000000=108.490997
,640.000000=109.156998
,642.000000=107.864998
,646.000000=100.558998
,647.000000=90.370003
,648.000000=128.697998
,649.000000=128.692001
,651.000000=127.750000
,652.000000=129.964005
,653.000000=128.057007
,654.000000=128.050995
,655.000000=126.166008
,656.000000=129.414993
,659.000000=127.750000
,660.000000=128.662994
,661.000000=128.709000
,663.000000=126.210999
,664.000000=128.434006
,666.000000=129.171005
,667.000000=128.427994
,668.000000=128.205002
,669.000000=128.830002
,670.000000=128.824005
,671.000000=127.948997
,672.000000=128.393997
,673.000000=128.388000
,674.000000=128.940002
,675.000000=127.293007
,676.000000=129.218002
,677.000000=128.434006
,679.000000=126.182999
,680.000000=128.940002
,683.000000=126.582001
,684.000000=129.188995
,686.000000=129.182999
,687.000000=127.297997
,688.000000=128.503006
,690.000000=128.496994
,691.000000=127.869003
,692.000000=129.164993
,694.000000=129.160004
,695.000000=126.133003
,696.000000=128.979996
,698.000000=128.973999
,699.000000=127.546989
,700.000000=129.199997
,703.000000=126.099998
,704.000000=128.904999
,706.000000=128.899002
,707.000000=127.858002
,708.000000=128.554001
,710.000000=127.320999
,712.000000=130.000000
;
#STOPS:
;
#BGCHANGES:;
#KEYSOUNDS:;
#ATTACKS:;

//---------------dance-single - 2015----------------
#NOTES:
     dance-single:
     :
     Hard:
     14:
     0.887111,1.085842,0.965849,0.847742,1.161381,2366.000000,1992.000000,368.000000,323.000000,70.000000,123.000000,0.887111,1.085842,0.965849,0.847742,1.161381,2366.000000,1992.000000,368.000000,323.000000,70.000000,123.000000:
// measure 0
M000
M000
M000
M000
M000
M000
M000
M000
,  // measure 1
0M00
0M00
0M00
0M00
00M0
00M0
00M0
00M0
,  // measure 2
000M
000M
000M
000M
000M
000M
000M
000M
,  // measure 3
00M0
00M0
00M0
00M0
0M00
0M00
0M00
0M00
,  // measure 4
M000
M000
0200
0000
0320
0000
0032
0000
,  // measure 5
0000
0000
0000
0000
0000
0000
0000
0000
0000
0000
0000
0000
0000
0000
0000
0000
0023
0000
0000
0000
0000
0000
0000
0000
0000
0000
0000
0000
0000
0000
0000
0000
0230
0000
0000
0000
0000
0000
0000
0000
0000
0000
0000
0000
0000
0000
0000
0000
2300
0000
0000
0000
0000
0000
0000
0000
0000
0000
0000
0000
0000
0000
0000
3000
,  // measure 6
2000
3020
0230
0302
,  // measure 7
0000
0023
2030
3200
,  // measure 8
0302
0023
0230
2300
,  // measure 9
0000
3200
0320
0032
,  // measure 10
0023
0032
0000
0000
,  // measure 11
0000
0000
0000
0023
0000
0230
0000
2300
,  // measure 12
3200
0000
0000
0000
,  // measure 13
0000
0000
0000
0000
0000
0000
0000
0000
0000
0000
0000
0000
0320
0000
0000
0000
0000
0000
0000
0000
0032
0000
0000
0000
0000
0000
0000
0000
2003
0100
0010
0001
,  // measure 14
3110
0001
0010
0100
1000
0100
1000
0100
0010
0001
0010
0100
1000
0010
0100
0010
,  // measure 15
0001
0100
0001
1000
0100
0010
1000
0100
1000
0001
0010
0100
0001
1000
0100
0010
,  // measure 16
1000
0010
0100
0001
0110
0001
0100
0010
0101
1000
0100
0001
0110
1001
0110
1001
,  // measure 17
0100
0010
0001
0000
0000
0000
0001
0000
0000
0010
0000
0000
0001
0000
0000
0010
0000
0000
0100
0000
0000
1000
0000
0000
0100
0000
0000
0010
0000
0000
1000
0000
0000
0100
0000
0000
0001
0000
0000
0010
0000
0000
1000
0000
0000
0001
0000
0000
,  // measure 18
1110
0001
0010
1000
0100
0010
1000
0100
0001
1000
0010
1000
0100
0001
0010
0100
,  // measure 19
0010
0001
1000
0010
0100
0001
0010
1000
0001
0010
0100
0001
1000
0010
0100
0001
,  // measure 20
0010
1000
0100
0010
0001
1000
0001
0100
0010
0001
1000
0010
0100
0001
1000
0010
,  // measure 21
1000
0001
0100
0001
0010
0100
0001
0100
1000
0010
0100
0001
1000
0010
1000
0001
,  // measure 22
0110
0000
0000
0001
0000
0000
1100
0000
0000
0010
0000
0000
0101
0000
0000
0000
1001
0000
0000
0000
0101
0000
0000
0000
1010
0000
0000
0001
0000
0000
0100
0000
0000
0010
0000
0000
1000
0000
0000
0100
0000
0000
1000
0000
0000
0001
0000
0000
,  // measure 23
0100
0010
1000
0010
0100
0001
0010
1000
0100
0001
0010
0100
0001
1000
0010
0001
,  // measure 24
1010
0000
0000
0100
0000
0000
1001
0000
0000
0010
0000
0000
0101
0000
0000
0000
0011
0000
0000
0000
1001
0000
0000
0000
1010
0000
0000
0001
0000
0000
0010
0000
0000
1000
0000
0000
0001
0000
0000
0100
0000
0000
1000
0000
0000
0010
0000
0000
,  // measure 25
0101
1000
0001
0010
1100
0001
0100
0010
1001
0100
1000
0001
0110
1000
0010
0100
,  // measure 26
0011
1000
0001
0100
0010
0100
1000
0010
0001
0010
0100
0001
0100
1000
0010
0100
,  // measure 27
0001
1000
0100
0010
1000
0001
0100
0010
1000
0100
1000
0001
0010
0100
0010
0001
,  // measure 28
1000
0010
0100
1000
0001
0010
1000
0001
0100
1000
0001
0100
0010
0001
0100
1000
,  // measure 29
0001
0100
0001
0010
1000
0001
0010
1000
0100
0001
0010
0100
0010
1000
0001
0010
,  // measure 30
1001
0000
0000
0010
0000
0000
1100
0000
0000
0001
0000
0000
0110
0000
0000
0000
1100
0000
0000
0000
1001
0000
0000
0000
1010
0000
0000
0001
0000
0000
0010
0000
0000
1000
0000
0000
0001
0000
0000
0100
0000
0000
1000
0000
0000
0010
0000
0000
,  // measure 31
0001
0100
0001
1000
0100
0010
1000
0001
0010
0100
1000
0010
0001
0100
0001
0010
,  // measure 32
1100
0000
0000
0001
0000
0000
1010
0000
0000
0100
0000
0000
1001
0000
0000
0000
0110
0000
0000
0000
1100
0000
0000
0000
0011
0000
0000
0100
0000
0000
0001
0000
0000
1000
0000
0000
0010
0000
0000
0100
0000
0000
0001
0000
0000
0010
0000
0000
,  // measure 33
1001
0000
0100
0000
1000
0000
0010
0000
0101
0000
0010
0000
0001
0000
1000
0000
0110
0000
0001
0100
0010
0000
1100
0000
0011
0000
0100
0000
1000
0000
0100
0000
,  // measure 34
0011
0100
1000
0010
0001
0010
1000
0010
1000
0001
0110
0001
0100
1010
0001
0010
,  // measure 35
1001
0010
0001
0100
1010
0100
0010
0001
0110
1000
0100
0010
0101
1000
0001
0100
,  // measure 36
1010
0001
0100
1000
0010
0100
0001
0100
0010
1000
0011
1000
0110
0001
1010
0100
,  // measure 37
1001
0010
1000
0001
0110
1000
0001
0100
0010
0100
1001
0010
0100
0011
0100
1000
,  // measure 38
0101
0000
0000
0010
0000
0000
0001
0000
0000
1000
0000
0000
0010
0000
0000
1000
0000
0000
0100
0000
0000
0001
0000
0000
1010
0000
0000
0000
0100
0000
0000
0000
1001
0000
0000
0000
0010
0000
0000
0000
1100
0000
0000
0000
0001
0000
0000
0000
,  // measure 39
0110
0000
0000
1000
0000
0000
0010
0000
0000
0100
0000
0000
0001
0000
0000
0010
0000
0000
1000
0000
0000
0001
0000
0000
0110
0000
0000
0000
0001
0000
0000
0000
1100
0000
0000
0000
0001
0000
0000
0000
1010
0000
0000
0000
0100
0000
0000
0000
,  // measure 40
1001
0000
0000
0010
0000
0000
0100
0000
0000
0001
0000
0000
1000
0000
0000
0100
0000
0000
1000
0000
0000
0010
0000
0000
0101
0000
0000
0000
0010
0000
0000
0000
1001
0000
0000
0000
0100
0000
0000
0000
1010
0000
0000
0000
0100
0000
0000
0000
,  // measure 41
1001
0000
0100
0000
1000
0000
0001
0000
0110
0000
0001
0000
0010
0000
0100
0001
1010
0000
0100
0000
1010
0000
0001
0000
0110
0001
1000
0000
0001
0000
0100
0000
,  // measure 42
1001
0010
0100
0001
1000
0100
1000
0001
0100
0010
1000
0010
1000
0100
0001
1000
,  // measure 43
0100
0010
1000
0001
0010
0100
0001
0100
0010
0001
1000
0100
0010
0100
0001
0010
,  // measure 44
1000
0001
0010
0100
0001
1000
0010
1000
0001
0100
1000
0010
0100
0001
0010
1000
,  // measure 45
0001
0100
0010
1000
0010
0100
0001
0010
1000
0001
0100
0001
0010
0100
1000
0001
,  // measure 46
1010
0000
0000
0001
0000
0000
0110
0000
0000
1000
0000
0000
0101
0000
0000
0000
0011
0000
0000
0000
1100
0000
0000
0000
1001
0000
0000
0100
0000
0000
0001
0000
0000
0010
0000
0000
1000
0000
0000
0100
0000
0000
0001
0000
0000
0100
0000
0000
,  // measure 47
0010
0001
1000
0100
1000
0010
0001
0100
1000
0010
0100
1000
0001
0100
0010
0001
,  // measure 48
1010
0000
0000
0001
0000
0000
1100
0000
0000
0001
0000
0000
0110
0000
0000
0000
1010
0000
0000
0000
1001
0000
0000
0000
0011
0000
0000
0100
0000
0000
0010
0000
0000
1000
0000
0000
0100
0000
0000
0001
0000
0000
1000
0000
0000
0010
0000
0000
,  // measure 49
0101
1000
0010
0100
1001
0010
0001
0100
1010
0001
0010
1000
0110
0001
1000
0100
,  // measure 50
1001
0010
0100
0001
1000
0010
0001
0100
0010
1000
0100
0001
0010
0100
0001
1000
,  // measure 51
0100
1000
0001
0100
0010
0100
0001
0010
0100
1000
0010
1000
0100
0001
1000
0010
,  // measure 52
1000
0100
0010
0100
0001
0010
1000
0001
0100
0010
0001
1000
0010
1000
0001
0100
,  // measure 53
0010
0100
0001
1000
0100
0010
1000
0001
0010
0100
0001
1000
0100
0001
1000
0010
,  // measure 54
0101
0000
0000
1000
0000
0000
0011
0000
0000
0100
0000
0000
1010
0000
0000
0000
0101
0000
0000
0000
1001
0000
0000
0000
0110
0000
0000
0001
0000
0000
0010
0000
0000
1000
0000
0000
0100
0000
0000
0010
0000
0000
1000
0000
0000
0001
0000
0000
,  // measure 55
0010
0001
0100
0010
1000
0100
0001
1000
0001
0010
0001
0100
0010
0100
0001
1000
,  // measure 56
0110
0000
0000
0001
0000
0000
1010
0000
0000
0001
0000
0000
1100
0000
0000
0000
0101
0000
0000
0000
1001
0000
0000
0000
1010
0000
0000
0001
0000
0000
0100
0000
0000
1000
0000
0000
0010
0000
0000
0100
0000
0000
0001
0000
0000
1000
0000
0000
,  // measure 57
0101
0010
0001
1000
0110
0001
0010
0100
1010
0001
1000
0100
1001
0100
0010
0001
,  // measure 58
0110
0000
0000
0000
0000
0000
1000
0000
0000
0011
0000
0000
0000
0000
0000
0000
0000
0000
0010
0000
0000
0100
0000
0000
0110
0000
0000
0000
0000
0000
0000
0000
1001
0000
0000
0000
0000
0000
0000
0000
0101
0000
0000
0000
0000
0000
0000
0000
,  // measure 59
0220
0332
0023
0230
,  // measure 60
1310
0000
0000
0000
0000
0000
0100
0000
0000
1001
0000
0000
0000
0000
0000
0000
0000
0000
0100
0000
0000
0010
0000
0000
0011
0000
0000
0000
0000
0000
0000
0000
0101
0000
0000
0000
0000
0000
0000
0000
1001
0000
0000
0000
0000
0000
0000
0000
,  // measure 61
2020
3032
0023
0230
,  // measure 62
0311
0000
0100
0000
0001
0000
2100
0000
3020
0000
2030
0000
,  // measure 63
3102
0023
0230
2000
,  // measure 64
3312
0000
0203
0000
0302
0000
2013
0000
3201
0000
1320
0000
,  // measure 65
0132
0000
0000
0000
2003
0000
0000
0000
3200
1000
0000
1000
0320
0100
0001
1000
,  // measure 66
0131
0000
0000
0000
0000
0000
0001
0000
0000
1010
0000
0000
0000
0000
0000
0000
0000
0000
0100
0000
0000
1000
0000
0000
1010
0000
0000
0000
0000
0000
0000
0000
1001
0000
0000
0000
0000
0000
0000
0000
0101
0000
0000
0000
0000
0000
0000
0000
,  // measure 67
0021
0230
0302
2003
,  // measure 68
3101
0000
0000
0000
0000
0000
0001
0000
0000
0110
0000
0000
0000
0000
0000
0000
0000
0000
0100
0000
0000
0001
0000
0000
1001
0000
0000
0000
0000
0000
0000
0000
0011
0000
0000
0000
0000
0000
0000
0000
1100
0000
0000
0000
0000
0000
0000
0000
,  // measure 69
0210
0302
2003
3002
,  // measure 70
0113
0000
1000
0000
0010
0000
0102
0000
1203
0000
0321
0000
,  // measure 71
2031
3200
0320
0002
,  // measure 72
2133
0000
3200
0000
0302
0000
0213
0000
1320
0000
0132
0000
,  // measure 73
2013
0000
0000
0000
0000
0000
0000
0000
0000
0000
0000
0000
0000
0000
0000
0000
3200
0000
0000
0000
0000
0000
0000
0000
0000
0000
0000
0000
0000
0000
0000
0000
0320
0000
0000
0000
0100
0000
0000
0000
0000
0000
0000
0000
0100
0000
0000
0000
0032
0000
0000
0000
1000
0000
0000
0000
0010
0000
0000
0000
0100
0000
0000
0003
,  // measure 74
0011
0100
0001
1000
0100
0001
1000
0010
1000
0100
0001
0010
1000
0001
0100
0010
,  // measure 75
0001
0100
1000
0100
0010
1000
0001
0100
1000
0010
0100
0001
0010
1000
0001
0010
,  // measure 76
0100
0001
0010
1000
0100
0010
0001
0100
0010
1000
0001
0100
1000
0010
0100
0010
,  // measure 77
0001
0100
0010
1000
0001
0010
1000
0001
0100
0010
0001
1000
0010
0001
0100
0010
,  // measure 78
0100
0001
0010
0100
1000
0100
0001
0010
1000
0001
0100
0010
0100
1000
0100
0010
,  // measure 79
1000
0001
0010
0001
0100
1000
0001
0010
1000
0100
0001
1000
0010
0100
0010
0001
,  // measure 80
1000
0010
0100
1000
0100
0001
1000
0010
1000
0001
0100
1000
0010
0100
1000
0001
,  // measure 81
1010
0100
0010
0001
0110
1000
0001
0100
0011
0100
0001
0010
0101
1000
0001
0100
,  // measure 82
1010
0100
0010
0100
0001
1000
0100
0001
0100
0010
1000
0001
0010
1000
0001
0100
,  // measure 83
0001
0010
1000
0001
0100
0010
0100
1000
0001
1000
0010
0001
1000
0100
0010
1000
,  // measure 84
0100
0001
0010
1000
0001
0100
1000
0010
0100
0001
0100
1000
0001
0100
0010
0100
,  // measure 85
1000
0010
0100
0001
0010
1000
0001
0100
1000
0010
1000
0001
0010
0100
1000
0001
,  // measure 86
0100
0010
0001
0010
0100
0001
1000
0100
1000
0010
0100
0010
1000
0001
0100
0010
,  // measure 87
1000
0001
0010
0100
0010
1000
0001
0100
0010
1000
0100
0001
1000
0010
1000
0100
,  // measure 88
0010
0100
0010
1000
0001
0010
0100
0001
0100
0010
0001
1000
0010
0100
0010
0001
,  // measure 89
1000
0010
1000
0100
0010
1000
0001
0010
1001
0100
0001
0010
1100
0001
0010
0100
,  // measure 90
0012
0000
0000
0000
0003
0000
0101
1000
0011
0000
1001
0000
0101
0010
1000
0000
,  // measure 91
2001
0010
0100
0000
0000
0000
0001
0000
0000
0110
0000
0000
0000
0000
0000
0100
0000
0000
3011
0000
0000
0000
0000
0000
2000
0000
0000
0100
0000
0000
0010
0000
0000
0000
0000
0000
3002
0000
0000
0010
0000
0000
0100
0000
0000
0010
0000
0000
,  // measure 92
1203
0000
0000
0000
0300
0000
1010
0100
1001
0000
0110
0000
0011
0100
1000
0000
,  // measure 93
1002
0100
0010
0000
0000
0000
0010
0000
0000
1100
0000
0000
0000
0000
0000
0100
0000
0000
1010
0000
0000
0000
0000
0000
0003
0000
0000
0000
0000
0000
0000
0000
0000
0000
0000
0000
0020
0000
0000
0000
0000
0000
0100
0000
0000
1000
0000
0000
,  // measure 94
0230
0000
0010
0000
0301
1000
0020
0100
2030
0100
0010
0000
0001
0000
3002
0000
,  // measure 95
0203
0000
0320
0000
0032
0000
0023
0000
0230
1000
0010
0000
0320
0000
0230
0010
,  // measure 96
2300
0000
0100
0000
0100
0010
3200
0000
0320
1000
0230
0000
0302
0000
0203
0000
,  // measure 97
2310
0100
0001
0000
0000
0000
3010
0000
0000
0102
0000
0000
0000
0000
0000
0103
0000
0000
2010
0000
0000
0000
0000
0000
3000
0000
0000
0010
0000
0000
0100
0000
0000
0001
0000
0000
1000
0000
0000
0010
0000
0000
0001
0000
0000
0100
0000
0000
,  // measure 98
0021
0000
0031
2000
0100
3000
0002
0100
0013
1000
0200
0010
1302
0100
0023
0100
,  // measure 99
2030
0000
0010
3200
0001
0000
0302
1000
0020
0230
0300
0200
1320
0230
0320
0230
,  // measure 100
2303
0000
3100
0002
0100
0000
0023
0100
0001
0100
0032
1000
0023
0100
2030
0001
,  // measure 101
3200
0000
0301
0020
0100
0030
0002
0000
0020
0230
0300
0200
1320
0230
2300
3020
,  // measure 102
2033
0000
0100
0010
3200
0000
0320
0100
1000
0001
0230
1000
0302
0100
0023
0100
,  // measure 103
0031
0010
0100
1000
0200
0000
1000
0001
0010
0000
0320
0100
2030
0100
3020
0000
,  // measure 104
0130
0010
1000
0010
0002
0000
0100
1000
0010
0000
0023
1000
0230
0001
0320
0100
,  // measure 105
2030
0000
0000
0000
0000
0000
3100
0000
0000
0002
0000
0000
0010
0000
0000
0000
0000
0000
1003
0000
0000
0010
0000
0000
0100
0000
0000
0000
0000
0000
0001
0000
0000
0100
0000
0000
1000
0000
0000
0001
0100
0000
1000
0000
0010
0000
0001
0000
,  // measure 106
1200
0000
0000
0000
0000
0000
0000
0000
0000
0000
0000
0000
0010
0000
0000
0010
0000
0000
0010
0000
0000
0010
0000
0000
0010
0000
0000
0010
0000
0000
0010
0000
0000
0010
0000
0000
0320
0000
0000
0001
0000
0000
0001
0000
0100
0000
1000
0000
,  // measure 107
0032
0000
0000
0023
0000
0000
2030
0000
0000
3020
0000
0000
0132
0000
0000
0100
0000
0000
0100
0000
0000
0100
0000
0000
0100
0000
0000
0100
0000
0000
0100
0000
0000
0100
0000
0000
0203
0000
0000
0010
0000
0000
0010
0000
0001
0000
0010
0000
,  // measure 108
2300
0000
0000
0000
0000
0000
0000
0000
0000
0000
0000
0000
0001
0000
0000
0001
0000
0000
0001
0000
0000
0001
0000
0000
0001
0000
0000
0001
0000
0000
0001
0000
0000
0001
0000
0000
3002
0000
0000
0010
0000
0000
0010
0000
1000
0000
0100
0000
,  // measure 109
0023
0000
0000
0230
0000
0000
0320
0000
0000
2030
0000
0000
3120
0000
0000
0100
0000
0000
0100
0000
0000
0100
0000
0000
0100
0000
0000
0100
0000
0000
0100
0000
0000
0100
0000
0000
0230
0000
0000
0010
0000
0000
0010
0000
0001
0000
1000
0000
,  // measure 110
0320
0000
0000
0000
0000
0000
0000
0000
0000
0000
0000
0000
1000
0000
0000
1000
0000
0000
1000
0000
0000
1000
0000
0000
1000
0000
0000
1000
0000
0000
1000
0000
0000
1000
0000
0000
2030
0000
0000
0100
0000
0000
0100
0000
0010
0000
0100
0000
,  // measure 111
3002
0000
0000
2003
0000
0000
3020
0000
0000
0230
0000
0000
0321
0000
0000
0001
0000
0000
0001
0000
0000
0001
0000
0000
0001
0000
0000
0001
0000
0000
0231
0000
0000
0001
0000
0000
1000
0000
0000
0010
0000
0000
0302
0000
0100
0000
0010
0000
,  // measure 112
2103
0000
0000
0000
0000
0000
0000
0000
0000
0000
0000
0000
0100
0000
0000
0100
0000
0000
0100
0000
0000
0100
0000
0000
0100
0000
0000
0100
0000
0000
0100
0000
0000
0100
0000
0000
3200
0000
0000
1000
0000
0000
0010
0000
1000
0000
0001
0000
,  // measure 113
0320
0000
0000
0230
0000
0000
0302
0000
0000
0000
0000
0000
0010
0000
0000
0010
0000
0000
0010
0000
0000
0010
0000
0000
2003
0000
0000
0000
3200
0000
0000
0000
0320
0000
0000
0000
0032
0000
0000
0000
0203
0000
1000
0000
0320
0000
0001
0000
,  // measure 114
2130
0000
0100
0000
0100
0000
0000
0100
,  // measure 115
3200
0000
0010
0000
0321
1000
0001
0000
0001
1000
0000
1001
0000
0000
0000
0000
,  // measure 116
0000
0000
0000
0000
0100
0000
0000
0000
0032
0000
0100
0000
0010
0000
0100
1000
0023
0000
0000
0000
0230
0000
0000
0000
0302
0000
0000
0000
2003
0000
0000
0000
,  // measure 117
3020
0000
0000
0000
0000
0000
1000
0000
0230
0000
0010
0000
0302
0010
0100
0010
,  // measure 118
1000
0000
0000
0000
0000
0000
0000
0003
0002
0000
0000
0000
0010
0000
0000
0000
0100
0000
0000
0000
0010
0000
0000
0000
1000
0000
0000
0000
0000
0000
0000
0003
0002
0000
0000
0000
0010
0000
0000
0000
0100
0000
0000
0000
0010
0000
0000
0000
2003
0000
0000
0000
0100
0000
0000
0000
0001
0000
0000
0000
0100
0000
0001
0000
,  // measure 119
3020
0100
1000
0000
1000
0100
0000
1001
0000
0000
0000
0000
0000
0000
0100
0000
,  // measure 120
0230
0001
0320
0032
0023
0000
0100
0000
,  // measure 121
0000
0000
0000
0000
0000
0000
0000
0000
0000
0000
0000
0000
0000
0000
0000
0000
0000
0000
0000
0000
0000
0000
0000
0000
0000
0000
0000
0000
0000
0000
0000
0000
0000
0000
0000
0000
0000
0000
0000
0000
0000
0000
0000
0000
0000
0000
0000
0000
0101
0000
0000
0000
0000
0000
0000
0000
0000
0000
0000
0000
1000
0000
0000
0000
0000
0000
0000
0000
0000
0000
0000
0000
0101
0000
0000
0000
0000
0000
0000
0000
0000
0000
0000
0000
1000
0000
0000
0000
0000
0000
0100
0000
0000
0000
0000
0000
0031
0000
0000
0000
0000
0000
0000
0000
0000
0000
0000
0000
0000
0000
0000
0000
0010
0000
0000
0000
0000
0000
0000
0000
0000
0000
0000
0000
0000
0000
0000
0000
0100
0000
0000
0000
0000
0000
0000
0000
0000
0000
0000
0000
0000
0000
0000
0000
1000
0000
0000
0000
0000
0000
0000
0000
0000
0000
0000
0000
0000
0000
0000
0000
0100
0000
0000
0000
0000
0000
0000
0000
0000
0000
0000
0000
0000
0000
0000
0000
0010
0000
0000
0000
0000
0000
0000
0000
0000
0000
0000
0000
0000
0000
0000
0000
,  // measure 122
1010
0000
0000
1001
0000
0000
0101
0000
0000
0000
0000
0000
0001
0100
0010
0100
,  // measure 123
0011
0000
0010
0110
0000
0100
1100
0000
0000
0000
0000
0000
1000
0100
1000
0001
,  // measure 124
0110
0000
0000
1010
0000
0000
1001
0000
0000
0000
0000
0000
0100
0010
1000
0010
,  // measure 125
0101
0010
1000
0000
0000
0000
0010
0000
0000
0011
0000
0000
0000
0000
0000
1000
0000
0000
1010
0100
0001
0000
0000
0000
0000
0000
0000
0001
0000
0000
0001
0000
0000
0000
0000
0000
0010
0000
0000
0100
0000
0000
0010
0000
0000
0001
0000
0000
,  // measure 126
1100
0000
0000
0000
0000
0000
1100
0011
1100
0000
1100
0000
0000
0000
0000
0000
,  // measure 127
0011
1100
0011
0000
0000
0000
0011
0000
0011
0000
0011
0000
0011
2200
0000
0300
,  // measure 128
3110
0000
0000
0000
0000
0000
0110
1001
0110
0000
0110
0000
0000
0000
0000
0000
,  // measure 129
1001
0000
0000
0110
0000
0000
1001
0000
0000
0000
0000
0000
0000
0000
0000
0000
0000
0000
1001
0000
0000
0000
0000
0000
1001
0000
0000
0000
0000
0000
1001
0000
0000
0000
0000
0000
1001
0000
0000
0110
0000
0000
1000
0000
0010
0000
0001
0000
,  // measure 130
0200
0000
0000
0000
0010
0000
1000
0000
0011
0000
0000
0000
0001
0000
1000
0000
0000
0000
1000
0000
0320
0000
0100
0000
1001
0000
0000
0000
0001
0000
0130
0010
,  // measure 131
0002
0000
0000
0000
0000
0000
0010
0000
0000
0100
0000
0000
1010
0000
0000
0000
0000
0000
0100
0000
0000
0010
0000
0000
1000
0000
0000
0000
0000
0000
1000
0000
0000
0000
0000
0000
1103
0000
0000
0010
0000
0000
0001
0000
0100
0000
0010
0000
,  // measure 132
2000
0000
0010
0100
0011
0000
0001
0100
0000
0010
3200
0010
1001
0000
0310
0100
,  // measure 133
0010
0000
0000
0000
0000
0000
1000
0000
0000
0000
0000
0000
0002
0000
0000
0000
0000
0000
0000
0000
0000
0000
0000
0000
0100
0000
0000
0000
0000
0000
0000
0000
0000
0000
0000
0000
1000
0000
0000
0000
0000
0000
0000
0000
0000
0000
0000
0000
0110
0000
0000
0000
0000
0000
0000
0000
0000
0000
0000
0000
0000
0000
0000
0000
0000
0000
0000
0000
0000
0000
0000
0000
1000
0000
0000
0000
0000
0000
0000
0000
0000
0000
0000
0000
0100
0000
0000
0000
0000
0000
0000
0000
0000
0000
0000
0000
0010
0000
0000
0000
0000
0000
0000
0000
0000
0000
0000
0000
0000
0000
0000
0000
0000
0000
0000
0000
0000
0000
0000
0000
0010
0000
0000
0000
0000
0000
0000
0000
0000
0000
0000
0000
0000
0000
0000
0000
0000
0000
0000
0000
0000
0000
0000
0000
1013
0000
0000
0000
0000
0000
0000
0000
0000
0000
0000
0000
0100
0000
0000
0000
0000
0000
0000
0000
0000
0000
0000
0000
1000
0000
0000
0000
0000
0000
0000
0000
0001
0000
0000
0000
0000
0000
0000
0000
1000
0000
0000
0000
0000
0000
0000
0000
,  // measure 134
0020
0000
0000
0000
0100
0000
1000
0000
0101
0000
0000
0000
0001
0000
1000
0000
0001
0000
0000
0000
0130
1000
0002
0000
0110
0000
0000
0000
0003
0000
1000
0010
,  // measure 135
1000
0000
0000
0000
0000
0000
0100
0000
0000
0000
0000
0000
0020
0000
0000
0000
0000
0000
0000
0000
0000
0000
0000
0000
0000
0000
0000
0000
0000
0000
0000
0000
0000
0000
0000
0000
0100
0000
0000
0000
0000
0000
0000
0000
0000
0000
0000
0000
1001
0000
0000
0000
0000
0000
0000
0000
0000
0000
0000
0000
0000
0000
0000
0000
0000
0000
0000
0000
0000
0000
0000
0000
0001
0000
0000
0000
0000
0000
0000
0000
0000
0000
0000
0000
0100
0000
0000
0000
0000
0000
0000
0000
0000
0000
0000
0000
1000
0000
0000
0000
0000
0000
0000
0000
0000
0000
0000
0000
0000
0000
0000
0000
0000
0000
0000
0000
0000
0000
0000
0000
0100
0000
0000
0000
0000
0000
0000
0000
0000
0000
0000
0000
0000
0000
0000
0000
0000
0000
0000
0000
0000
0000
0000
0000
0131
0000
0000
0000
0000
0000
0000
0000
0000
0000
0000
0000
0001
0000
0000
0000
0000
0000
0000
0000
0000
0000
0000
0000
0100
0000
0000
0000
0000
0000
0000
0000
0001
0000
0000
0000
0000
0000
0000
0000
0010
0000
0000
0000
0000
0000
0000
0000
,  // measure 136
2000
0000
0100
0010
0101
0000
0010
0001
0100
0000
3200
0010
1001
0000
0320
0230
,  // measure 137
1300
0010
0002
0000
0000
0000
0010
0000
1100
0000
0000
0000
1000
0000
0100
0000
1010
0000
0010
0000
1103
0000
0000
0000
2010
0000
0000
0000
0100
0000
0001
0000
,  // measure 138
3110
0000
1000
0010
0000
0001
0000
1001
0000
1000
0000
0001
0110
0000
0010
0000
,  // measure 139
0101
0000
0001
0000
0011
1000
0000
0010
0000
0100
0010
0000
1100
0000
0001
1000
,  // measure 140
0101
0000
0100
0011
0000
0001
0000
1100
0000
0010
0000
1000
0110
0000
1000
0000
,  // measure 141
1010
0000
0100
0000
0011
1000
0000
0100
0000
0010
0001
0000
1001
0010
0100
0000
,  // measure 142
0101
0000
0010
1100
0000
1000
0000
1001
0000
0100
0010
0001
0110
0000
1000
0000
,  // measure 143
0011
0000
0100
0000
1001
0010
0000
1010
0000
0100
0010
0000
1001
0000
0100
1001
,  // measure 144
0110
0000
0010
1100
0000
0001
0000
1001
0000
1000
0000
1000
0101
0000
0010
0000
,  // measure 145
1001
0000
0000
0000
0000
0000
0001
0000
0000
0000
0000
0000
0011
0000
0000
0100
0000
0000
0000
0000
0000
0010
0000
0000
2000
0000
0000
0000
3200
0000
0000
0000
0320
0000
0000
0000
0230
0000
0000
0320
0000
0000
0230
0000
0000
0302
0000
0000
,  // measure 146
2103
0010
0100
0010
0001
0000
0010
0000
3200
0000
1000
0000
0001
0000
0010
1000
,  // measure 147
0010
1000
0010
1000
0320
0000
0100
0000
0230
0000
0001
0000
0302
0000
1000
0100
,  // measure 148
1023
0001
2130
0010
3002
0000
0203
0000
0320
0000
0100
0000
1000
0000
0100
0001
,  // measure 149
1000
0001
0100
1000
0032
0000
0100
0000
0023
0000
0100
0000
1000
0000
0231
0010
,  // measure 150
2301
0100
0010
0001
0100
0000
0001
0000
3020
0000
0100
0000
1000
0000
0100
0001
,  // measure 151
1000
0100
0001
1000
0230
0000
0001
0000
0302
0000
0010
0000
0100
0000
0123
0001
,  // measure 152
2130
0010
0100
0001
0010
0000
0001
0000
0100
0000
0010
0000
0100
0000
0010
0001
,  // measure 153
0100
0010
0001
0010
3200
0000
1000
0000
0320
0000
0100
0000
0032
0000
0100
0000
,  // measure 154
2013
0100
0010
3200
1302
0010
0100
2003
,  // measure 155
3120
0001
1230
0010
0321
1000
0132
0010
,  // measure 156
2103
0010
0100
3020
1032
0010
0100
0010
,  // measure 157
1000
0100
1023
0100
2031
0010
3120
1000
,  // measure 158
0231
0010
1000
0320
0132
1000
0100
2003
,  // measure 159
3012
0100
0213
0001
1320
0100
2031
0010
,  // measure 160
3201
0000
0000
0010
0302
0000
0010
0000
2003
0100
0000
0000
3020
0000
0000
0100
0000
0000
1000
0000
0000
0001
0000
0000
,  // measure 161
1000
0000
0000
0000
0000
0000
0100
0000
0000
0000
0000
0000
0032
0000
0000
0000
0000
0000
0010
0000
0000
0000
0000
0000
0213
0000
0000
1000
0000
0000
0001
0000
0000
0010
0000
0000
1001
0000
0010
0000
1000
0000
0001
0000
0000
0000
0000
0000
,  // measure 162
1311
0100
0001
0000
0000
0000
0000
0000
0000
0110
0000
0000
1202
0000
0000
0000
0000
0000
0000
0000
0000
0000
0000
0000
0000
0000
0000
0000
0000
0000
0000
0000
0000
0000
0000
0000
0303
0000
0000
0000
0000
0000
0101
0000
0000
0101
0000
0000
,  // measure 163
0202
0000
0000
0300
0000
0000
0223
0000
0000
0300
0000
0000
2230
0000
0000
3000
0000
0000
2302
0000
0000
0103
0010
0100
,  // measure 164
3011
0100
1000
0000
0000
0000
0000
0000
0000
1100
0000
0000
1022
0000
0000
0000
0000
0000
0000
0000
0000
0000
0000
0000
0000
0000
0000
0000
0000
0000
0000
0000
0000
0000
0000
0000
0000
0000
0000
0000
0000
0000
1133
0000
0000
1100
0000
0000
,  // measure 165
2200
0000
0000
0300
0000
0000
3220
0000
0000
0030
0000
0000
0322
0000
0000
0030
0000
0000
2023
0000
0000
3100
0001
0100
,  // measure 166
1031
0010
0100
0000
0000
0000
0001
0000
0000
1100
0000
0000
0000
0000
0000
0100
0000
0000
1001
0000
0000
0000
0000
0000
1020
0000
0000
0000
0000
0000
0000
0000
0000
2031
0000
0000
0000
0000
0000
0000
0000
0000
3210
0000
0000
0000
0000
0000
,  // measure 167
0312
0000
0000
0000
0000
0000
2003
0000
0000
0000
0000
0000
3002
0000
0000
0000
0000
0000
2000
0000
0000
0010
0100
0010
,  // measure 168
3113
1000
0001
0000
0000
0000
1000
0000
0000
0101
0000
0000
0000
0000
0000
0010
0000
0000
1001
0000
0000
0000
0000
0000
1020
0000
0000
0000
0000
0000
0000
0000
0000
0032
0000
0000
0000
0000
0000
0000
0000
0000
0203
0000
0000
0000
0000
0000
,  // measure 169
2310
0000
0000
0000
0000
0000
3200
0000
0000
0000
0000
0000
0302
0000
0000
0000
0000
0000
0023
0000
0000
0100
1000
0001
,  // measure 170
1130
1100
0000
1100
0000
0011
0000
0011
,  // measure 171
1001
0101
1001
0000
0000
0000
0001
0010
0001
0000
0000
1000
0000
0000
0001
0000
,  // measure 172
1010
1010
0000
1010
0000
0101
0000
0101
,  // measure 173
0110
1010
0110
0000
0000
0000
0100
0001
0010
0000
0000
1000
0000
0000
0100
0000
,  // measure 174
1001
1100
0000
1100
0000
1010
0000
1010
,  // measure 175
1100
0101
1100
0000
0000
0000
0010
0100
0001
0000
0000
0010
0000
0000
1000
0000
,  // measure 176
1001
0101
0000
0101
0000
0110
0000
0110
,  // measure 177
1010
0000
0000
0011
0000
0000
1010
0000
0000
0000
0000
0000
1000
0000
0000
0000
0000
0000
0100
0000
0000
0000
0000
0000
1010
0001
0100
0000
0000
0000
0010
0000
0000
1000
0000
0000
0000
0000
0000
0100
0000
0000
0001
0000
0000
0000
0000
0000
,  // measure 178
2222
0000
0000
0000
,  // measure 179
0000
0000
0000
0000
0000
0000
0000
0000
0000
0000
0000
0000
0000
0000
0000
0000
0000
0000
0000
0000
0000
0000
0000
0000
0000
0000
0000
0000
0000
0000
0000
0000
0000
0000
0000
0000
0000
0000
0000
0000
0000
0000
0000
0000
0000
0000
0000
0000
0000
0000
0000
0000
0000
0000
0000
0000
0000
0000
0000
0000
0000
0000
0000
3333
,  // measure 180
M000
0000
0M00
0000
00M0
0000
000M
00M0
0000
000M
0000
00M0
000M
0000
00M0
0000
,  // measure 181
M000
0000
0M00
0000
00M0
0000
000M
00M0
0000
000M
0000
00M0
000M
0000
00M0
0000
,  // measure 182
M000
0000
0M00
0000
00M0
0000
000M
00M0
0000
000M
0000
00M0
000M
0000
00M0
0000
,  // measure 183
M000
0000
0M00
0000
00M0
0000
000M
00M0
0000
000M
0000
00M0
000M
0000
00M0
0000
;
