#TITLE:Light and Darkness;
#SUBTITLE:Terranigma (1996);
#ARTIST:Miyoko Kobayashi, Masanori Hikichi;
#TITLETRANSLIT:;
#SUBTITLETRANSLIT:;
#ARTISTTRANSLIT:;
#GENRE:;
#CREDIT:;
#BANNER:soulblazersucksthisgamerules-bn.png;
#BACKGROUND:soulblazersucksthisgamerules-bg.png;
#LYRICSPATH:;
#CDTITLE:!cdtitle.png;
#MUSIC:Light and Darkness.ogg;
#OFFSET:-0.002333;
#SAMPLESTART:24.278999;
#SAMPLELENGTH:15.000000;
#SELECTABLE:YES;
#BPMS:0.000000=88.713997
,1.000000=87.955002
,3.000000=87.677002
,4.000000=87.933998
,5.000000=87.848000
,7.000000=87.933998
,8.000000=88.106003
,9.000000=87.848000
,11.000000=87.378998
,12.000000=88.192001
,13.000000=87.677002
,15.000000=88.278999
,16.000000=88.321999
,17.000000=87.654999
,19.000000=87.209000
,20.000000=91.884003
,21.000000=86.093002
,23.000000=87.955002
,24.000000=88.348999
,26.000000=85.892998
,27.000000=88.046997
,28.000000=93.046997
,30.000000=72.442001
,34.000000=108.613998
,35.000000=111.180000
,36.000000=112.323997
,38.000000=113.492996
,39.000000=111.593002
,40.000000=112.376999
,42.000000=112.606003
,43.000000=112.010002
,44.000000=111.196999
,45.000000=112.922997
,47.000000=112.044998
,49.000000=112.446999
,51.000000=113.208000
,52.000000=111.317001
,54.000000=114.105003
,55.000000=111.593002
,56.000000=112.342003
,58.000000=113.153999
,59.000000=111.663002
,60.000000=111.801003
,61.000000=105.293999
,63.000000=100.083000
,65.000000=97.455002
,66.000000=88.165001
,70.000000=90.703003
,72.000000=94.662003
,74.000000=95.769997
,76.000000=94.836998
,78.000000=95.694000
,80.000000=94.762001
,82.000000=95.099998
,84.000000=95.987000
,86.000000=94.762001
,88.000000=94.987000
,90.000000=95.898003
,92.000000=95.219002
,94.000000=94.887001
,96.000000=94.920998
,98.000000=94.787003
,100.000000=95.779999
,102.000000=95.453003
,106.000000=95.037003
,110.000000=95.150002
,114.000000=100.749001
,115.000000=100.745003
,117.000000=98.839996
,118.000000=101.751999
,119.000000=102.797997
,120.000000=101.751999
,121.000000=103.806000
,122.000000=101.180000
,123.000000=103.152000
,124.000000=102.681000
,125.000000=103.093002
,126.000000=104.226997
,127.000000=104.894997
,128.000000=106.070000
,129.000000=105.139999
,130.000000=104.045998
,131.000000=105.634003
,132.000000=103.686996
,133.000000=103.544998
,134.000000=108.023003
,136.000000=108.018997
,137.000000=104.287003
,138.000000=108.531998
,139.000000=108.528000
,141.000000=106.697998
,142.000000=107.917999
,144.000000=107.462997
,145.000000=107.459000
,146.000000=108.080002
,147.000000=108.075996
,148.000000=101.336998
,150.000000=97.986000
,153.000000=98.093002
,154.000000=97.421997
,155.000000=97.418999
,157.000000=92.212997
,158.000000=105.571999
,159.000000=101.237000
,160.000000=87.869003
,162.000000=55.012001
,166.000000=54.945000
,170.000000=55.266998
,171.000000=54.745998
,172.000000=54.953999
,173.000000=54.754002
,174.000000=55.013000
,175.000000=54.846001
,176.000000=55.284000
,177.000000=54.580002
,178.000000=55.299000
,179.000000=54.627998
,180.000000=55.181000
,181.000000=54.810001
,182.000000=55.029999
,183.000000=54.728001
,184.000000=55.046001
,185.000000=54.720001
,186.000000=55.112999
,187.000000=54.660999
,188.000000=55.181000
,189.000000=54.778000
,190.000000=55.283001
,191.000000=54.710999
,192.000000=55.096001
,193.000000=54.877998
,194.000000=54.761002
,195.000000=54.979000
,196.000000=55.080002
,197.000000=54.645000
,198.000000=55.317001
,199.000000=54.595001
,200.000000=55.231998
,201.000000=54.761002
,202.000000=55.063000
,203.000000=54.793999
,204.000000=54.845001
,205.000000=55.130001
,206.000000=54.910999
,208.000000=55.080002
,209.000000=54.710999
,210.000000=54.845001
,211.000000=54.861000
,212.000000=55.265999
,213.000000=54.216999
,214.000000=55.606998
,215.000000=54.845001
,216.000000=55.112999
,217.000000=54.645000
,218.000000=54.827999
,219.000000=55.198002
,220.000000=54.952999
,224.000000=54.793999
,226.000000=54.991001
,227.000000=54.790001
,228.000000=55.266998
,229.000000=54.745998
,230.000000=54.953999
,231.000000=54.754002
,232.000000=55.013000
,233.000000=54.846001
,234.000000=55.284000
,235.000000=54.580002
,236.000000=55.299000
,237.000000=54.627998
,238.000000=55.181000
,239.000000=54.810001
,240.000000=55.029999
,241.000000=54.728001
,242.000000=55.046001
,243.000000=54.720001
,244.000000=55.112999
,245.000000=54.660999
,246.000000=55.181000
,247.000000=54.778000
,248.000000=55.283001
,249.000000=54.710999
,250.000000=55.096001
,251.000000=54.877998
,252.000000=54.761002
,253.000000=54.979000
,254.000000=55.080002
,255.000000=54.645000
,256.000000=55.317001
,257.000000=54.595001
,258.000000=55.231998
,259.000000=54.761002
,260.000000=55.063000
,261.000000=54.793999
,262.000000=54.845001
,263.000000=55.130001
,264.000000=54.910999
,266.000000=55.080002
,267.000000=54.710999
,268.000000=54.845001
,269.000000=54.861000
,270.000000=55.265999
,271.000000=54.216999
,272.000000=55.606998
,273.000000=54.845001
,274.000000=55.112999
,275.000000=54.645000
,276.000000=54.827999
,277.000000=55.198002
,278.000000=54.952999
,282.000000=54.793999
,284.000000=54.991001
,285.000000=54.790001
,286.000000=55.266998
,287.000000=54.745998
,288.000000=54.953999
,289.000000=54.754002
,290.000000=55.013000
,291.000000=54.846001
,292.000000=55.284000
,293.000000=54.580002
,294.000000=55.299000
;
#STOPS:
;
#BGCHANGES:;
#KEYSOUNDS:;
#ATTACKS:;

//---------------dance-single - 2016----------------
#NOTES:
     dance-single:
     :
     Hard:
     13:
     0.421002,0.468270,0.426808,0.597532,0.676796,725.000000,604.000000,105.000000,147.000000,0.000000,53.000000,0.421002,0.468270,0.426808,0.597532,0.676796,725.000000,604.000000,105.000000,147.000000,0.000000,53.000000:
// measure 0
1000
0000
0000
0000
0000
0000
0000
0000
0100
0000
0000
0000
0000
0000
0000
0000
0020
0000
0000
0000
0000
0000
0000
0000
0000
0000
0000
0000
0000
0000
0000
0000
0000
0000
0000
0000
0000
0000
0000
0000
0000
0000
0000
0000
0000
0000
0000
0030
0010
0000
0000
0000
0000
0000
0000
0000
0001
0000
0000
0000
0000
0000
0000
0000
,  // measure 1
0010
0000
0000
0000
0000
0000
0000
0000
0100
0000
0000
0000
0000
0000
0000
0000
2000
0000
0000
0000
0000
0000
0000
0000
0000
0000
0000
0000
0000
0000
0000
0000
0000
0000
0000
0000
0000
0000
0000
0000
0000
0000
0000
0000
0000
0000
0000
3000
1000
0000
0000
0000
0000
0000
0000
0000
0000
0000
0000
0000
0000
0000
0000
0000
,  // measure 2
0100
0000
0000
0000
0000
0000
0000
0000
0010
0000
0000
0000
0000
0000
0000
0000
0002
0000
0000
0000
0000
0000
0000
0000
0000
0000
0000
0000
0000
0000
0000
0000
0000
0000
0000
0000
0000
0000
0000
0000
0000
0000
0000
0000
0000
0000
0000
0003
0001
0000
0000
0000
0000
0000
0000
0000
1000
0000
0000
0000
0000
0000
0000
0000
,  // measure 3
0001
0000
0000
0000
0000
0000
0000
0000
0010
0000
0000
0000
0000
0000
0000
0000
0200
0000
0000
0000
0000
0000
0000
0000
0000
0000
0000
0000
0000
0000
0000
0000
0000
0000
0000
0000
0000
0000
0000
0000
0000
0000
0000
0000
0000
0000
0000
0300
0100
0000
0000
0000
0000
0000
0000
0000
0000
0000
0000
0000
0000
0000
0000
0000
,  // measure 4
0010
0000
0000
0000
0000
0000
0000
0000
0001
0000
0000
0000
0000
0000
0000
0000
2000
0000
0000
0000
0000
0000
0000
0000
0000
0000
0000
0000
0000
0000
0000
0000
0000
0000
0000
0000
0000
0000
0000
0000
0000
0000
0000
0000
0000
0000
0000
3000
1100
0000
0000
0000
0000
0000
0000
0000
0100
0000
0000
0000
0000
0000
0000
0000
,  // measure 5
1001
0001
0020
0000
0000
0000
1130
0100
,  // measure 6
0021
0000
0000
0000
0000
0000
0000
0000
0000
0000
0000
0000
0000
0000
0000
0000
0000
0000
0000
0000
0000
0000
0000
0000
0000
0000
0000
0000
0000
0000
0000
0030
0020
0000
0000
0000
0000
0000
0000
0000
0000
0000
0000
0000
0000
0000
0000
0000
0032
0000
0000
0000
0000
0000
0000
0000
0000
0000
0000
0000
0000
0000
0000
0000
,  // measure 7
2103
0000
0002
0000
,  // measure 8
0000
0000
0000
0000
0000
0000
0000
0000
0000
0000
0000
0000
0000
0000
0000
0000
0000
0000
0000
0000
0000
0000
0000
0000
0000
0000
0000
0000
0000
0000
0000
0000
0000
0000
0000
0000
0000
0000
0000
0000
0000
0000
0000
0000
0000
0000
0000
0000
0000
0000
0000
0000
0000
0000
0000
0000
0000
0000
0000
0000
0000
0000
0000
0000
0000
0000
0000
0000
0000
0000
0000
0000
0000
0000
0000
0000
0000
0000
0000
0000
0000
0000
0000
0000
0000
0000
0000
0000
0000
0000
0000
0000
0000
0000
0000
0000
3103
0000
0000
0000
0000
0000
0010
0000
0000
0000
0000
0000
0000
0000
0000
0001
0000
0000
0000
0000
0000
0000
1100
0000
0000
0000
0000
0000
0011
0000
0000
0000
0000
0000
0000
1100
0000
0000
0000
0000
0000
0000
0011
0000
0000
0000
0000
0000
1101
0000
0000
0000
0000
0000
0000
0000
0000
0000
0000
0000
0000
0000
0000
0000
0000
0000
0000
0000
0000
0000
0000
0000
0000
0000
0000
0000
0000
0000
0000
0000
1000
0000
0000
0000
0000
0000
0000
0000
0000
0000
0000
0000
0000
0000
0000
0000
,  // measure 9
0012
0000
0000
0000
0000
0000
0000
0000
0003
0000
0000
0000
1010
0000
1010
0000
1001
0100
0111
0000
0000
0000
0010
0000
,  // measure 10
2001
0000
0000
0000
0000
0000
0000
0000
3000
0000
0000
0000
0200
0000
0000
0000
0010
0010
1311
0000
0000
0000
0001
0000
,  // measure 11
0210
0000
0000
0000
0000
0000
2310
0000
0000
0000
3002
0000
0010
0100
0023
1000
0001
1000
1132
0000
0000
0000
0000
0000
,  // measure 12
0000
0000
0000
0000
1000
0100
1123
0000
0000
0000
0000
0000
2030
0001
0010
0001
0100
0010
3111
0000
0000
0000
0100
0000
,  // measure 13
1020
0000
0000
0000
0000
0000
0000
0000
0000
0030
0000
0000
1100
0000
1100
0000
1001
0001
0111
0000
0000
0000
0010
0000
,  // measure 14
2100
0000
0000
0000
0000
0000
0000
0000
0000
3000
0000
0000
0020
0000
0000
0000
0001
0001
1131
0000
0000
0000
0010
0000
,  // measure 15
0102
0000
0000
0000
0000
0000
2013
0000
0000
0000
3200
0000
0010
1000
0302
0100
1000
0010
2113
0000
0000
0000
0000
0000
,  // measure 16
0000
0000
0000
0000
3001
0001
2101
0000
0000
0000
0000
0000
3002
0000
0000
0000
0000
0000
0000
0000
0000
0000
0000
0000
,  // measure 17
0000
0000
0000
0000
0000
0000
0000
0000
0000
0000
0000
0000
0000
0000
0000
0000
0000
0000
0000
0000
0000
0000
0000
0000
0000
0000
0000
0000
0000
0000
0000
0000
2013
0000
0000
0000
0000
0000
0000
0000
0000
0000
0000
0000
0001
0000
0000
0000
0000
0000
0000
0000
0000
0000
0000
0000
0100
0000
0000
0000
0000
0000
0000
3000
,  // measure 18
2001
0000
0000
0000
0000
0000
0000
0000
3200
0000
0000
0000
0000
0000
0000
0000
0320
0000
0000
0000
0000
0000
0000
0000
1032
0000
0000
0000
0000
0000
0000
0000
0000
0010
0000
0000
0000
0000
0000
0000
0000
0000
0100
0000
0000
0000
0000
0000
,  // measure 19
1023
0000
0000
0000
0230
0000
0000
0000
2301
0000
0000
0100
0000
0000
0010
0000
,  // measure 20
0001
0000
0000
0000
0000
0000
0000
0000
0001
0000
0000
0010
0000
0000
0100
0000
,  // measure 21
0001
0000
0000
0000
3010
0000
0000
0000
0210
0000
0000
1000
0000
0000
0001
0000
,  // measure 22
1320
0000
0000
0000
0000
0000
0000
0000
2030
0000
0000
0000
0000
0000
0000
0000
3200
0000
0000
0000
0000
0000
0000
0000
0312
0000
0000
0000
0000
0000
0000
0000
0000
0010
0000
0000
0000
0000
0000
0000
0000
0000
1000
0000
0000
0000
0000
0000
,  // measure 23
0123
0000
0000
0000
0000
0000
0000
0000
0001
0000
0000
0000
0230
0000
0000
0000
1000
0000
0000
0000
0000
0000
0000
0000
2301
0000
0000
0000
0000
0000
0000
0000
0000
0100
0000
0000
0000
0000
0000
0000
0000
0000
0010
0000
0000
0000
0000
0000
,  // measure 24
0001
0000
0000
0000
0000
0000
0000
0000
3201
0000
0000
1000
0000
0000
0010
0000
,  // measure 25
0001
0000
0000
0000
0000
0000
0000
0000
0300
0000
0000
0000
0000
0000
0000
0000
0210
0000
0000
0000
0000
0000
0000
0000
0320
0000
0000
0000
0000
0000
0000
0000
2130
0000
0000
0000
0000
0000
0000
0000
0000
0000
0000
0000
0000
0000
0000
0000
0000
0000
0000
0000
0000
0000
0000
3000
2001
0000
0000
0000
0000
0000
0000
0000
,  // measure 26
0000
0000
0000
0000
0000
0000
3000
0000
0000
0000
0000
0000
0000
0000
0000
0000
0010
0000
0200
0000
0001
0000
0000
0000
2320
0000
0000
0000
0000
0000
0000
0000
0000
0000
0000
0000
0000
0000
0000
3000
0000
0000
2000
0000
0000
3000
0000
0000
,  // measure 27
0000
0000
0000
0000
2000
0000
0000
0000
3230
0000
2000
0000
0000
0300
0020
0000
,  // measure 28
0000
0000
0000
0030
0000
0000
0002
0003
3200
0000
0010
0000
0302
0000
0023
0000
,  // measure 29
2230
0000
0000
0000
0000
0000
0000
0000
0000
0000
0000
0000
0000
0000
0000
0000
0000
0000
0000
0000
0000
0000
0000
0000
0000
0000
0000
0000
0000
0000
0000
0000
0000
0000
0000
0000
0000
0000
0000
0000
0000
0000
0000
0000
0000
3000
0000
0000
1310
0000
0000
0000
0000
0000
0000
0000
0000
0000
0000
0000
0000
0000
0000
0000
0100
0000
0000
0000
0000
0000
0000
0000
1001
0000
0000
0000
0000
0000
0000
0000
0010
0000
0000
0000
0000
0000
0000
0000
0000
0000
0000
0000
0000
0000
0000
0000
0112
0000
0000
0000
0000
0000
0000
0000
0000
0000
0000
0000
0000
0000
0000
0000
0000
0000
0000
0000
0000
0000
0000
0000
0000
0000
0000
0000
0000
0000
0000
0000
0000
0000
0000
0000
0000
0000
0000
0000
0000
0000
0000
0000
0000
0000
0000
0000
0000
0000
0000
0000
0000
0000
0000
0000
0000
0000
0000
0000
0003
0000
0000
0000
0000
0000
0000
0000
0000
0000
0000
0000
0020
0000
0000
0000
0000
0000
0000
0000
0000
0000
0000
0000
0030
0000
0000
0000
0000
0000
0000
0000
0000
0000
0000
0000
,  // measure 30
2000
0000
3000
0000
0200
0000
1301
0000
0120
0000
1130
0000
0012
0000
0000
0003
0000
0000
0020
0000
0032
0000
0023
0000
,  // measure 31
2031
0000
0000
3000
0000
0000
2010
0000
3001
0000
2100
0000
3211
0000
0000
0000
0000
0000
1000
0000
0000
0000
0000
0000
,  // measure 32
1000
0000
0000
0000
0000
0000
1011
0000
1001
0300
1100
0000
1121
0000
0000
0000
0000
0000
0001
0000
0000
0000
0000
0000
,  // measure 33
1201
0000
0000
0000
0000
0000
0001
0000
0000
0330
0000
0000
1010
0000
0000
0000
1000
0000
1002
0000
0000
0000
0000
0000
,  // measure 34
0000
0003
0000
1000
1000
0001
0110
0000
0100
2000
0000
0000
,  // measure 35
0000
3000
0000
0020
0000
0000
0031
0000
0001
0020
0000
0030
,  // measure 36
2000
3000
0200
0300
0020
0030
0002
0000
0000
0003
0000
0000
,  // measure 37
0020
0000
0000
0000
0000
0000
0030
0000
0000
0100
1000
0100
1010
0000
0000
0000
0010
0000
0002
0000
0000
0000
0000
0000
,  // measure 38
0000
0003
0000
0110
0100
0001
1010
0000
0100
2000
0000
0000
,  // measure 39
0000
0000
0000
0000
0000
0000
0000
0000
0000
0000
0000
0000
0000
0000
0000
0000
3000
0000
0000
0000
0000
0000
0000
0000
0000
0000
0000
0000
0000
0000
0000
0000
0000
0000
0000
0000
0000
0000
0000
0000
0000
0000
0000
0000
0000
0000
0000
0000
0120
0000
0000
0000
0000
0000
0000
0000
0000
0000
0000
0000
0000
0000
0000
0000
0000
0000
0000
0000
0000
0000
0000
0000
0000
0000
0000
0000
0000
0000
0000
0000
0000
0000
0000
0000
0000
0000
0000
0000
0000
0000
0000
0000
0000
0030
0000
0000
0011
0000
0000
0000
0000
0000
0000
0000
0000
0000
0000
0000
0000
0000
0000
0000
0000
0000
0000
0000
0000
0000
0000
0000
0000
0000
0000
0000
0000
0000
0000
0000
0001
0000
0000
0000
0000
0000
0000
0000
0000
0000
0000
0000
0000
0000
0000
0000
0020
0000
0000
0000
0000
0000
0000
0000
0000
0000
0000
0000
0000
0000
0000
0000
0000
0000
0000
0000
0000
0000
0000
0000
0000
0000
0000
0000
0000
0000
0000
0000
0030
0000
0000
0000
0000
0000
0000
0000
0000
0000
0000
0000
0000
0000
0000
0000
,  // measure 40
2000
0000
0000
0000
0000
0000
0000
0000
0000
0000
0000
0000
0000
0000
0000
0000
0000
0000
0000
0000
0000
0000
0000
0000
0000
0000
0000
0000
0000
0000
0000
0000
0200
0000
0000
0000
0000
0000
0000
0000
0000
0000
0000
0000
0000
0000
0000
0000
0000
0000
0000
0000
0000
0000
0000
0000
0000
0000
0000
0000
0000
0000
0000
0000
0020
0000
0000
0000
0000
0000
0000
0000
0000
0000
0000
0000
0000
0000
0000
0000
0000
0000
0000
0000
0000
0000
0000
0000
0000
0000
0000
0000
0000
3000
0000
0000
1331
0000
0000
0000
0000
0000
0000
0000
0000
0000
0000
0000
0000
0000
0000
0000
0100
0000
0000
0000
0000
0000
0000
0000
0000
0000
0000
0000
0000
0000
0000
0000
1000
0000
0000
0000
0000
0000
0000
0000
0000
0000
0000
0000
0000
0000
0000
0000
0001
0000
0000
0000
0000
0000
0000
0000
0000
0000
0000
0000
0000
0000
0000
0000
0010
0000
0000
0000
0000
0000
0000
0000
0000
0000
0000
0000
0000
0000
0000
0000
0100
0000
0000
0000
0000
0000
0000
0000
0000
0000
0000
0000
0000
0000
0000
0000
,  // measure 41
1000
0100
1000
0001
0010
0100
1000
0100
1000
0001
0010
0100
,  // measure 42
1000
0100
1000
0001
0010
0100
1002
0100
0010
1000
0010
0100
,  // measure 43
0023
0100
0001
1000
0100
0001
2030
0010
0100
0001
0100
0010
,  // measure 44
3200
0010
0001
1000
0010
1000
0302
0010
1000
0010
0100
1000
,  // measure 45
0023
0100
1000
0001
0100
0001
2030
0100
0010
0001
0010
0001
,  // measure 46
3200
0010
1000
0001
1000
0010
1302
0010
0100
1000
0010
0100
,  // measure 47
0023
0001
1000
0100
0001
0100
2031
0010
0001
0100
0010
0001
,  // measure 48
3200
0010
1000
0001
1000
0010
1302
0100
1000
0010
0100
1000
,  // measure 49
0023
0100
0001
1000
0001
0100
2031
0100
0001
0010
0100
0010
,  // measure 50
3200
0001
1000
0010
1000
0010
0301
0010
0100
1000
0100
0010
,  // measure 51
1001
0000
0100
0000
0010
0000
0001
0000
1000
0000
0010
0100
0011
0000
0100
0000
0010
0000
1001
0000
0100
0000
0010
0000
,  // measure 52
2100
0000
0100
0000
0001
0000
0010
0000
0001
0000
0100
0000
0001
0000
0100
0000
0010
0000
0001
0000
0100
3000
1000
0010
,  // measure 53
0101
0000
0010
0000
0001
0000
1000
0000
0100
0000
0001
0100
1010
0000
0010
0000
0100
0000
0101
0000
0010
0000
0001
0000
,  // measure 54
1200
0010
0001
1000
0010
1000
0312
0100
1000
0023
0100
0001
,  // measure 55
2030
0000
0100
0000
0010
0000
3002
0000
0010
0000
0100
0000
0010
0000
0100
0000
1000
0000
0100
0000
0010
0003
0020
0000
,  // measure 56
1032
0000
0000
0000
0000
0000
0000
0000
0000
0000
0000
0000
0000
0000
0000
0000
0010
0000
0000
0000
0000
0000
0000
0000
0000
0000
0000
0000
0000
0000
0000
0000
0100
0000
0000
0000
0000
0000
0000
0000
0000
0000
0000
0000
0000
0000
0000
0000
1000
0000
0000
0000
0000
0000
0000
0000
0000
0000
0000
0000
0000
0000
0000
0000
0100
0000
0000
0000
0000
0000
0000
0000
0000
0000
0000
0000
0000
0000
0000
0000
0010
0000
0000
0000
0000
0000
0000
0000
0000
0000
0000
0000
0000
0000
0000
0000
1000
0000
0000
0000
0000
0000
0000
0000
0000
0000
0000
0000
0000
0000
0000
0000
0100
0000
0000
0000
0000
0000
0000
0000
0000
0000
0000
0000
0000
0000
0000
0000
0010
0000
0000
0000
0000
0000
0000
0000
0000
0000
0000
0000
0000
0003
0000
0000
0001
0000
0000
0000
0000
0000
0000
0000
0000
0000
0000
0000
0000
0000
0000
0000
0000
0000
0000
0000
0000
0000
0000
0000
0000
0000
0000
0000
0000
0000
0000
0000
0000
0000
0000
0000
0000
0000
0000
0000
0000
0000
0000
0000
0000
0000
0000
0000
,  // measure 57
1002
0100
0010
1000
0010
0100
0023
0100
0001
1000
0100
0001
,  // measure 58
2030
0010
0100
0001
0100
0010
3200
0010
0001
1000
0010
1000
,  // measure 59
0302
0010
1000
0010
0100
1000
0023
0100
1000
0001
0100
0001
,  // measure 60
2030
0100
0010
0001
0010
0001
3200
0010
1000
0001
1000
0010
,  // measure 61
1302
0010
0100
1000
0010
0100
0023
0001
1000
0100
0001
0100
,  // measure 62
2031
0010
0001
0100
0010
0001
3200
0010
1000
0001
1000
0010
,  // measure 63
1302
0100
1000
0010
0100
1000
0023
0100
0001
1000
0001
0100
,  // measure 64
2031
0100
0001
0010
0100
0010
3200
0001
1000
0010
1000
0010
,  // measure 65
0301
0000
0010
0000
0100
0000
1000
0000
0100
0000
0010
0000
1001
0000
0100
0000
0010
0000
0001
0000
1000
0000
0010
0100
,  // measure 66
0011
0100
0010
1001
0100
0010
2100
0100
0001
0010
0001
0100
,  // measure 67
0001
0000
0100
0000
0010
0000
0001
0000
0100
3000
1000
0010
0101
0000
0010
0000
0001
0000
1000
0000
0100
0000
0001
0100
,  // measure 68
1010
0010
0100
0101
0010
0001
1200
0010
0001
1000
0010
1000
,  // measure 69
0312
0100
1000
0023
0100
0001
2030
0100
0010
3002
0010
0100
,  // measure 70
0010
0000
0100
0000
1000
0000
0100
0000
0010
0003
0020
0000
1032
0000
0010
0000
0100
0000
1000
0000
0100
0000
0010
0000
,  // measure 71
1000
0000
0000
0000
0000
0000
0000
0000
0000
0000
0000
0000
0000
0000
0000
0000
0100
0000
0000
0000
0000
0000
0000
0000
0000
0000
0000
0000
0000
0000
0000
0000
0010
0000
0000
0000
0000
0000
0000
0000
0000
0000
0000
0000
0000
0003
0000
0000
0001
0000
0000
0000
0000
0000
0000
0000
0000
0000
0000
0000
0000
0000
0000
0000
0000
0000
0000
0000
0000
0000
0000
0000
0000
0000
0000
0000
0000
0000
0000
0000
0000
0000
0000
0000
0000
0000
0000
0000
0000
0000
0000
0000
0000
0000
0000
0000
2002
0000
0000
0000
0000
0000
0000
0000
0000
0000
0000
0000
0000
0000
0000
0000
0000
0000
0000
0000
0000
0000
0000
0000
0000
0000
0000
0000
0000
0000
0000
0000
0000
0000
0000
0000
0000
0000
0000
0000
0000
0000
0000
0000
0000
0000
0000
0000
0000
0000
0000
0000
0000
0000
0000
0000
0000
0000
0000
0000
0000
0000
0000
0000
0000
0000
0000
0000
0000
0000
0000
0000
0000
0000
0000
0000
0000
0000
0000
0000
0000
0000
0000
0000
0000
0000
0000
0000
0000
0000
0000
0000
0000
0000
0000
0000
,  // measure 72
3003
0000
0000
0000
;
