#TITLE:Legacy Island;
#SUBTITLE:Plok! (1993);
#ARTIST:Geoff & Tim Follin;
#TITLETRANSLIT:;
#SUBTITLETRANSLIT:;
#ARTISTTRANSLIT:;
#GENRE:;
#CREDIT:;
#BANNER:legacyisland-bn.png;
#BACKGROUND:legacyisland-bg.png;
#LYRICSPATH:;
#CDTITLE:!cdtitle.png;
#MUSIC:Legacy Island.ogg;
#OFFSET:-0.205667;
#SAMPLESTART:32.042000;
#SAMPLELENGTH:15.000000;
#SELECTABLE:YES;
#BPMS:0.000000=100.007004
,1.000000=100.002998
,2.000000=100.007004
,3.000000=100.002998
,4.000000=100.369003
,5.000000=99.643997
,6.000000=100.007004
,7.000000=100.002998
,8.000000=100.007004
,9.000000=100.002998
,10.000000=100.007004
,11.000000=100.002998
,12.000000=100.007004
,13.000000=100.002998
,14.000000=100.007004
,15.000000=100.002998
,16.000000=100.007004
,17.000000=100.002998
,18.000000=100.007004
,19.000000=100.002998
,20.000000=100.007004
,21.000000=100.002998
,22.000000=100.007004
,23.000000=100.002998
,24.000000=100.007004
,25.000000=100.002998
,26.000000=100.007004
,27.000000=100.002998
,28.000000=100.007004
,29.000000=100.002998
,30.000000=100.007004
,31.000000=100.002998
,32.000000=100.021004
,40.000000=98.623001
,41.000000=101.301003
,42.000000=99.167000
,43.000000=100.903999
,44.000000=74.195999
,45.000000=60.280994
,46.000000=46.344002
,47.000000=37.213001
,48.000000=329.972992
,52.000000=200.167007
,56.000000=199.889008
,60.000000=199.903000
,68.000000=200.445007
,70.000000=199.806000
,71.000000=199.931000
,73.000000=199.917007
,74.000000=200.028000
,77.000000=200.014008
,78.000000=200.028000
,79.000000=200.014008
,80.000000=200.028000
,81.000000=200.014008
,82.000000=200.028000
,85.000000=200.014008
,86.000000=200.028000
,87.000000=200.014008
,88.000000=200.028000
,89.000000=200.014008
,90.000000=199.612000
,93.000000=199.598007
,94.000000=200.669006
,96.000000=199.225006
,98.000000=200.487000
,99.000000=200.473007
,101.000000=200.250000
,102.000000=200.445007
,104.000000=200.042007
,108.000000=199.473999
,111.000000=201.285995
,112.000000=199.985992
,113.000000=199.972000
,114.000000=199.985992
,115.000000=199.972000
,116.000000=199.985992
,117.000000=199.972000
,120.000000=199.985992
,121.000000=199.972000
,122.000000=199.985992
,123.000000=199.972000
,124.000000=199.985992
,125.000000=199.972000
,128.000000=200.000000
,129.000000=199.778000
,130.000000=200.000000
,133.000000=198.675995
,134.000000=200.069000
,135.000000=200.056000
,142.000000=200.069000
,143.000000=200.056000
,150.000000=200.069000
,151.000000=200.056000
,158.000000=200.069000
,159.000000=200.056000
,166.000000=200.445007
,167.000000=198.895004
,168.000000=200.110992
,170.000000=199.944000
,172.000000=200.028000
,179.000000=200.014008
,180.000000=200.028000
,187.000000=200.014008
,188.000000=200.028000
,195.000000=200.014008
,196.000000=200.028000
,203.000000=200.014008
,204.000000=200.000000
,228.000000=198.675995
,229.000000=184.804993
,230.000000=171.429001
,231.000000=160.141998
,232.000000=145.513000
,233.000000=120.000000
,234.000000=100.000000
,235.000000=133.432007
,236.000000=217.128998
,237.000000=240.963989
,238.000000=267.856995
,239.000000=298.506989
,240.000000=319.716003
,241.000000=344.828003
,242.000000=369.609985
,243.000000=395.604004
,244.000000=405.404999
,245.000000=398.230011
,246.000000=434.782990
,247.000000=481.282990
,248.000000=480.000000
,249.000000=473.683990
,250.000000=542.169006
,251.000000=598.007019
,252.000000=596.026001
,253.000000=600.000000
,254.000000=299.532013
,255.000000=160.285004
,256.000000=108.892998
,257.000000=72.522003
,258.000000=306.122009
,259.000000=98.942001
,262.000000=98.938004
,263.000000=99.996002
,278.000000=99.885002
,279.000000=100.007004
,280.000000=100.002998
,281.000000=100.007004
,282.000000=100.002998
,283.000000=100.369003
,284.000000=99.643997
,285.000000=100.007004
,286.000000=100.002998
,287.000000=100.007004
,288.000000=100.002998
,289.000000=100.007004
,290.000000=100.002998
,291.000000=100.007004
,292.000000=100.002998
,293.000000=100.007004
,294.000000=100.002998
,295.000000=100.007004
,296.000000=100.002998
,297.000000=100.007004
,298.000000=100.002998
,299.000000=100.007004
,300.000000=100.002998
,301.000000=100.007004
,302.000000=100.002998
,303.000000=100.007004
,304.000000=100.002998
,305.000000=100.007004
,306.000000=100.002998
,307.000000=100.007004
,308.000000=100.002998
,309.000000=100.007004
,310.000000=100.002998
,311.000000=100.021004
,319.000000=98.623001
,320.000000=101.301003
,321.000000=99.167000
,322.000000=100.903999
,323.000000=74.195999
,324.000000=60.280994
,325.000000=46.344002
,326.000000=37.213001
,327.000000=329.972992
,331.000000=200.167007
,335.000000=199.889008
,339.000000=199.903000
,347.000000=200.445007
,349.000000=199.806000
,350.000000=199.931000
,352.000000=199.917007
,353.000000=200.028000
,356.000000=200.014008
,357.000000=200.028000
,358.000000=200.014008
,359.000000=200.028000
,360.000000=200.014008
,361.000000=200.028000
,364.000000=200.014008
,365.000000=200.028000
,366.000000=200.014008
,367.000000=200.028000
,368.000000=200.014008
,369.000000=199.612000
,372.000000=199.598007
,373.000000=200.669006
,375.000000=199.225006
,377.000000=200.487000
,378.000000=200.473007
,380.000000=200.250000
,381.000000=200.445007
,383.000000=200.042007
,387.000000=199.473999
,390.000000=201.285995
,391.000000=199.985992
,392.000000=199.972000
,393.000000=199.985992
,394.000000=199.972000
,395.000000=199.985992
,396.000000=199.972000
,399.000000=199.985992
,400.000000=199.972000
,401.000000=199.985992
,402.000000=199.972000
,403.000000=199.985992
,404.000000=199.972000
,407.000000=200.000000
,408.000000=199.778000
,409.000000=200.000000
,412.000000=198.675995
,413.000000=200.069000
,414.000000=200.056000
,421.000000=200.069000
,422.000000=200.056000
,429.000000=200.069000
,430.000000=200.056000
,437.000000=200.069000
,438.000000=200.056000
,445.000000=200.445007
,446.000000=198.895004
,447.000000=200.110992
,449.000000=199.944000
,451.000000=200.028000
,458.000000=200.014008
,459.000000=200.028000
,466.000000=200.014008
,467.000000=200.028000
,474.000000=200.014008
,475.000000=200.028000
,482.000000=200.014008
,483.000000=200.000000
,507.000000=198.675995
,508.000000=184.804993
,509.000000=171.429001
,510.000000=160.141998
,511.000000=145.513000
,512.000000=120.000000
,513.000000=100.000000
,514.000000=133.432007
,515.000000=217.128998
,516.000000=240.963989
,517.000000=267.856995
,518.000000=298.506989
,519.000000=319.716003
,520.000000=344.828003
,521.000000=369.609985
,522.000000=395.604004
,523.000000=405.404999
,524.000000=398.230011
,525.000000=434.782990
,526.000000=481.282990
,527.000000=480.000000
,528.000000=473.683990
,529.000000=542.169006
,530.000000=598.007019
,531.000000=596.026001
,532.000000=600.000000
,533.000000=299.532013
,534.000000=160.285004
,535.000000=108.892998
,536.000000=72.522003
,537.000000=306.122009
,538.000000=98.942001
,541.000000=98.938004
,542.000000=99.996002
;
#STOPS:
;
#BGCHANGES:;
#KEYSOUNDS:;
#ATTACKS:;

//---------------dance-single - 2016----------------
#NOTES:
     dance-single:
     :
     Hard:
     14:
     1.438047,2.310772,1.140009,0.063084,2.162864,2234.000000,1981.000000,253.000000,14.000000,0.000000,6.000000,1.438047,2.310772,1.140009,0.063084,2.162864,2234.000000,1981.000000,253.000000,14.000000,0.000000,6.000000:
// measure 0
1001
0100
1000
0000
0001
0010
1001
0100
0010
0001
0010
1000
0101
0010
0001
0000
0001
0010
0101
0010
0001
0000
0100
0010
,  // measure 1
1100
0010
1000
0010
0100
0010
0101
0010
1000
0000
1000
0100
1001
0100
0010
0001
1000
0100
1001
0010
0100
1000
0001
0010
,  // measure 2
0101
0010
0100
0000
1000
0010
1100
0010
0001
0010
0100
1000
0101
0010
0001
0000
1000
0001
1010
0100
0001
0000
0010
0001
,  // measure 3
0110
1000
0001
1000
0100
0010
0101
0010
0001
0000
0001
0010
1100
0010
0001
1000
0100
0010
0101
0010
0100
1000
0001
0010
,  // measure 4
1100
0010
0100
0000
0100
0010
0101
1000
0010
0100
0001
0010
1001
0010
0001
0000
0001
0100
0011
0100
0001
0000
0010
1000
,  // measure 5
0110
0001
1000
0010
1000
0100
1010
0001
0010
0000
0001
0010
1100
0001
0010
1000
0001
0100
0011
1000
0100
0010
1000
0001
,  // measure 6
0110
0001
1000
0000
1000
0100
1001
0010
0001
1000
0100
0010
0101
1000
0100
0000
0010
0001
1010
0001
0010
0000
0100
0010
,  // measure 7
1001
0010
0001
0100
0001
1000
0110
1000
0010
0000
0100
0001
1010
0001
0010
0100
1000
0100
0011
1000
0100
0001
1000
0010
,  // measure 8
0101
0010
0001
0000
0100
0010
1100
0010
1000
0000
1000
0001
1010
0001
1000
0000
1000
0100
0011
0100
0001
1000
0100
0010
,  // measure 9
0101
0010
0001
0000
0100
0010
1100
0010
1000
0000
1000
0001
1010
0001
1000
0000
1000
0100
0011
0100
0001
1000
0100
0010
,  // measure 10
1001
0100
1000
0100
1000
0100
1000
0100
1000
0100
2000
0000
3101
0010
0100
0010
0100
0010
0100
0010
0100
0010
0200
0000
,  // measure 11
0311
0000
0000
0000
0000
0000
0100
0000
0000
0000
0000
0000
0001
0000
0000
0000
0000
0000
0100
0000
0000
0000
0000
0000
0001
0000
0000
0000
0000
0000
0100
0000
0000
0000
0000
0000
0002
0000
0000
0000
0000
0000
0000
0000
0000
0003
0000
0000
0011
0000
0000
0000
1000
0000
0000
0000
0001
0000
0000
0000
1000
0000
0000
0000
0001
0000
0000
0000
1000
0000
0000
0000
0001
0000
0000
0000
1000
0000
0000
0000
0001
0000
0000
0000
1000
0000
0000
0000
0001
0000
0000
0000
0000
0000
0000
0000
0101
0000
0000
0000
0010
0000
0000
0000
0001
0000
0000
0000
0010
0000
0000
0000
0001
0000
0000
0000
0010
0000
0000
0000
0001
0000
0000
0000
0010
0000
0000
0000
0001
0000
0000
0000
0010
0000
0000
0000
0001
0000
0000
0000
0020
0000
0000
0000
1031
0000
0000
0100
0000
0000
1000
0000
0000
0100
0000
0000
1000
0000
0000
0100
0000
0000
1000
0000
0000
0100
0000
0000
1000
0000
0000
0100
0000
0000
1000
0000
0000
0100
0000
0000
1000
0000
0000
0200
0000
0000
0000
0000
0000
0000
0000
0000
,  // measure 12
0301
0010
0100
1000
0100
0010
0001
0010
0100
1000
0100
0010
,  // measure 13
1100
0010
0001
0100
1000
0000
0001
0000
0110
0001
0010
0100
0001
0000
0010
0000
,  // measure 14
1010
0100
0001
0010
1000
0000
0010
0000
1100
0010
0001
1000
0001
0000
0010
0000
,  // measure 15
0011
0100
0001
0000
0100
0010
1000
0000
1010
0100
0010
0000
0010
0100
1000
0001
,  // measure 16
1010
0100
0010
0001
1000
0010
0100
0000
0101
0010
0001
0000
1000
0100
1000
0000
,  // measure 17
1010
0100
0010
0000
0100
0010
0001
0000
0101
0010
0100
0000
0010
0100
1000
0000
,  // measure 18
1001
0100
0010
0000
0001
0010
0100
0000
1010
0100
0010
0000
0100
0010
0001
0000
,  // measure 19
0101
0010
0100
0001
0100
0010
1000
0000
1001
0100
0010
0001
0010
0100
0001
1000
,  // measure 20
0011
0100
1000
0010
0100
0001
0100
0000
1100
0010
0001
0000
0010
0100
1000
0100
,  // measure 21
0011
0100
0001
0100
0001
0010
0001
0100
0011
0100
1000
0100
0010
0001
0010
0100
,  // measure 22
1010
0001
1000
0001
0100
0010
0001
0010
1100
0010
0100
0010
0001
0010
1000
0010
,  // measure 23
0101
0010
0100
0010
1000
0010
0001
0010
1100
0001
0010
0001
0010
1000
0100
0010
,  // measure 24
0101
0010
1000
0010
0001
0100
1000
0100
0011
1000
0100
0010
0001
0010
0100
0010
,  // measure 25
1001
0100
1000
0100
1000
0100
1000
0100
1010
0100
0010
0100
0010
0100
0010
0100
,  // measure 26
1010
0100
1000
0100
1000
0100
1000
0100
1001
0010
0001
0010
0001
0010
0001
0010
,  // measure 27
1001
0100
1000
0100
1000
0100
1000
0100
1010
0100
0010
0100
0010
0100
0010
0100
,  // measure 28
1001
0010
0001
0010
0100
0001
0100
0001
1100
0010
1000
0010
1000
0010
0100
0010
,  // measure 29
1001
0100
1000
0100
1000
0100
1000
0100
0011
0100
0010
0100
0010
0100
0010
0100
,  // measure 30
1001
0100
1000
0100
1000
0100
1000
0100
1001
0010
0001
0010
0001
0010
0001
0010
,  // measure 31
1001
0100
1000
0100
1000
0100
1000
0100
1010
0100
0010
0100
0010
0100
0010
0100
,  // measure 32
1001
0010
0001
0010
0100
0001
0100
0001
1100
0010
1000
0010
1000
0010
0100
0010
,  // measure 33
1001
0100
0010
0000
0100
0000
0001
0010
0101
0000
0010
0000
0100
0010
0001
0000
,  // measure 34
1100
0000
0001
0010
0100
0000
0010
0000
1100
0010
0001
0000
0010
0000
0100
0000
,  // measure 35
0011
0100
1000
0000
0010
0000
1000
0100
1010
0000
0100
0000
0010
0100
1000
0000
,  // measure 36
0110
0000
0100
0001
0010
0000
0001
0000
0011
0100
0010
0000
1000
0000
0100
0000
,  // measure 37
1010
0001
1000
0000
0100
0000
0001
0010
0101
0000
0010
0000
0100
0010
1000
0000
,  // measure 38
1001
0000
0100
0001
0010
0000
0100
0000
1001
0010
1000
0000
0010
0000
0100
0000
,  // measure 39
0011
0100
0010
0000
1000
0000
0010
0001
0110
0000
0001
0000
0100
0010
1000
0000
,  // measure 40
1010
0000
0100
0001
1000
0000
0010
0000
0101
0010
0100
0000
0010
0000
0001
0000
,  // measure 41
1001
0010
0001
0000
0100
0000
0010
0000
0110
0000
1000
0000
0100
0001
0010
0000
,  // measure 42
1100
0000
0001
1000
0100
0000
0010
0000
0101
0010
0001
0000
1000
0000
0100
0000
,  // measure 43
1001
0100
0010
0000
0100
0000
0001
0000
0110
0000
1000
0000
0010
0100
1000
0000
,  // measure 44
0101
0000
0100
1000
0010
0000
0001
0000
1010
0100
0001
0000
1000
0000
0100
0000
,  // measure 45
0011
0100
0010
0000
1000
0000
0100
0000
1010
0000
0001
0000
0010
1000
0100
0000
,  // measure 46
1001
0000
0010
0100
0001
0000
0010
0000
0101
0010
1000
0000
0010
0000
0100
0000
,  // measure 47
1001
0100
1000
0000
0001
0000
0010
0000
0011
0000
0100
0000
0010
0100
0001
0000
,  // measure 48
0110
0000
0100
1000
0010
0000
1000
0000
0011
0100
0001
0000
0010
0000
1000
0000
,  // measure 49
0101
0010
0100
0000
1000
0000
0001
0000
0110
0000
0010
0000
1000
0010
0001
0000
,  // measure 50
1100
0000
0100
0001
0010
0000
1000
0000
1001
0010
0001
0000
0010
0000
1000
0000
,  // measure 51
0101
0010
0001
0000
0010
0000
0100
0000
0010
0000
0001
0000
1000
0100
0001
0000
,  // measure 52
1100
0000
0010
0001
0100
0000
0010
0000
0001
0010
1000
0000
0010
0000
0100
0000
,  // measure 53
0110
1000
0001
0000
0100
0000
1000
0000
0100
0000
0010
0000
1000
0001
0100
0000
,  // measure 54
0011
0000
0001
0100
0010
0000
1000
0000
0100
0001
1000
0000
0010
0000
0001
0000
,  // measure 55
0001
0100
1000
0000
0010
0000
1000
0000
0001
0000
0010
0000
0100
0001
0010
0000
,  // measure 56
0100
0000
1000
0001
0100
0000
0010
0000
0001
0010
1000
0000
0010
0000
0100
0000
,  // measure 57
1000
0010
0100
0000
0010
0000
0001
0010
1000
0000
0001
0000
1000
0001
0100
0000
,  // measure 58
0001
0000
0000
0000
0000
0000
0000
0000
0010
0000
0000
0000
1000
0000
0000
0000
0001
0000
0000
0000
0000
0000
0000
0000
1000
0000
0000
0000
0000
0000
0000
0000
0100
0000
0000
0000
0000
0000
0000
0000
0010
0000
0000
0000
0000
0000
0000
0000
0001
0000
0000
0000
0000
0000
0000
0000
0000
1000
0000
0000
0000
0000
0000
0000
,  // measure 59
0001
0000
0000
0000
0000
0000
0000
0000
0000
1000
0000
0000
0000
0000
0000
0000
0001
0000
0000
0000
0000
0000
0000
0000
1000
0000
0000
0000
0000
0000
0000
0000
0001
0000
0000
0000
0000
0000
0000
0000
0000
1000
0000
0000
0000
0000
0000
0000
0001
0000
0000
0000
0000
0000
0000
0000
1000
0000
0000
0000
0000
0000
0000
0000
,  // measure 60
0001
0000
0000
0000
0000
0000
0000
1000
0000
0000
0000
0000
0000
0000
0000
0000
0001
0000
0000
0000
0000
0000
0000
0000
1000
0000
0000
0000
0000
0000
0000
0000
0001
0000
0000
0000
0000
0000
0000
0000
1000
0000
0000
0000
0000
0000
0000
0000
0001
0000
0000
0000
0000
0000
0000
0000
1000
0000
0000
0000
0000
0000
0000
0000
,  // measure 61
0001
0000
0000
0000
0000
0000
0000
0000
1000
0000
0000
0000
0000
0000
0000
0000
0001
0000
0000
0000
0000
0000
0000
0000
1000
0000
0000
0000
0000
0000
0000
0000
0001
0000
0000
0000
0000
0000
0000
0000
0000
1000
0000
0000
0000
0000
0000
0000
0001
0000
0000
0000
0000
0000
0000
0000
1000
0000
0000
0000
0000
0000
0000
0000
,  // measure 62
0001
0000
0000
0000
0000
0000
0000
0000
1000
0000
0000
0000
0000
0000
0000
0000
0001
0000
0000
0000
0000
0000
0000
0000
1000
0000
0000
0000
0000
0000
0000
0000
0001
0000
0000
0000
0000
0000
0000
0000
0000
1000
0000
0000
0000
0000
0000
0000
0001
0000
0000
0000
0000
0000
0000
0000
1000
0000
0000
0000
0000
0000
0000
0000
,  // measure 63
0001
0000
0000
0000
0000
0000
0000
1000
0000
0000
0000
0000
0000
0000
0000
0000
0001
0000
0000
0000
0000
0000
0000
0000
1000
0000
0000
0000
0000
0000
0000
0000
0001
0000
0000
0000
0000
0000
0000
0000
1000
0000
0000
0000
0000
0000
0000
0000
0001
0000
0000
0000
0000
0000
0000
0000
1000
0000
0000
0000
0000
0000
0000
0000
,  // measure 64
0001
0000
0000
0000
0000
0000
0000
0000
0000
0000
0000
0000
0000
0000
0000
0000
0000
0000
0000
0000
0000
1000
0000
0000
0000
0000
0000
0000
0000
0000
0000
0000
0000
0000
0000
0000
0000
0000
0000
0000
0000
0000
0000
0000
0000
0000
0000
0000
0001
0000
0000
0000
0000
0000
0000
0000
0000
0000
0000
0000
0000
0000
0000
0000
0000
0000
0000
0000
1000
0000
0000
0000
0000
0000
0000
0000
0000
0000
0000
0000
0000
0000
0000
0000
0000
0000
0000
0000
0000
0000
0000
0000
0000
0000
0000
0000
1000
0000
0000
0000
0000
0000
0000
0000
0000
0000
0000
0000
0100
0000
0000
0000
0000
0000
0000
0000
0000
0000
0000
0000
0010
0000
0000
0000
0000
0000
0000
0000
0000
0000
0000
0000
0001
0000
0000
0000
0000
0000
0000
0000
0000
0000
0000
0000
2000
0000
0000
0000
0000
0000
0000
0000
0000
0000
0000
0000
0000
0000
0000
0000
0000
0000
0000
0000
0000
0000
0000
0000
0000
0000
0000
0000
0000
0000
0000
0000
0000
0000
0000
0000
0000
0000
0000
0000
0000
0000
0000
0000
0000
0000
0000
0000
,  // measure 65
0000
0000
0000
0000
0000
0000
0000
0000
0000
0000
0000
0000
3000
0000
0000
0000
0000
0000
1000
0100
1000
0100
1000
0100
,  // measure 66
1000
0100
1000
0100
1000
0000
0100
0010
0100
0010
0100
0010
0100
0010
0100
0010
0100
0000
0010
0001
0010
0001
0010
0001
,  // measure 67
0010
0001
0010
0000
0001
0010
0100
0001
0100
0001
0100
0001
0100
0010
1000
0000
1000
0001
1000
0100
1000
0100
1000
0000
,  // measure 68
0001
0010
0001
0010
0001
0000
0100
0001
0100
0000
0010
1000
0010
0100
0010
0000
0100
0010
0001
0010
0100
0010
1000
0010
,  // measure 69
1000
0100
0010
0000
0100
0010
0001
0100
0001
0000
1000
0100
1000
0100
0010
0001
0010
0100
1001
0100
1000
0000
0001
0010
,  // measure 70
1001
0100
0010
0001
0010
1000
0101
0010
0001
0000
0001
0010
0101
0010
0001
0000
0100
0010
1100
0010
1000
0010
0100
0010
,  // measure 71
0101
0010
1000
0000
1000
0100
1001
0100
0010
0001
1000
0100
1001
0010
0100
1000
0001
0010
0101
0010
0100
0000
1000
0010
,  // measure 72
1100
0010
0001
0010
0100
1000
0101
0010
0001
0000
1000
0001
1010
0100
0001
0000
0010
0001
0110
1000
0001
1000
0100
0010
,  // measure 73
0101
0010
0001
0000
0001
0010
1100
0010
0001
1000
0100
0010
0101
0010
0100
1000
0001
0010
1100
0010
0100
0000
0100
0010
,  // measure 74
0101
1000
0010
0100
0001
0010
1001
0010
0001
0000
0001
0100
0011
0100
0001
0000
0010
1000
0110
0001
1000
0010
1000
0100
,  // measure 75
1010
0001
0010
0000
0001
0010
1100
0001
0010
1000
0001
0100
0011
1000
0100
0010
1000
0001
0110
0001
1000
0000
1000
0100
,  // measure 76
1001
0010
0001
1000
0100
0010
0101
1000
0100
0000
0010
0001
1010
0001
0010
0000
0100
0010
1001
0010
0001
0100
0001
1000
,  // measure 77
0110
1000
0010
0000
0100
0001
1010
0001
0010
0100
1000
0100
0011
1000
0100
0001
1000
0010
0101
0010
0001
0000
0100
0010
,  // measure 78
1100
0010
1000
0000
1000
0001
1010
0001
1000
0000
1000
0100
0011
0100
0001
1000
0100
0010
0101
0010
0001
0000
0100
0010
,  // measure 79
1100
0010
1000
0000
1000
0001
1010
0001
1000
0000
1000
0100
0011
0100
0001
1000
0100
0010
1001
0100
1000
0100
1000
0100
,  // measure 80
1000
0000
0000
0000
0000
0000
0000
0000
0100
0000
0000
0000
0000
0000
0000
0000
1000
0000
0000
0000
0000
0000
0000
0000
0100
0000
0000
0000
0000
0000
0000
0000
2000
0000
0000
0000
0000
0000
0000
0000
0000
0000
0000
0000
0000
0000
0000
0000
3101
0000
0000
0000
0000
0000
0000
0000
0010
0000
0000
0000
0000
0000
0000
0000
0100
0000
0000
0000
0000
0000
0000
0000
0010
0000
0000
0000
0000
0000
0000
0000
0100
0000
0000
0000
0000
0000
0000
0000
0010
0000
0000
0000
0000
0000
0000
0000
0100
0000
0000
0000
0000
0000
0000
0000
0010
0000
0000
0000
0000
0000
0000
0000
0100
0000
0000
0000
0000
0000
0000
0000
0010
0000
0000
0000
0000
0000
0000
0000
0200
0000
0000
0000
0000
0000
0000
0000
0000
0000
0000
0000
0000
0000
0000
0000
0311
0000
0000
0000
0000
0000
0100
0000
0000
0000
0000
0000
0001
0000
0000
0000
0000
0000
0100
0000
0000
0000
0000
0000
0001
0000
0000
0000
0000
0000
0100
0000
0000
0000
0000
0000
0002
0000
0000
0000
0000
0000
0000
0000
0000
0003
0000
0000
,  // measure 81
0011
0000
0000
0000
1000
0000
0000
0000
0001
0000
0000
0000
1000
0000
0000
0000
0001
0000
0000
0000
1000
0000
0000
0000
0001
0000
0000
0000
1000
0000
0000
0000
0001
0000
0000
0000
1000
0000
0000
0000
0001
0000
0000
0000
0000
0000
0000
0000
0101
0000
0000
0000
0010
0000
0000
0000
0001
0000
0000
0000
0010
0000
0000
0000
0001
0000
0000
0000
0010
0000
0000
0000
0001
0000
0000
0000
0010
0000
0000
0000
0001
0000
0000
0000
0010
0000
0000
0000
0001
0000
0000
0000
0020
0000
0000
0000
1031
0000
0000
0100
0000
0000
1000
0000
0000
0100
0000
0000
1000
0000
0000
0100
0000
0000
1000
0000
0000
0100
0000
0000
1000
0000
0000
0100
0000
0000
1000
0000
0000
0100
0000
0000
1000
0000
0000
0200
0000
0000
0000
0000
0000
0000
0000
0000
0301
0000
0000
0000
0000
0000
0000
0000
0000
0000
0000
0000
0000
0000
0000
0000
0010
0000
0000
0000
0000
0000
0000
0000
0000
0000
0000
0000
0000
0000
0000
0000
0100
0000
0000
0000
0000
0000
0000
0000
0000
0000
0000
0000
0000
0000
0000
0000
,  // measure 82
1000
0000
0000
0000
0100
0000
0000
0000
0010
0000
0000
0000
0001
0000
0000
0000
0010
0000
0000
0000
0100
0000
0000
0000
1000
0000
0000
0000
0100
0000
0000
0000
0010
0000
0000
0000
1100
0000
0000
0010
0000
0000
0001
0000
0000
0100
0000
0000
,  // measure 83
1000
0000
0001
0000
0110
0001
0010
0100
0001
0000
0010
0000
1010
0100
0001
0010
,  // measure 84
1000
0000
0010
0000
1100
0010
0001
1000
0001
0000
0010
0000
0011
0100
0001
0000
,  // measure 85
0100
0010
1000
0000
1010
0100
0010
0000
0010
0100
1000
0001
1010
0100
0010
0001
,  // measure 86
1000
0010
0100
0000
0101
0010
0001
0000
1000
0100
1000
0000
1010
0100
0010
0000
,  // measure 87
0100
0010
0001
0000
0101
0010
0100
0000
0010
0100
1000
0000
1001
0100
0010
0000
,  // measure 88
0001
0010
0100
0000
1010
0100
0010
0000
0100
0010
0001
0000
0101
0010
0100
0001
,  // measure 89
0100
0010
1000
0000
1001
0100
0010
0001
0010
0100
0001
1000
0011
0100
1000
0010
,  // measure 90
0100
0001
0100
0000
1100
0010
0001
0000
0010
0100
1000
0100
0011
0100
0001
0100
,  // measure 91
0001
0010
0001
0100
0011
0100
1000
0100
0010
0001
0010
0100
1010
0001
1000
0001
,  // measure 92
0100
0010
0001
0010
1100
0010
0100
0010
0001
0010
1000
0010
0101
0010
0100
0010
,  // measure 93
1000
0010
0001
0010
1100
0001
0010
0001
0010
1000
0100
0010
0101
0010
1000
0010
,  // measure 94
0001
0100
1000
0100
0011
1000
0100
0010
0001
0010
0100
0010
1001
0100
1000
0100
,  // measure 95
1000
0100
1000
0100
1010
0100
0010
0100
0010
0100
0010
0100
1010
0100
1000
0100
,  // measure 96
1000
0100
1000
0100
1001
0010
0001
0010
0001
0010
0001
0010
1001
0100
1000
0100
,  // measure 97
1000
0100
1000
0100
1010
0100
0010
0100
0010
0100
0010
0100
1001
0010
0001
0010
,  // measure 98
0100
0001
0100
0001
1100
0010
1000
0010
1000
0010
0100
0010
1001
0100
1000
0100
,  // measure 99
1000
0100
1000
0100
0011
0100
0010
0100
0010
0100
0010
0100
1001
0100
1000
0100
,  // measure 100
1000
0100
1000
0100
1001
0010
0001
0010
0001
0010
0001
0010
1001
0100
1000
0100
,  // measure 101
1000
0100
1000
0100
1010
0100
0010
0100
0010
0100
0010
0100
1001
0010
0001
0010
,  // measure 102
0100
0001
0100
0001
1100
0010
1000
0010
1000
0010
0100
0010
1001
0100
0010
0000
,  // measure 103
0100
0000
0001
0010
0101
0000
0010
0000
0100
0010
0001
0000
1100
0000
0001
0010
,  // measure 104
0100
0000
0010
0000
1100
0010
0001
0000
0010
0000
0100
0000
0011
0100
1000
0000
,  // measure 105
0010
0000
1000
0100
1010
0000
0100
0000
0010
0100
1000
0000
0110
0000
0100
0001
,  // measure 106
0010
0000
0001
0000
0011
0100
0010
0000
1000
0000
0100
0000
1010
0001
1000
0000
,  // measure 107
0100
0000
0001
0010
0101
0000
0010
0000
0100
0010
1000
0000
1001
0000
0100
0001
,  // measure 108
0010
0000
0100
0000
1001
0010
1000
0000
0010
0000
0100
0000
0011
0100
0010
0000
,  // measure 109
1000
0000
0010
0001
0110
0000
0001
0000
0100
0010
1000
0000
1010
0000
0100
0001
,  // measure 110
1000
0000
0010
0000
0101
0010
0100
0000
0010
0000
0001
0000
1001
0010
0001
0000
,  // measure 111
0100
0000
0010
0000
0110
0000
1000
0000
0100
0001
0010
0000
1100
0000
0001
1000
,  // measure 112
0100
0000
0010
0000
0101
0010
0001
0000
1000
0000
0100
0000
1001
0100
0010
0000
,  // measure 113
0100
0000
0001
0000
0110
0000
1000
0000
0010
0100
1000
0000
0101
0000
0100
1000
,  // measure 114
0010
0000
0001
0000
1010
0100
0001
0000
1000
0000
0100
0000
0011
0100
0010
0000
,  // measure 115
1000
0000
0100
0000
1010
0000
0001
0000
0010
1000
0100
0000
1001
0000
0010
0100
,  // measure 116
0001
0000
0010
0000
0101
0010
1000
0000
0010
0000
0100
0000
1001
0100
1000
0000
,  // measure 117
0001
0000
0010
0000
0011
0000
0100
0000
0010
0100
0001
0000
0110
0000
0100
1000
,  // measure 118
0010
0000
1000
0000
0011
0100
0001
0000
0010
0000
1000
0000
0101
0010
0100
0000
,  // measure 119
1000
0000
0001
0000
0110
0000
0010
0000
1000
0010
0001
0000
1100
0000
0100
0001
,  // measure 120
0010
0000
1000
0000
1001
0010
0001
0000
0010
0000
1000
0000
0101
0010
0001
0000
,  // measure 121
0010
0000
0100
0000
0010
0000
0001
0000
1000
0100
0001
0000
1100
0000
0010
0001
,  // measure 122
0100
0000
0010
0000
0001
0010
1000
0000
0010
0000
0100
0000
0110
1000
0001
0000
,  // measure 123
0100
0000
1000
0000
0100
0000
0010
0000
1000
0001
0100
0000
0011
0000
0001
0100
,  // measure 124
0010
0000
1000
0000
0100
0001
1000
0000
0010
0000
0001
0000
0001
0100
1000
0000
,  // measure 125
0010
0000
1000
0000
0001
0000
0010
0000
0100
0001
0010
0000
0100
0000
1000
0001
,  // measure 126
0100
0000
0010
0000
0001
0010
1000
0000
0010
0000
0100
0000
1000
0010
0100
0000
,  // measure 127
0010
0000
0001
0010
1000
0000
0001
0000
1000
0001
0100
0000
0001
0000
0010
1000
,  // measure 128
0001
0000
0000
0000
0000
0000
0000
0000
1000
0000
0000
0000
0000
0000
0000
0000
0100
0000
0000
0000
0000
0000
0000
0000
0010
0000
0000
0000
0000
0000
0000
0000
0001
0000
0000
0000
0000
0000
0000
0000
0000
1000
0000
0000
0000
0000
0000
0000
0001
0000
0000
0000
0000
0000
0000
0000
0000
1000
0000
0000
0000
0000
0000
0000
,  // measure 129
0001
0000
0000
0000
0000
0000
0000
0000
1000
0000
0000
0000
0000
0000
0000
0000
0001
0000
0000
0000
0000
0000
0000
0000
0000
1000
0000
0000
0000
0000
0000
0000
0001
0000
0000
0000
0000
0000
0000
0000
1000
0000
0000
0000
0000
0000
0000
0000
0001
0000
0000
0000
0000
0000
0000
1000
0000
0000
0000
0000
0000
0000
0000
0000
,  // measure 130
0001
1000
0001
1000
0001
1000
0001
1000
,  // measure 131
0001
0000
0000
0000
0000
0000
0000
0000
1000
0000
0000
0000
0000
0000
0000
0000
0001
0000
0000
0000
0000
0000
0000
0000
0000
1000
0000
0000
0000
0000
0000
0000
0001
0000
0000
0000
0000
0000
0000
0000
1000
0000
0000
0000
0000
0000
0000
0000
0001
0000
0000
0000
0000
0000
0000
0000
1000
0000
0000
0000
0000
0000
0000
0000
,  // measure 132
0001
0000
0000
0000
0000
0000
0000
0000
1000
0000
0000
0000
0000
0000
0000
0000
0001
0000
0000
0000
0000
0000
0000
0000
0000
1000
0000
0000
0000
0000
0000
0000
0001
0000
0000
0000
0000
0000
0000
0000
1000
0000
0000
0000
0000
0000
0000
0000
0001
0000
0000
0000
0000
0000
0000
1000
0000
0000
0000
0000
0000
0000
0000
0000
,  // measure 133
0001
0000
0000
0000
0000
0000
0000
0000
1000
0000
0000
0000
0000
0000
0000
0000
0001
0000
0000
0000
0000
0000
0000
0000
1000
0000
0000
0000
0000
0000
0000
0000
0001
0000
0000
0000
0000
0000
0000
0000
1000
0000
0000
0000
0000
0000
0000
0000
0001
0000
0000
0000
0000
0000
0000
1000
0000
0000
0000
0000
0000
0000
0000
0000
,  // measure 134
0001
0000
0000
0000
0000
1000
0000
0000
0000
0000
0000
0000
1000
0000
0000
0100
0000
0000
0010
0000
0000
0001
0000
0000
2000
0000
0000
0000
0000
0000
0000
0000
0000
0000
0000
0000
0000
0000
0000
0000
0000
0000
0000
0000
0000
0000
0000
0000
,  // measure 135
0000
0000
0000
0000
0000
0000
3000
0000
0000
0000
0000
0000
1000
0100
1000
0100
1000
0100
1000
0100
1000
0100
1000
0000
,  // measure 136
0100
0010
0100
0010
0100
0010
0100
0010
0100
0010
0100
0000
0010
0001
0010
0001
0010
0001
0010
0001
0010
0000
0001
0010
,  // measure 137
0100
0001
0100
0001
0100
0001
0100
0010
1000
0000
1000
0001
1000
0100
1000
0100
1000
0000
0001
0010
0001
0010
0001
0000
,  // measure 138
0100
0001
0100
0000
0010
1000
0010
0100
0010
0000
0100
0010
0001
0010
0100
0010
1000
0010
1000
0100
0010
0000
0100
0010
,  // measure 139
0001
0100
0001
0000
1000
0100
1000
0100
0010
0001
0010
0100
2002
0000
0000
0000
0000
0000
0000
0000
0000
0000
0000
0000
,  // measure 140
0000
0000
3003
0000
;
