#TITLE:♡LOVE²シュガ→♡;
#SUBTITLE:;
#ARTIST:dj TAKA feat. のりあ;
#TITLETRANSLIT:LOVE LOVE SUGAR;
#SUBTITLETRANSLIT:;
#ARTISTTRANSLIT:dj TAKA feat.NORIA;
#GENRE:;
#CREDIT:;
#BANNER:LOVE LOVE SUGAR.png;
#BACKGROUND:LOVE LOVE SUGAR-bg.png;
#LYRICSPATH:;
#CDTITLE:!cdtitle.png;
#MUSIC:LOVE LOVE SUGAR.mp3;
#OFFSET:-0.023000;
#SAMPLESTART:56.480000;
#SAMPLELENGTH:15.000000;
#SELECTABLE:YES;
#BPMS:0.000000=155.026993
;
#STOPS:
;
#BGCHANGES:;
#KEYSOUNDS:;
#ATTACKS:;

//---------------dance-single - 2012 (was a 12)----------------
#NOTES:
     dance-single:
     :
     Hard:
     13:
     1.250391,1.282323,1.529376,1.247030,1.211736,744.000000,604.000000,130.000000,106.000000,0.000000,29.000000,1.250391,1.282323,1.529376,1.247030,1.211736,744.000000,604.000000,130.000000,106.000000,0.000000,29.000000:
// measure 0
1000
0100
0010
0001
0010
0100
1000
0100
0011
1000
0010
1000
0101
0000
0001
0010
,  // measure 1
1000
0010
1001
0000
1001
0010
0001
0010
0100
1000
0001
1000
0110
0000
0001
0010
,  // measure 2
0100
1000
0100
0010
1100
0010
0001
1000
0100
0010
0001
0010
1100
0000
0010
1000
,  // measure 3
0001
1000
0110
0000
1001
0010
0001
0010
2000
3200
0320
0032
0023
0230
2300
3002
,  // measure 4
0113
1010
1001
0000
1010
1100
0100
0110
,  // measure 5
0010
0000
0000
0000
1000
0100
0011
0000
0000
0000
0000
0000
0001
0000
0000
0000
0000
0000
0101
0000
0000
0000
0000
0000
0100
0000
0000
0000
0000
0000
0110
0000
0000
0000
0000
0000
0010
0000
0000
0000
0000
0000
1010
0000
0000
0000
0000
0000
,  // measure 6
1000
0000
0000
0000
0100
0010
1001
0000
0000
0000
0000
0000
0001
0000
0000
0000
0000
0000
0101
0000
0000
0000
0000
0000
0100
0000
0000
0000
0000
0000
1100
0000
0000
0000
0000
0000
1000
0000
0000
0000
0000
0000
1010
0000
0000
0000
0000
0000
,  // measure 7
0010
0000
0000
0000
1000
0001
0110
0000
0000
0000
0000
0000
0100
0000
0000
0000
0000
0000
1100
0000
0000
0000
0000
0000
1000
0000
0000
0100
0000
0000
0010
0000
0000
0001
0000
0000
1000
0000
0000
0100
0000
0000
0010
0000
0000
0000
0000
0000
,  // measure 8
0010
0000
0000
0000
0001
0100
1010
0000
0000
0000
0000
0000
1000
0000
0000
0000
0000
0000
1010
0000
0000
0000
0000
0000
0110
0000
0000
0000
0000
0000
0110
0000
0000
0000
0000
0000
0100
0000
0000
0000
0000
0000
1100
0000
0000
0000
0000
0000
,  // measure 9
1000
0000
0000
0000
0001
0100
1010
0000
0000
0000
0000
0000
0010
0000
0000
0000
0000
0000
0110
0000
0000
0000
0000
0000
0100
0000
0000
0000
0000
0000
0101
0000
0000
0000
0000
0000
0001
0000
0000
0000
0000
0000
0011
0000
0000
0000
0000
0000
,  // measure 10
0010
0000
0000
0000
1000
0100
0011
0000
0000
0000
0000
0000
0001
0000
0000
0000
0000
0000
1001
0000
0000
0000
0000
0000
1000
0000
0000
0000
0000
0000
1010
0000
0000
0000
0000
0000
0010
0000
0000
0000
0000
0000
0110
0000
0000
0000
0000
0000
,  // measure 11
0100
0000
0000
0000
1000
0001
0110
0000
0000
0000
0000
0000
0010
0000
0000
0000
0000
0000
0011
0000
0000
0000
0000
0000
0001
0000
0000
0100
0000
0000
1000
0000
0000
0001
0000
0000
1000
0000
0000
0100
0000
0000
0010
0000
0000
0000
0000
0000
,  // measure 12
0010
0000
0000
0000
0001
0010
1100
0000
0000
0000
0000
0000
1000
0000
0000
0000
0000
0000
1010
0000
0000
0000
0000
0000
1002
0000
0000
0000
0000
0000
0023
0000
0000
0000
0000
0000
0230
0000
0000
0000
0000
0000
0320
0000
0000
0000
0000
0000
,  // measure 13
0230
0000
0320
2030
0000
3002
0023
2030
,  // measure 14
3000
2000
3020
0032
0000
0203
2300
3020
,  // measure 15
0000
0000
0032
0000
0023
0000
0230
0000
0310
0001
1000
0001
1000
0001
0010
0000
,  // measure 16
0001
0000
0000
0000
1000
0001
0110
0000
0000
0000
0000
0000
0001
0000
0000
0000
0000
0000
0010
0000
0000
0000
0000
0000
1002
0000
0000
0000
0000
0000
0023
0000
0000
0000
0000
0000
0032
0000
0000
0000
0000
0000
0023
0000
0000
0000
0000
0000
,  // measure 17
2030
3200
0320
2030
0000
3120
1230
0312
,  // measure 18
0000
2013
3210
1320
0000
0032
0203
0320
,  // measure 19
0000
0000
2030
0000
3200
0000
0302
0000
1003
0010
1000
0100
0001
0010
0100
1000
,  // measure 20
0001
0000
0000
0000
0010
0100
1001
0000
0000
0000
0000
0000
0010
0000
0000
0000
0000
0000
0001
0000
0000
0000
0000
0000
1001
0000
0000
0010
0000
0000
1000
0000
0000
0010
0000
0000
0100
0000
0000
0010
0000
0000
0001
0000
0000
0010
0000
0000
,  // measure 21
0002
0010
0100
0010
2003
0010
3200
0010
0001
0010
0001
0010
1000
0010
1000
0010
,  // measure 22
0302
1000
0023
1000
0230
0001
2300
0001
0010
0100
0010
0100
3020
0100
1000
0100
,  // measure 23
1032
0100
0010
1000
0203
0010
0001
0010
1301
0100
0010
0100
0011
1000
0010
0001
,  // measure 24
1100
0010
0100
1000
0011
0100
1100
0010
1001
0100
0010
1000
0001
0010
0100
0001
,  // measure 25
2000
0010
3200
1000
0320
1000
0032
0100
0013
1000
0010
1000
0100
0010
0001
0010
,  // measure 26
0002
0100
0023
1000
0230
0001
2300
0010
3100
0010
0001
0010
0002
1000
0100
1000
,  // measure 27
0023
0100
0032
0100
0023
0001
0230
1000
0311
0000
0010
0000
1000
0000
1001
0000
,  // measure 28
0001
0000
0000
0010
0000
0000
0100
0000
0000
0001
0000
0000
0010
0000
0000
0100
0000
0000
1000
0000
0000
0100
0000
0000
1011
0000
0000
0000
0000
0000
1000
0000
0000
0000
0000
0000
0010
0000
0000
0000
0100
0010
1101
0000
0000
0000
0000
0000
,  // measure 29
0000
0001
0010
1000
0000
1010
0000
0101
,  // measure 30
0000
0000
0000
0000
0000
0000
0012
0000
0000
0000
0000
0000
0010
0000
0000
0000
0000
0000
0100
0000
0000
0000
0000
0000
1113
0000
0000
0000
0000
0000
0001
0000
0000
0000
0000
0000
0100
0000
0000
0000
0100
1000
0111
0000
0000
0000
0000
0000
,  // measure 31
0000
0010
1000
0100
0011
0110
0011
0000
,  // measure 32
1100
0000
0200
0000
0011
0000
1001
0000
1310
0001
0010
0100
0010
0100
1000
0100
,  // measure 33
2000
0001
3020
0100
0032
0100
1003
0001
2000
0100
0001
0010
3100
1000
0200
0001
,  // measure 34
1300
0010
0200
0001
0320
0100
0001
0100
2030
0010
0100
0001
0010
0001
3200
0010
,  // measure 35
1000
0000
0000
0001
0000
0000
0320
0000
0000
0001
0000
0000
2030
0000
0000
0100
0000
0000
3002
0000
0000
0000
0100
0010
1103
0000
0000
0000
0000
0000
0110
0000
0000
0000
0000
0000
0001
0000
0000
0000
0000
0000
0011
0000
0000
0000
0000
0000
,  // measure 36
0000
0000
0000
0000
0000
0000
0011
0000
0000
0000
0000
0000
1100
0000
0000
0000
0000
0000
0000
0000
0000
0000
0000
0000
0111
0000
0000
0000
0000
0000
1000
0000
0000
0000
0000
0000
0001
0000
0000
0000
1000
0001
1110
0000
0000
0000
0000
0000
,  // measure 37
0000
0001
1000
0011
0000
0110
0000
1100
,  // measure 38
0000
0000
0000
0000
0000
0000
2100
0000
0000
0000
0000
0000
0010
0000
0000
0000
0000
0000
3001
0000
0000
0000
0000
0000
1110
0000
0000
0000
0000
0000
0001
0000
0000
0000
0000
0000
1000
0000
0000
0000
0001
1000
0111
0000
0000
0000
0000
0000
,  // measure 39
0000
0000
0001
0000
1000
0000
0010
0000
1100
0001
0010
0000
0101
0010
1000
0000
,  // measure 40
0110
0001
2000
0000
0110
0000
3101
0000
0110
0001
0010
0100
1000
0100
2000
0100
,  // measure 41
3020
0100
2030
0001
3020
0100
0001
1000
0230
0001
0010
0001
0010
0001
2300
0010
,  // measure 42
0001
0010
3002
1000
0023
0001
0230
0010
2300
0100
3010
0001
0100
1000
0200
1000
,  // measure 43
0010
1000
0320
0001
2030
0100
3002
1000
0123
0000
2130
0000
0011
0000
3101
0000
,  // measure 44
0001
0010
0100
1000
0001
0010
0100
1000
0110
0000
0110
0000
0100
0000
1100
0000
,  // measure 45
1000
0000
0000
0000
0010
0100
1001
0000
0000
0000
0000
0000
0001
0000
0000
0000
0000
0000
0011
0000
0000
0000
0000
0000
0010
0000
0000
0000
0000
0000
0110
0000
0000
0000
0000
0000
0100
0000
0000
0000
0000
0000
1100
0000
0000
0000
0000
0000
,  // measure 46
1000
0000
0000
0000
0001
0100
1010
0000
0000
0000
0000
0000
0010
0000
0000
0000
0000
0000
0110
0000
0000
0000
0000
0000
0100
0000
0000
0000
0000
0000
0110
0000
0000
0000
0000
0000
0010
0000
0000
0000
0000
0000
0011
0000
0000
0000
0000
0000
,  // measure 47
0001
0000
0000
0000
0010
0100
1001
0000
0000
0000
0000
0000
1000
0000
0000
0000
0000
0000
1010
0000
0000
0000
0000
0000
0010
0000
0000
1000
0000
0000
0100
0000
0000
1000
0000
0000
0001
0000
0000
0010
0000
0000
1000
0000
0000
0000
0000
0000
,  // measure 48
0001
0000
0000
0000
0010
0100
1001
0000
0000
0000
0000
0000
1000
0000
0000
0000
0000
0000
1010
0000
0000
0000
0000
0000
1001
0000
0000
0000
0000
0000
0110
0000
0000
0000
0000
0000
0100
0000
0000
0000
0000
0000
0101
0000
0000
0000
0000
0000
,  // measure 49
0001
0000
0000
0000
0100
0010
1001
0000
0000
0000
0000
0000
1000
0000
0000
0000
0000
0000
1010
0000
0000
0000
0000
0000
0010
0000
0000
0000
0000
0000
0110
0000
0000
0000
0000
0000
0100
0000
0000
0000
0000
0000
0101
0000
0000
0000
0000
0000
,  // measure 50
0001
0000
0000
0000
1000
0100
0011
0000
0000
0000
0000
0000
0010
0000
0000
0000
0000
0000
0110
0000
0000
0000
0000
0000
0100
0000
0000
0000
0000
0000
1100
0000
0000
0000
0000
0000
1000
0000
0000
0000
0000
0000
1010
0000
0000
0000
0000
0000
,  // measure 51
0010
0000
0000
0000
1000
0001
0110
0000
0000
0000
0000
0000
0100
0000
0000
0000
0000
0000
1100
0000
0000
0000
0000
0000
0001
0000
0000
1000
0000
0000
0100
0000
0000
1000
0000
0000
0001
0000
0000
0010
0000
0000
0100
0000
0000
0000
0000
0000
,  // measure 52
0010
0000
0000
0000
0001
0010
1100
0000
0000
0000
0000
0000
1000
0000
0000
0000
0000
0000
1010
0000
0000
0000
0000
0000
2222
0000
0000
0000
0000
0000
0000
0000
0000
0000
0000
0000
0000
0000
0000
0000
0000
0000
0000
0000
0000
0000
0000
0000
,  // measure 53
0000
0000
0000
0000
,  // measure 54
0000
0000
3333
0000
;
