#TITLE:IF YOU WERE HERE;
#SUBTITLE:;
#ARTIST:JENNIFER;
#TITLETRANSLIT:;
#SUBTITLETRANSLIT:;
#ARTISTTRANSLIT:;
#GENRE:;
#CREDIT:;
#BANNER:IF YOU WERE HERE.png;
#BACKGROUND:IF YOU WERE HERE-bg.png;
#LYRICSPATH:IF YOU WERE HERE.lrc;
#CDTITLE:!cdtitle.png;
#MUSIC:IF YOU WERE HERE.mp3;
#OFFSET:-0.135000;
#SAMPLESTART:46.279999;
#SAMPLELENGTH:15.000000;
#SELECTABLE:YES;
#DISPLAYBPM:145.000000;
#BPMS:0.000000=145.600006
;
#STOPS:
;
#BGCHANGES:;
#KEYSOUNDS:;
#ATTACKS:;

//---------------dance-single - 2011 (my first file)----------------
#NOTES:
     dance-single:
     :
     Hard:
     13:
     1.084652,1.351806,1.175197,1.624148,1.043152,575.000000,486.000000,89.000000,123.000000,0.000000,31.000000,1.084652,1.351806,1.175197,1.624148,1.043152,575.000000,486.000000,89.000000,123.000000,0.000000,31.000000:
// measure 0
1010
0001
0000
1000
0001
0000
1000
0001
0100
0001
0000
0100
0001
0000
0100
0001
,  // measure 1
1100
0010
1000
0000
0001
1000
0000
0001
1000
0001
1000
0001
0010
0001
0010
1000
,  // measure 2
0110
0001
0000
0100
0001
0000
0100
0010
1001
0100
0001
0000
0100
0001
0000
0100
,  // measure 3
0001
0100
0000
0001
0100
0000
0010
0001
0100
0001
0100
1000
0010
1000
0001
0010
,  // measure 4
1100
0000
0100
1000
0100
1000
0100
0010
1001
0000
0001
1000
0001
1000
0001
0100
,  // measure 5
1010
0000
0010
1000
0010
1000
0010
0100
0011
1000
0010
1000
0010
0001
0010
0001
,  // measure 6
1100
0000
0100
1000
0100
1000
0100
0010
0101
0000
0100
0001
0100
0001
0100
0010
,  // measure 7
1000
0001
1000
0001
1000
0000
0001
0000
0010
0000
0001
0000
0010
0000
0001
0010
0100
1000
0100
0010
0001
1000
0100
0010
0001
0010
0100
1000
0010
0100
0010
0100
,  // measure 8
1001
0000
1001
0000
1001
0000
0001
0100
1100
0010
0100
1000
0001
0010
1000
0000
,  // measure 9
0110
0000
0110
0000
0110
0000
1000
0010
1010
0100
0010
0001
1000
0001
0010
0100
,  // measure 10
1010
0000
1010
0000
1010
0000
0100
0001
1010
1000
0001
0100
1000
0010
0001
0010
,  // measure 11
1100
0010
0001
1000
0110
1000
0001
0010
1001
0100
0010
1000
0101
0010
2000
0100
,  // measure 12
3020
0000
0032
0000
2003
3200
0000
0320
,  // measure 13
0032
0000
0203
0000
0320
0000
2030
0000
3100
0010
0100
0010
0100
0001
0020
0100
,  // measure 14
2030
3200
2300
3002
0023
0230
0320
2030
,  // measure 15
3020
0000
0032
0000
0203
0000
0320
0000
0001
1000
0130
0001
0100
0010
2000
0100
,  // measure 16
3020
0000
0230
0000
0302
2003
0000
3200
,  // measure 17
0320
0000
2030
0000
3200
0000
0302
0000
1000
0100
0013
1000
0010
0100
2000
0001
,  // measure 18
3200
2300
3002
0023
0230
0302
0023
0230
,  // measure 19
0320
2030
3002
0203
0000
0320
0230
2300
,  // measure 20
3200
0000
0320
0000
2030
3002
0000
0023
,  // measure 21
0000
0230
2300
0000
0000
3200
0320
0032
,  // measure 22
2003
0000
3020
0000
0230
2300
0000
3020
,  // measure 23
0000
0230
0302
2003
0000
3020
0230
0320
,  // measure 24
2030
0000
3200
0000
0320
2030
0000
3022
,  // measure 25
0000
0233
2300
3200
0000
0320
2030
3002
,  // measure 26
2003
3200
0320
0032
,  // measure 27
2003
0000
0000
0000
0010
0100
0010
0100
3020
0000
0000
0000
0100
0001
0100
0001
0230
0000
0000
0000
0302
0000
0000
0000
2003
0000
0000
0000
3200
0000
0000
0000
,  // measure 28
2301
0001
0001
3201
0001
0001
0321
0001
,  // measure 29
0001
1032
1000
1000
1023
0100
2130
0010
,  // measure 30
3021
0231
0001
0321
0001
1032
1000
1023
,  // measure 31
1000
0000
1032
0000
1203
0000
1302
0000
1000
0000
1000
0010
1000
0100
1003
0010
,  // measure 32
1002
1000
1000
1023
1000
1000
1230
1000
,  // measure 33
1000
0312
0010
0010
2013
0010
3120
0100
,  // measure 34
2130
3210
0321
1032
0100
2103
3120
0231
,  // measure 35
1000
0000
0321
0000
1032
0000
1000
0000
0100
0000
1000
0000
0100
0000
0100
0010
,  // measure 36
1103
0000
1100
0000
1100
0000
1000
0010
0110
1000
0010
0001
0010
0100
1000
0000
,  // measure 37
0101
0000
0101
0000
0101
0000
0100
0010
1010
0001
0100
0010
0001
0100
1000
0001
,  // measure 38
0110
0000
0110
0000
0110
0000
0010
1000
1100
0010
0001
0100
1000
0001
0010
0000
,  // measure 39
0101
0000
0101
0000
0101
0000
0001
0100
1001
0010
0001
1000
0010
0001
0100
0010
,  // measure 40
1100
0000
1100
0000
1100
0000
0010
1000
1010
0100
0010
0100
0001
1000
0100
0000
,  // measure 41
1100
0000
1100
0000
1100
0000
1000
0010
0110
1000
0001
1000
0100
0001
1000
0010
,  // measure 42
0101
0000
0101
0000
0101
0000
0010
1000
1100
0010
1000
0001
0010
0100
1000
0001
,  // measure 43
0110
0001
1000
0010
0101
1000
0010
0100
1001
0100
0001
0100
0011
0100
1000
0001
,  // measure 44
0100
0010
0100
0010
0100
0000
0000
0000
1000
0000
0100
0000
1000
0000
0100
0000
0010
0100
0010
0100
0010
0000
0000
0000
1000
0000
0100
0000
1000
0000
0100
0000
,  // measure 45
2002
0000
3003
0000
;
