#TITLE:Hyakugojyuuichi 2003;
#SUBTITLE:;
#ARTIST:Lemon Demon;
#TITLETRANSLIT:;
#SUBTITLETRANSLIT:;
#ARTISTTRANSLIT:;
#GENRE:;
#CREDIT:;
#BANNER:;
#BACKGROUND:;
#LYRICSPATH:hyaku03.lrc;
#CDTITLE:!cdtitle.png;
#MUSIC:Hyakugojyuuichi 2003.mp3;
#OFFSET:-0.840680;
#SAMPLESTART:30.799999;
#SAMPLELENGTH:15.000000;
#SELECTABLE:YES;
#DISPLAYBPM:130.000000;
#BPMS:0.000000=65.075996
,1.000000=65.067001
,2.000000=65.005997
,3.000000=65.063004
,4.000000=1007.999939
,5.000000=129.490005
,6.000000=129.813995
,7.000000=129.048004
,8.000000=134.335007
,9.000000=127.382996
,10.000000=133.582001
,11.000000=126.041992
,12.000000=133.636002
,13.000000=127.236000
,14.000000=132.731003
,15.000000=126.639008
,16.000000=133.380005
,17.000000=127.426003
,18.000000=132.300003
,19.000000=127.223999
,20.000000=132.511993
,21.000000=128.246994
,22.000000=131.936996
,23.000000=127.469002
,24.000000=132.778000
,25.000000=127.925003
,26.000000=132.016006
,27.000000=127.431992
,28.000000=132.544998
,29.000000=128.141998
,30.000000=133.751007
,31.000000=124.482010
,32.000000=135.268997
,33.000000=127.149994
,34.000000=126.470001
,35.000000=132.479004
,36.000000=133.125000
,37.000000=130.057007
,38.000000=130.050003
,39.000000=130.057007
,40.000000=130.050003
,41.000000=130.057007
,42.000000=130.050003
,43.000000=130.057007
,44.000000=130.050003
,45.000000=129.871002
,46.000000=129.865005
,47.000000=129.871002
,48.000000=129.865005
,49.000000=130.005005
,50.000000=129.998993
,53.000000=130.037003
,54.000000=130.031006
,55.000000=130.037003
,56.000000=130.031006
,57.000000=257.042999
,58.000000=261.101013
,59.000000=257.042999
,60.000000=258.651001
,61.000000=251.569000
,62.000000=267.868011
,63.000000=263.597992
,64.000000=263.571991
,65.000000=130.011993
,68.000000=130.005005
,69.000000=130.011993
,70.000000=130.005005
,71.000000=130.011993
,72.000000=130.005005
,73.000000=130.011993
,74.000000=130.005005
,75.000000=130.011993
,76.000000=130.005005
,77.000000=130.011993
,78.000000=130.005005
,79.000000=130.011993
,80.000000=130.005005
,81.000000=130.268005
,82.000000=128.940994
,83.000000=132.016006
,84.000000=129.395004
,85.000000=129.839996
,86.000000=129.832993
,87.000000=129.839996
,88.000000=129.832993
,89.000000=129.839996
,90.000000=129.832993
,93.000000=129.559998
,94.000000=129.552994
,95.000000=129.559998
,96.000000=129.552994
,97.000000=130.738007
,98.000000=129.503006
,99.000000=129.807999
,100.000000=129.199005
,101.000000=129.845993
,102.000000=132.128006
,103.000000=129.947998
,104.000000=131.595993
,105.000000=130.037003
,113.000000=129.490005
,116.000000=129.483994
,117.000000=130.854004
,120.000000=130.848007
,121.000000=129.897003
,124.000000=129.891006
,125.000000=129.897003
,128.000000=129.891006
,129.000000=129.897003
,132.000000=129.891006
,133.000000=129.897003
,134.000000=129.891006
,135.000000=129.897003
,136.000000=129.891006
,137.000000=130.108002
,138.000000=129.294006
,139.000000=130.082001
,145.000000=130.024994
,148.000000=130.018005
,149.000000=130.024994
,150.000000=130.018005
,151.000000=130.024994
,152.000000=130.018005
,153.000000=129.832993
,154.000000=129.826996
,161.000000=129.832993
,162.000000=129.826996
,169.000000=133.576004
,170.000000=129.960999
,175.000000=129.953995
,176.000000=131.048004
,177.000000=129.237000
,178.000000=130.248993
,179.000000=129.641998
,180.000000=131.074005
,181.000000=128.884995
,182.000000=130.492996
,183.000000=129.832993
,184.000000=130.764008
,185.000000=129.979996
,186.000000=129.973007
,189.000000=129.979996
,190.000000=129.973007
,197.000000=130.005005
,200.000000=129.998993
,201.000000=130.005005
,204.000000=129.998993
,205.000000=130.057007
,208.000000=130.050003
,209.000000=129.903000
,212.000000=129.897003
,213.000000=130.132996
,214.000000=130.126999
,215.000000=130.132996
,216.000000=130.126999
,217.000000=130.031006
,218.000000=130.024994
,221.000000=130.005005
,222.000000=129.998993
,225.000000=129.973007
,226.000000=129.966995
,227.000000=129.973007
,228.000000=129.966995
,229.000000=130.063004
,230.000000=130.057007
,231.000000=130.063004
,232.000000=130.057007
,233.000000=129.947998
,234.000000=129.942001
,235.000000=129.947998
,236.000000=129.942001
,237.000000=130.018005
,241.000000=129.985992
,245.000000=130.031006
,246.000000=130.024994
,247.000000=130.031006
,248.000000=130.024994
,249.000000=129.960999
,253.000000=129.973007
,256.000000=129.966995
,257.000000=129.731003
,260.000000=129.725006
,261.000000=129.731003
,262.000000=129.725006
,263.000000=129.731003
,264.000000=129.725006
,265.000000=130.210007
,269.000000=129.903000
,273.000000=130.229004
,274.000000=130.223007
,275.000000=130.229004
,276.000000=130.223007
,277.000000=130.229004
,278.000000=130.223007
,281.000000=130.069000
,285.000000=129.966995
,288.000000=129.960999
,289.000000=128.921997
,290.000000=128.546005
,291.000000=131.608994
,292.000000=130.069000
,293.000000=129.865005
,294.000000=129.763000
,295.000000=130.576004
,296.000000=130.860992
,297.000000=129.973007
,298.000000=129.966995
,301.000000=129.973007
,302.000000=129.966995
,305.000000=129.979996
,306.000000=129.973007
,307.000000=129.979996
,308.000000=129.973007
,311.000000=129.376007
,312.000000=129.960999
,313.000000=128.921997
,316.000000=128.916000
,317.000000=128.921997
,320.000000=128.916000
,321.000000=131.100006
,326.000000=131.093994
,327.000000=131.100006
,329.000000=131.093994
,330.000000=129.218002
,331.000000=129.212006
,333.000000=130.511993
,337.000000=130.082001
,340.000000=130.076004
,341.000000=130.082001
,344.000000=130.076004
,345.000000=130.082001
,346.000000=130.076004
,347.000000=130.082001
,348.000000=130.076004
,349.000000=129.960999
,352.000000=129.953995
,353.000000=129.992996
,354.000000=129.985992
,357.000000=129.934998
,358.000000=129.929001
,361.000000=129.985992
,363.000000=129.477005
,364.000000=130.082001
,365.000000=128.822006
,366.000000=128.216003
,367.000000=132.220993
,368.000000=129.725006
,369.000000=129.630005
,385.000000=130.466995
,386.000000=130.460999
,387.000000=130.466995
,388.000000=130.460999
,389.000000=130.466995
,390.000000=130.460999
,393.000000=130.466995
,394.000000=130.460999
,395.000000=130.466995
,396.000000=130.460999
,397.000000=130.466995
,398.000000=130.460999
,401.000000=129.916000
,402.000000=129.910004
,403.000000=129.916000
,404.000000=129.910004
,405.000000=129.699997
,410.000000=129.692993
,411.000000=129.699997
,416.000000=129.692993
,417.000000=130.376999
,418.000000=130.371002
,419.000000=130.376999
,420.000000=130.371002
,423.000000=130.589005
,424.000000=131.335007
,425.000000=129.807999
,428.000000=129.800995
,429.000000=129.807999
,432.000000=129.800995
,433.000000=129.807999
,436.000000=129.800995
,437.000000=129.807999
,440.000000=129.800995
,441.000000=131.904007
,442.000000=131.688004
,446.000000=127.071007
,448.000000=127.064995
,449.000000=133.608994
,450.000000=128.378006
,451.000000=129.921997
,452.000000=129.916000
,459.000000=130.718002
,460.000000=130.712006
,461.000000=130.718002
,462.000000=130.712006
,465.000000=130.190994
,466.000000=129.757004
,467.000000=126.572998
,468.000000=129.641998
,469.000000=130.337997
,470.000000=130.332001
,471.000000=130.337997
,472.000000=130.332001
,473.000000=129.929001
,474.000000=129.921997
,477.000000=130.076004
,478.000000=130.069000
,479.000000=130.076004
,480.000000=130.069000
,481.000000=130.197006
,485.000000=129.839996
,488.000000=129.832993
,489.000000=130.076004
,493.000000=129.300003
,494.000000=131.977005
,495.000000=123.871010
,496.000000=134.389999
,497.000000=129.979996
,504.000000=129.973007
,505.000000=129.979996
,508.000000=129.973007
,509.000000=129.979996
,512.000000=129.973007
,513.000000=129.992996
,514.000000=129.985992
,515.000000=129.992996
,516.000000=129.985992
,517.000000=129.992996
,518.000000=129.985992
,521.000000=130.018005
,522.000000=130.011993
,525.000000=130.018005
,526.000000=130.011993
,529.000000=129.979996
,530.000000=129.973007
,533.000000=129.979996
,534.000000=129.973007
,537.000000=130.005005
,538.000000=129.998993
,541.000000=130.005005
,542.000000=129.998993
,545.000000=130.151993
,546.000000=130.557007
,547.000000=130.151993
,548.000000=129.130005
,549.000000=130.563995
,550.000000=130.970993
,551.000000=129.432999
,552.000000=130.044006
,553.000000=130.100998
,554.000000=130.095001
,557.000000=130.100998
,558.000000=130.095001
,561.000000=130.210007
,562.000000=130.203995
,563.000000=130.210007
,564.000000=130.203995
,565.000000=130.210007
,566.000000=130.203995
,569.000000=129.953995
,570.000000=129.947998
,573.000000=129.953995
,574.000000=129.947998
,577.000000=129.660995
,578.000000=129.654999
,585.000000=130.044006
,586.000000=130.037003
,593.000000=129.813995
,594.000000=129.807999
,601.000000=131.210999
,602.000000=130.132996
,604.000000=133.804993
,606.000000=129.192993
,609.000000=129.186996
,610.000000=129.192993
,611.000000=129.186996
,612.000000=129.192993
,613.000000=129.186996
,614.000000=128.167007
,615.000000=129.610992
,616.000000=129.604004
,617.000000=130.414993
,625.000000=128.891006
,626.000000=128.884995
,627.000000=128.891006
,628.000000=128.884995
,629.000000=130.005005
,631.000000=129.998993
,632.000000=131.009995
,633.000000=130.100998
,637.000000=258.372986
,638.000000=516.695984
,644.000000=516.796997
,645.000000=516.695984
,652.000000=130.641006
,655.000000=130.634003
,656.000000=130.332001
,657.000000=130.326004
,658.000000=130.332001
,659.000000=130.326004
,660.000000=130.306000
,661.000000=130.300003
,662.000000=130.306000
,663.000000=130.300003
,664.000000=129.389008
,665.000000=129.382004
,666.000000=129.389008
,667.000000=129.382004
,668.000000=265.183014
,669.000000=259.360992
,669.500000=259.334991
,670.000000=261.618011
,671.000000=255.553009
,671.500000=255.529007
,672.000000=263.703003
,672.500000=262.864990
,673.000000=257.143005
,673.500000=256.321014
,674.000000=266.894989
,674.500000=256.942993
,675.000000=252.240005
,675.500000=266.010010
,676.000000=263.651001
,676.500000=262.395996
,677.000000=258.498993
,677.500000=258.473999
,678.000000=270.109985
,678.500000=254.324997
,679.000000=258.196991
,679.500000=258.372986
,680.000000=264.493988
,680.500000=257.092987
,681.000000=254.324997
,681.500000=258.272003
,682.000000=1051.250000
,686.000000=1038.050049
,690.000000=1044.609985
,692.000000=1034.810059
,694.000000=1049.579956
,696.000000=1056.290039
,697.000000=1055.869995
,698.000000=130.050003
,701.000000=130.044006
,702.000000=130.050003
,703.000000=130.044006
,704.000000=130.050003
,705.000000=130.044006
,706.000000=130.126999
,707.000000=130.119995
,708.000000=130.126999
,709.000000=130.119995
,710.000000=130.126999
,711.000000=130.119995
,712.000000=130.126999
,713.000000=130.119995
,714.000000=130.063004
,715.000000=130.057007
,716.000000=130.063004
,717.000000=130.057007
,718.000000=130.063004
,719.000000=130.057007
,720.000000=130.063004
,721.000000=130.057007
,722.000000=129.858994
,723.000000=129.852005
,724.000000=129.858994
,725.000000=129.852005
,726.000000=129.858994
,727.000000=129.852005
,728.000000=129.858994
,729.000000=129.852005
,730.000000=127.925003
,731.000000=127.726990
,732.000000=130.789001
,733.000000=133.285995
,734.000000=128.358994
,735.000000=128.921997
,736.000000=126.090004
,737.000000=129.686996
,738.000000=127.273010
,739.000000=124.964989
,740.000000=129.973007
,741.000000=122.459991
,742.000000=126.986000
,743.000000=132.220993
,744.000000=128.878006
,746.000000=118.462997
,747.000000=118.458000
,749.000000=78.971001
,750.000000=52.647999
,751.000000=35.098000
,752.000000=23.399000
,753.000000=15.599000
,754.000000=10.400000
,755.000000=6.933000
,756.000000=3914.199707
,772.000000=129.998993
;
#STOPS:4.062500=0.052000,
4.187500=0.052000,
4.312500=0.052000,
4.437500=0.052000,
4.562500=0.052000,
4.687500=0.052000,
4.812500=0.052000,
4.937500=0.052000,
668.125000=0.057000,
668.375000=0.057000,
668.625000=0.057000,
668.875000=0.057000,
669.125000=0.058000,
669.375000=0.058000,
669.625000=0.058000,
669.875000=0.058000,
670.125000=0.057000,
670.375000=0.057000,
670.625000=0.057000,
670.875000=0.057000,
671.125000=0.059000,
671.375000=0.059000,
671.625000=0.059000,
671.875000=0.059000,
672.125000=0.057000,
672.375000=0.057000,
672.625000=0.057000,
672.875000=0.057000,
673.125000=0.058000,
673.375000=0.058000,
673.625000=0.059000,
673.875000=0.059000,
674.125000=0.056000,
674.375000=0.056000,
674.625000=0.058000,
674.875000=0.058000,
675.125000=0.059000,
675.375000=0.059000,
675.625000=0.056000,
675.875000=0.056000,
676.125000=0.057000,
676.375000=0.057000,
676.625000=0.057000,
676.875000=0.057000,
677.125000=0.058000,
677.375000=0.058000,
677.625000=0.058000,
677.875000=0.058000,
678.125000=0.056000,
678.375000=0.056000,
678.625000=0.059000,
678.875000=0.059000,
679.125000=0.058000,
679.375000=0.058000,
679.625000=0.058000,
679.875000=0.058000,
680.125000=0.057000,
680.375000=0.057000,
680.625000=0.058000,
680.875000=0.058000,
681.125000=0.059000,
681.375000=0.059000,
681.625000=0.058000,
681.875000=0.058000
;
#BGCHANGES:;
#KEYSOUNDS:;
#ATTACKS:;

//---------------dance-single - 2015----------------
#NOTES:
     dance-single:
     :
     Hard:
     14:
     0.897278,1.122923,1.285557,0.218877,0.754988,2267.000000,1735.000000,464.000000,79.000000,76.000000,80.000000,0.897278,1.122923,1.285557,0.218877,0.754988,2267.000000,1735.000000,464.000000,79.000000,76.000000,80.000000:
// measure 0
0000
0000
0000
0000
,  // measure 1
1000
0100
0010
0001
1000
0100
0010
0001
1110
0000
0000
0000
1000
0000
0000
0000
1010
0000
0000
0000
0001
0000
1010
0000
0000
0000
0000
0000
1010
0000
0000
0000
,  // measure 2
1001
0000
0010
0000
0101
0000
1000
0000
0101
0000
1000
0101
0000
0000
0101
0000
,  // measure 3
1001
0000
0100
0000
2010
3000
0010
0000
0201
0300
0010
1001
0000
0200
2301
3200
,  // measure 4
2310
3000
0200
0000
2301
3000
0010
0000
0210
0300
0001
2010
3000
0200
2301
3200
,  // measure 5
2310
3000
0201
0300
2010
3000
0001
0000
0210
0300
0010
0101
0000
0200
2301
3200
,  // measure 6
2310
3000
2000
3000
0210
0300
0010
0000
2001
3000
0001
0010
0000
2000
3200
2300
,  // measure 7
3201
0300
0210
0300
1101
0000
0011
0000
0110
0000
0000
0010
0000
1000
0000
0100
,  // measure 8
0011
0000
0001
0000
1100
0000
0110
0000
0001
0010
0100
0000
0011
0000
0100
0010
,  // measure 9
0100
0000
1100
0000
1001
0000
1000
0100
0010
0000
1000
0000
0010
0000
0001
0000
,  // measure 10
0101
0010
0100
0000
0000
0000
0001
0010
0001
0000
1000
0000
0101
0000
0110
0000
,  // measure 11
1010
0100
0010
0000
1011
0000
1000
0000
0100
0000
0010
0100
1010
0000
0110
0000
,  // measure 12
0101
0000
0000
0000
0001
0000
0010
0000
1000
0010
1000
0010
1100
0010
0101
0000
,  // measure 13
1001
0000
0011
0000
1110
0001
1000
0000
0100
0010
0001
0000
0010
0000
0100
0000
,  // measure 14
1001
0000
1100
0011
1100
0000
0110
0000
,  // measure 15
0011
1010
0110
0202
,  // measure 16
0000
0000
0000
0000
0000
0000
0000
0000
0000
0000
0000
0000
0000
0000
0000
0303
1111
0000
0000
0000
0000
0000
0000
0000
1000
0000
0000
0000
0010
0000
0000
0000
0100
0000
0000
0000
0000
0000
0000
0000
0001
0000
0000
0000
0010
0000
0000
0000
0100
0000
0000
0000
0000
0000
0000
0000
0001
0000
0000
0000
0000
0000
0000
0000
,  // measure 17
1010
0100
1000
0010
0101
0000
1001
0000
1100
0000
0110
0000
0010
0100
0000
0110
,  // measure 18
0000
0000
1000
0100
0010
0000
0100
0010
0001
0000
0010
0001
0100
0000
0001
0100
,  // measure 19
1000
0000
0000
0001
0010
0001
0100
0000
0110
0000
1000
0000
0110
0001
0000
0110
,  // measure 20
0000
0001
0010
0001
1110
0000
0110
0000
0101
0000
1000
0000
0010
0100
0000
1001
,  // measure 21
0000
0100
0010
0000
0000
0001
0010
0000
0100
0000
1000
0000
1010
0000
0110
0000
,  // measure 22
0101
0000
1000
0010
1000
0001
0100
0000
0010
0000
0100
0000
0001
0010
0000
0011
,  // measure 23
0000
0001
0100
0010
1100
0000
0110
0000
0011
0000
1001
0000
0010
0100
0000
1001
,  // measure 24
0000
0000
0000
0000
1101
0000
0010
0100
0011
0000
0001
1010
0000
0000
1010
0000
,  // measure 25
1001
0000
0000
0110
0000
0000
1001
0100
0010
0001
0010
0100
1000
0100
0010
0001
0010
0100
1000
0100
0010
0001
0010
0100
,  // measure 26
1001
0000
0010
0100
1011
0000
1000
0010
0000
0000
0010
0000
0001
0000
0001
1000
,  // measure 27
0000
0000
0000
1000
0100
0000
0010
0000
0100
0000
1000
0000
0011
0100
1010
0000
,  // measure 28
1001
0000
1100
0010
1101
0010
0100
0001
0000
0000
0000
0000
0001
0010
0100
0000
,  // measure 29
1000
0000
0000
0000
1010
0000
0100
0010
0001
0100
1000
0010
1100
0000
0110
0011
,  // measure 30
0000
0000
0001
0000
1011
0100
0010
0100
1000
0000
0010
0000
0001
1000
0000
0011
,  // measure 31
0000
0110
0000
0000
1010
0100
0000
0010
0001
0000
1000
0010
0000
0100
0001
0000
,  // measure 32
1001
0000
0110
0000
1001
0000
0010
0100
0000
1000
0010
1000
0001
0000
0001
1000
,  // measure 33
0000
0010
0000
0100
1000
0100
0001
1010
0000
0000
0010
0000
1000
0010
0100
0000
,  // measure 34
1010
0000
0011
0000
0111
0000
0001
0001
1000
0000
1000
0010
0001
0000
0010
0101
,  // measure 35
0000
0001
0100
1000
0110
0000
1010
0000
0101
0000
1100
0000
0011
1000
0000
1001
,  // measure 36
0000
0000
1000
0100
0011
0100
0001
0000
0010
0000
0100
0000
0001
1000
0000
0011
,  // measure 37
0000
0000
0000
0000
0100
0000
0000
0000
1001
0000
0010
0000
0100
0000
0010
0000
1000
0000
0000
0000
0001
0000
0000
0000
0001
0100
1000
0010
0101
0000
0000
0000
,  // measure 38
1010
0100
0010
0100
1001
0000
0100
0000
0010
0000
1000
0000
0010
0001
0000
0010
,  // measure 39
0001
1000
0100
0001
0010
1000
0100
0010
1000
0000
0000
0000
0010
0000
0000
0000
0100
0000
0000
0000
0001
0000
0000
0000
1000
0000
0000
0000
0001
0000
0000
0000
,  // measure 40
0010
1000
0001
1000
0100
0001
0010
1000
0001
0000
0000
0000
0010
0000
0100
0000
1000
0000
0000
0000
0100
0000
0010
0000
0001
0000
0000
0000
1000
0000
0010
0000
,  // measure 41
0100
1000
0100
0010
1000
0001
0010
0100
0001
0000
0000
0000
0011
0000
0000
0000
0110
0000
0000
0000
1100
0000
0000
0000
1010
0000
0001
0000
0000
0000
1000
0000
,  // measure 42
0001
0010
0100
1000
0001
0010
1000
0100
1011
0000
0000
0000
1000
0000
0100
0000
1010
0000
0000
0000
0000
0000
0110
0000
0000
0000
0000
0000
0011
0000
0000
0000
,  // measure 43
1001
0000
0001
0000
1100
0000
0010
0100
0011
0000
0000
0101
0000
0000
1010
0000
,  // measure 44
1001
0000
0010
0000
1100
0000
0100
1000
0011
0000
0000
1010
0000
0000
0110
0000
,  // measure 45
0101
1000
0020
0000
0200
0000
2000
0000
,  // measure 46
0002
0000
0000
0003
0002
0000
0000
0000
0000
0000
0000
0000
0000
0000
0000
3303
1131
0000
0000
0000
0000
0000
0000
0000
1010
0000
0000
0000
0100
0000
0000
0000
0010
0000
0000
0000
0100
0000
0000
0000
1000
0000
0000
0000
0001
0000
0000
0000
0010
0000
0000
0000
0000
0000
0000
0000
0001
0000
0000
0000
0010
0000
0000
0000
,  // measure 47
0100
0000
0010
0000
0100
0000
1000
0000
0010
0000
0001
0000
0010
0000
0100
0000
0001
0000
0000
0000
0001
0000
0010
0000
0000
1000
0000
0000
0100
0000
1000
0000
,  // measure 48
0010
0100
0000
0000
1000
0100
0001
0000
0010
0100
0001
0010
1000
0010
0100
0001
,  // measure 49
0000
1000
0010
0100
0001
0000
0001
1000
0000
0001
1000
0100
0010
0001
0100
1000
,  // measure 50
0000
0000
0000
1000
1001
0000
0001
0000
0011
0000
0000
0001
1001
0000
1000
0000
,  // measure 51
1100
0000
0000
0010
0011
0000
0001
0000
0101
0000
0100
0000
0010
0000
0010
0000
,  // measure 52
1000
0010
1000
0001
0100
0010
0000
1001
0000
0000
0001
0010
0100
0010
0000
1001
,  // measure 53
0000
0110
0000
0000
1100
0000
0010
0100
1000
0010
0001
0000
0011
0000
0100
0010
,  // measure 54
0000
1001
0000
0000
1011
0000
0010
1000
0100
0000
0010
0000
0001
0100
0000
0001
,  // measure 55
0000
0000
0000
0010
0000
0000
0100
0000
0000
1000
0000
0000
0001
0000
0000
0000
0000
0000
1000
0000
0000
0000
0000
0000
0010
0000
0000
0000
0000
0000
1001
0000
0000
0010
0000
0000
0100
0000
0000
0000
0000
0000
1000
0000
0000
0000
0011
0000
,  // measure 56
0000
0000
0010
0100
1010
0000
1000
0010
0100
0001
0000
0000
1001
0000
0000
0000
,  // measure 57
0000
0000
0010
0100
0010
0000
0010
1000
0000
1000
0001
0000
0100
0010
0100
0000
,  // measure 58
1001
0000
0000
0000
1110
0001
0010
0000
1000
0100
1000
0000
0010
1000
0000
1001
,  // measure 59
0000
0000
1000
0100
1000
0010
0001
0000
0001
0010
0101
0000
0011
0000
0110
0000
,  // measure 60
1100
0000
1010
0000
0101
0000
0001
1010
0000
0000
0100
0001
0010
0000
0100
0000
,  // measure 61
1001
0000
0000
0000
0010
0000
0000
0000
0100
0000
0000
0000
0010
0000
0000
0000
0001
0000
0000
0000
0000
0000
0000
0000
1000
0000
0000
0000
0000
0000
0000
0000
0100
0000
0000
0000
0000
0000
0000
0000
0010
0000
0000
0000
0100
0000
0000
0000
2020
0000
0000
0000
0000
0000
0000
0000
0202
0000
0000
0000
0000
0000
0000
3333
,  // measure 62
2222
0000
0000
0000
0000
0000
0000
0000
0000
0000
0000
0000
0000
0000
0000
3333
1111
0000
0000
0000
0000
0000
0000
0000
1100
0000
0000
0000
0000
0000
0000
0000
0110
0000
0000
0000
0000
0000
0000
0000
0011
0000
0000
0000
0000
0000
0000
0000
0110
0000
0000
0000
0001
0000
0000
0000
1100
0000
0000
0000
0000
0000
0000
0000
,  // measure 63
1010
0000
0000
0000
0000
0001
0010
0100
0001
0000
0000
0000
0100
0000
0010
0000
,  // measure 64
1000
0000
0100
0000
1010
0000
1000
0010
0000
0010
0001
0000
0011
0000
0001
0100
,  // measure 65
0000
0000
0100
0000
0110
0000
0010
0000
1000
0000
0001
0010
0100
0010
0000
0001
,  // measure 66
0000
1000
0000
0200
1011
0000
0300
0000
0000
0000
0001
0000
1000
0010
0000
1001
,  // measure 67
0000
0000
0100
0010
0001
0000
1000
0000
0010
0000
1000
0000
0100
0010
0000
1100
,  // measure 68
0000
0000
0000
0000
1000
0001
1000
0001
1010
0000
0000
0000
0010
0000
0000
0000
0001
0000
0000
0000
0100
0000
0000
0000
0001
0000
1000
0000
0000
0000
1001
0000
,  // measure 69
0000
1000
0010
0100
0001
0000
0010
0000
0001
0000
1000
0000
0100
0010
0000
1100
,  // measure 70
0000
0000
0000
0000
0111
0000
0000
0000
0011
0000
0010
0100
0000
0000
1010
0000
,  // measure 71
1001
0000
0101
0000
1000
0100
0010
0000
1001
0000
0010
0100
1000
0100
0010
0000
,  // measure 72
0011
0000
1010
0000
1001
0000
0000
0000
1100
0000
0100
1000
0000
0000
1100
0000
,  // measure 73
0011
0000
1001
0000
1000
0010
0001
0000
1001
0000
0001
0010
0100
0010
0001
0000
,  // measure 74
0101
0000
0110
0000
1110
0000
0000
0000
1001
0000
0100
0001
0000
0000
0101
0000
,  // measure 75
1010
1100
0010
1000
0001
0100
1000
0001
,  // measure 76
0100
0000
0010
0000
0101
0000
0000
0000
1010
0000
1000
0001
0000
0000
1010
0000
,  // measure 77
0011
0000
0110
0000
0100
0001
0100
0000
0011
0000
0001
0010
1000
0100
1000
0000
,  // measure 78
1001
0101
1110
0000
1000
0000
1000
0100
,  // measure 79
0010
0000
0000
0010
0004
0000
0000
1100
,  // measure 80
0110
0000
0000
0000
0000
0000
0000
0000
1010
0000
0000
0000
0000
0000
0000
0003
1111
0000
0000
0000
0000
0000
0000
0000
0001
0000
0000
0000
0000
0000
0000
0000
0010
0000
0000
0000
1000
0000
0000
0000
0000
0000
0000
0000
0000
0000
0000
0000
0000
0000
0000
0000
0000
0000
0000
0000
0100
0000
0000
0000
1000
0000
0000
0000
,  // measure 81
0100
0001
MM12
M2M3
23MM
3M2M
1030
0010
,  // measure 82
0100
0000
0001
0000
0110
0001
1000
0010
1000
0000
0000
0000
0000
0000
0100
0010
,  // measure 83
1000
0010
0100
0000
1010
0001
0100
1000
0010
0100
0000
0000
1001
0000
0010
1000
,  // measure 84
0001
0100
0001
0000
1010
0000
0001
0000
1000
0000
0000
0000
0001
0000
0010
0000
,  // measure 85
0100
0000
0001
0100
0001
1000
0010
0100
,  // measure 86
0010
0000
0000
0000
1000
0000
0010
0000
0001
0000
0010
0100
1000
0000
0100
0000
,  // measure 87
0010
0001
0010
1000
0100
0001
0010
0001
,  // measure 88
0100
0000
1000
0000
1M11
MMMM
MMMM
MMMM
11M1
MMMM
MMMM
MMMM
M111
MMMM
MMMM
MMMM
,  // measure 89
111M
MMMM
MMMM
MMMM
1010
0000
0001
0000
1100
0000
0010
0000
0101
0000
1000
0100
,  // measure 90
0011
0000
0001
0010
1100
0010
0000
0001
1010
0000
1000
0000
0011
0000
0010
0100
,  // measure 91
0001
0000
0000
0000
0011
0000
0101
0110
1010
0000
0000
0000
1100
0000
1010
1001
,  // measure 92
0101
0000
0000
0000
0000
0000
0000
0000
0000
0000
0000
0000
0000
0000
0000
0000
0000
0000
0000
0000
0000
0000
0000
0000
0000
0000
0000
0000
0000
0000
0000
0000
0000
0000
0000
0000
0000
0000
0000
0000
0000
0000
0000
0000
0000
0000
0000
0000
1001
0000
0000
0000
0000
0000
0000
0000
0000
0000
0000
0000
0010
0000
0000
0000
0000
0000
0000
0000
0000
0000
0000
0000
0001
0000
0000
0000
0000
0000
0000
0000
0000
0000
0000
0000
0000
0000
0000
0000
0000
0000
0000
0000
0000
0000
0000
0000
0100
0000
0000
0000
0000
0000
0000
0000
0000
0000
0000
0000
0000
0000
0000
0000
0000
0000
0000
0000
0000
0000
0000
0000
1000
0000
0000
0000
0000
0000
0000
0000
0000
0000
0000
0000
0000
0000
0000
0000
0000
0000
0000
0000
0000
0000
0000
0000
0100
0000
0000
0000
0000
0000
0000
0000
0000
0000
0000
0000
0000
0000
0000
0000
0100
0000
0000
0000
0000
0000
0000
0000
0000
0000
0000
0000
0000
0000
0000
0000
0000
0000
0000
0000
0000
0000
0000
0000
0000
0000
0010
0000
0000
0000
0000
0000
,  // measure 93
0000
0000
1000
0000
0000
0000
0010
0000
0000
0000
0000
0000
0001
0000
0000
0100
0000
0000
0001
0000
0000
0000
0000
0000
1000
0000
0000
0010
0000
0000
0001
0000
0000
0000
0000
0000
0100
0000
0010
0000
1000
0000
0001
0000
0000
0000
0000
0000
,  // measure 94
0001
0010
0100
0000
0010
0000
0101
0000
0100
0000
1010
0000
1000
0000
1001
0000
,  // measure 95
0101
1010
0011
0110
1100
0001
0110
1001
,  // measure 96
0100
1001
0111
0010
0100
0001
0000
1000
,  // measure 97
0010
1000
0100
0010
1000
0000
0110
1001
,  // measure 98
0000
0000
0000
1100
0000
0001
1000
0010
,  // measure 99
0001
0100
0001
0000
0000
0000
0000
0000
,  // measure 100
0000
0000
0000
0001
0100
0100
0010
1000
,  // measure 101
0000
1000
0010
0010
0001
0100
0000
0001
,  // measure 102
0010
0000
0100
0000
1000
0010
1000
0000
0100
0000
0010
0000
0001
0000
1000
0000
,  // measure 103
0010
0110
0000
0000
0000
0000
0000
0000
,  // measure 104
0000
0000
0000
0000
1011
0000
0001
0000
0001
0000
0001
0000
0001
0010
0100
0000
,  // measure 105
1000
0100
1000
0020
0000
1030
0010
0100
,  // measure 106
0001
1000
0011
0020
0000
0130
1000
1000
,  // measure 107
0010
0100
0002
0000
0000
0000
0000
0000
,  // measure 108
0000
0000
0000
0000
1003
0000
1010
0000
0001
0000
0101
0000
0100
0001
1010
0000
,  // measure 109
1000
1001
0100
0101
0000
0011
0001
0101
,  // measure 110
0010
0110
2000
3011
2000
3110
0002
1013
,  // measure 111
0002
0000
0000
0000
0000
0000
0000
0000
0000
0000
0000
0000
0000
0000
0000
0000
0000
0000
0000
0000
0000
0000
0000
0000
0113
0000
0000
0000
0000
0000
0000
0000
0000
0000
0000
0000
0000
0000
0000
0000
0000
0000
0000
0000
0000
0000
0000
0000
2M10
0000
0000
0000
0000
0000
0000
0000
0000
0000
0000
0000
0000
0000
0000
0000
0000
0000
0000
0000
0000
0000
0000
0000
0M00
0000
0000
0000
0000
0000
0000
0000
0000
0000
0000
0000
0000
0000
0000
0000
0000
0000
0000
0000
0000
3000
0000
0000
2M00
0000
0000
0000
0000
0000
0000
0000
0000
0000
0000
0000
0000
0000
0000
0000
0M00
0000
0000
0000
0000
0000
0000
0000
0000
0000
0000
0000
0000
0000
0000
0000
0M00
0000
0000
0000
0000
0000
0000
0000
0000
0000
0000
0000
0000
0000
0000
0000
0M20
0000
0000
0000
0000
0000
0000
0000
0000
0000
0000
0000
0M00
0000
0000
0000
0000
0000
0000
0000
0000
0000
0000
0000
0M00
0000
0000
0000
0000
0000
0000
0000
0000
0000
0000
0000
0M00
0000
0000
0000
0000
0000
0000
0000
0000
0000
0000
0000
,  // measure 112
0M02
0000
0000
0000
0000
0000
0000
0000
0M00
0000
0000
0000
0000
0000
0000
0000
0M00
0000
0000
0000
0000
0000
0000
0000
0M00
0000
0000
0000
0000
0000
0M00
0000
0000
0000
0000
0000
0M00
0000
0000
0000
0000
0000
0M00
0000
0000
3033
0000
0000
1111
0000
0000
0000
0000
0000
0000
0000
0000
0000
0000
0000
0000
0000
0000
0000
0000
0000
0000
0000
0000
0000
0000
0000
0000
0000
0000
0000
0000
0000
0000
0000
0000
0000
0000
0000
0000
0000
0000
0000
0000
0000
0000
0000
0000
0000
0000
0000
1000
0000
0000
0000
0000
0000
0000
0000
0000
0000
0000
0000
0010
0000
0000
0000
0000
0000
0000
0000
0000
0000
0000
0000
1000
0000
0000
0000
0000
0000
0000
0000
0000
0000
0000
0000
0000
0000
0000
0000
0000
0000
0000
0000
0000
0000
0000
0000
0010
0000
0000
0000
0000
0000
0000
0000
0000
0000
0000
0000
0000
0000
0000
0000
0000
0000
0000
0000
0000
0000
0000
0000
0001
0000
0000
0000
0000
0000
0000
0000
0000
0000
0000
0000
0010
0000
0000
0000
0000
0000
0000
0000
0000
0000
0000
0000
,  // measure 113
0000
0100
0010
0100
0001
0000
0001
0010
1000
0000
0010
0100
1000
0010
0000
1010
,  // measure 114
0000
1000
0000
1000
0100
0010
0000
0100
0000
0010
0001
0000
0010
0100
0000
0010
,  // measure 115
0000
0010
1100
0000
1100
0000
0100
0000
0010
0010
0100
0010
0001
0010
0000
0011
,  // measure 116
0000
0001
0100
1000
0010
0001
0000
1001
0000
0001
0010
0100
1000
0100
0000
1010
,  // measure 117
0000
1000
0000
0100
0010
0000
0010
0100
0001
0000
0010
0000
1000
0010
0000
1001
,  // measure 118
0000
0000
0000
0000
0100
0000
0000
0000
0000
0000
0000
0000
1010
0000
0000
0000
0000
0000
1000
0000
0000
0010
0000
0000
0000
0000
0000
0100
0000
0000
0010
0000
0000
0100
0000
0000
0001
0000
0000
1000
0000
0000
0000
0000
0000
0011
0000
0000
,  // measure 119
0000
0000
0000
0000
0010
0000
0000
0000
0100
0000
0000
0000
2000
0000
0000
3020
0000
0000
0230
0000
0000
0302
0000
0000
0003
0000
0000
2000
0000
0000
3002
0000
0000
0023
0000
0000
0230
0000
0000
0302
0000
0000
0023
0000
0000
0000
0000
0000
,  // measure 120
2030
3200
0302
0023
1031
0000
1000
0100
0001
0010
0001
0000
0001
0100
1000
0100
,  // measure 121
0011
0000
0011
0000
0101
0000
0110
0000
1100
0000
1010
0000
1000
0010
0001
0100
,  // measure 122
1001
0000
0110
0000
1100
0010
0000
0101
0000
0000
0001
1000
0010
0100
0010
0001
,  // measure 123
1100
0000
0110
0000
0011
0000
0101
0000
0001
0010
0001
1000
0110
0000
0100
0010
,  // measure 124
0100
0000
0110
0000
1101
0000
0010
0000
0001
0010
1000
0000
0100
0000
0010
0000
,  // measure 125
1100
0000
0001
0000
0010
0000
0001
0000
0100
0000
0010
0000
1000
0001
0100
0000
,  // measure 126
1100
0000
0100
1000
0010
0000
0011
0000
0000
0010
0001
0100
0010
0000
0010
0100
,  // measure 127
0000
0000
1001
0000
0000
0000
0010
0000
1000
0000
0000
0000
0100
0000
0000
0001
0000
0000
0100
0000
1000
0000
0001
0000
0010
0000
0100
0000
0001
0000
0000
0000
,  // measure 128
0110
0000
0011
0000
1011
1000
0000
1000
0010
0001
0000
0010
0000
0010
0100
0001
,  // measure 129
0100
0010
0001
0000
1000
0000
0010
0000
1000
0000
0001
0000
0100
0001
0010
0100
,  // measure 130
1000
0010
1000
0010
0001
0100
0010
0100
1000
0001
0100
0001
0010
0100
1000
0010
,  // measure 131
0100
0000
0010
0100
0001
0000
0010
0000
1000
0000
0100
0000
1001
0000
0000
0000
,  // measure 132
0000
0000
0000
0000
0000
0000
0010
0000
0000
0100
0000
0000
1011
0000
0000
0100
0000
0000
0001
0000
0010
0000
0100
0000
1000
0000
0000
0010
0000
0000
0100
0000
0000
0001
0000
0000
0000
0000
0000
0001
0000
0000
1000
0000
0000
0010
0000
0000
,  // measure 133
1100
0000
1000
0100
0010
0000
0001
0000
0100
0001
0010
0100
0001
1000
0010
0100
,  // measure 134
1000
0001
0000
0000
0000
0001
0010
0100
0001
0000
0010
0100
1000
0000
0010
0000
,  // measure 135
1000
0010
0100
0010
0001
0010
0100
1000
0001
0000
1000
0000
1010
0000
0010
0001
,  // measure 136
0010
0000
0011
0000
1110
0000
0110
0000
0000
0000
0010
1000
0010
0001
0010
0000
,  // measure 137
0000
0000
0000
0100
0000
0000
0010
0000
0000
0001
0000
0000
1000
0000
0000
0000
0010
0000
0000
0000
0001
0000
0000
0000
0110
0000
0000
0000
0011
0000
0000
0000
0110
0000
0000
0000
1100
0000
0000
0000
0000
0000
0000
0000
0000
0000
0000
0000
,  // measure 138
1000
0000
0000
0000
0100
0000
0000
0000
0010
0000
0000
0000
0002
0000
0000
0000
0000
0000
0000
0003
0001
0000
0000
0000
0000
0000
0000
0000
0000
0000
0000
0000
0001
0000
0000
0000
0010
0000
0000
0000
1000
0000
0000
0000
0001
0000
0000
0000
0100
0000
0000
0000
0010
0000
0000
0000
1000
0000
0000
0000
0010
0000
0000
0000
,  // measure 139
0001
0100
0000
0000
1100
0000
0000
0000
0110
1000
0010
0000
0011
0000
1001
0000
,  // measure 140
0000
0000
0000
0000
1101
0000
0010
0000
0100
0000
0010
0000
1000
0010
0100
0000
,  // measure 141
0010
0000
1000
0000
0100
0001
0100
1000
0010
0000
0001
0010
0100
1000
0001
0100
,  // measure 142
0001
1001
1010
0010
0100
0001
0011
0110
,  // measure 143
0101
1100
0010
1000
0100
0001
1000
0010
,  // measure 144
0101
0000
0000
0000
0000
0000
0001
0000
0000
0000
0000
0000
1110
0000
0000
0000
0000
0000
0001
0000
0010
0000
0001
0000
0100
0000
0000
0000
0000
0000
0010
0000
0000
0000
0000
0000
1000
0000
0000
0010
0000
0000
0001
0000
0000
0000
0000
0000
,  // measure 145
0100
0000
0000
0000
0100
1000
0001
0100
0010
0000
0001
0000
0100
0000
0001
0000
,  // measure 146
0011
0000
0000
0000
0010
0010
1000
0100
1000
0000
0001
0000
0011
0000
0011
0000
,  // measure 147
0110
1100
1010
0001
1100
0001
0110
1100
,  // measure 148
0011
0000
1010
0000
1001
0000
0100
0000
0010
0100
0000
0000
0001
1000
0010
0000
,  // measure 149
0011
0000
0000
0000
1000
0010
1000
0100
0001
0000
0001
0000
0011
0000
0100
0000
,  // measure 150
1010
0000
0001
0000
1010
0100
0010
0100
1000
0000
0001
0000
0010
0000
0100
0000
,  // measure 151
0010
0000
1000
0000
0000
0000
1010
0000
0000
1010
0000
0000
0101
0000
0000
0101
0000
0000
0111
0000
0000
1110
0000
0000
,  // measure 152
1111
1111
1111
0011
0011
0101
0010
1100
,  // measure 153
0101
0110
1010
0101
1001
0100
1010
0101
,  // measure 154
0010
1000
0001
0110
0001
0110
1010
0110
,  // measure 155
0011
0110
1100
0010
0001
0100
0001
1000
,  // measure 156
0100
0010
1000
0110
0011
0011
0110
1010
,  // measure 157
0001
1010
0110
0101
1100
1001
0100
1001
,  // measure 158
1010
0000
0011
0000
0101
0010
1000
0000
1010
0000
0110
0000
0011
0000
0110
0000
,  // measure 159
0101
1010
0001
0000
4444
0000
0000
0000
,  // measure 160
0000
0000
0000
0000
,  // measure 161
0000
0000
0000
0000
,  // measure 162
0000
0000
0000
0000
0000
0000
0000
0000
0000
0000
0000
0000
0000
0000
0000
0000
0000
0000
0000
0000
0000
0000
0000
0000
0000
0000
0000
0000
0000
0000
0000
0000
0000
0000
0000
0000
0000
0000
0000
0000
0000
0000
0000
0000
0000
0000
0000
0000
0000
0000
0000
0000
0000
0000
0000
0000
0000
0000
0000
0000
0000
0000
0000
3333
,  // measure 163
1111
0000
0010
0100
1000
0000
0010
0000
1000
0000
1000
0001
0000
0000
0000
0000
,  // measure 164
0011
0000
0001
0010
1100
0000
1000
0010
0101
0000
0001
0100
1010
0000
0110
0000
,  // measure 165
0101
0000
1000
0000
0010
0000
0001
0000
0010
0000
0010
0100
0000
0100
0000
1000
,  // measure 166
0010
0000
0010
0100
0001
1000
0100
0000
0010
0000
1000
0000
0001
0000
0100
0000
,  // measure 167
1011
0000
0100
0000
0010
0000
0100
0000
0001
0000
0010
0000
0001
0000
1000
0000
0100
0001
0010
0000
1000
0000
0100
0000
0010
0000
0100
0000
0001
0000
0010
0000
,  // measure 168
1001
0010
0100
0010
1000
0010
0100
0001
1000
0001
0100
0010
0001
0010
0100
1000
,  // measure 169
0011
0100
0010
0001
1000
0010
1000
0100
1000
0001
1000
0010
0100
0001
0100
0010
,  // measure 170
1000
0001
0100
0010
0001
0010
0100
1000
0100
0000
0010
0000
0001
0000
1000
0000
,  // measure 171
0100
0010
0001
1000
0100
0010
0001
1000
,  // measure 172
0100
0010
0001
1000
0100
0010
0001
1000
,  // measure 173
0100
0010
0001
1000
0100
0010
0001
1000
,  // measure 174
0100
0000
0010
0000
0001
0000
1000
0000
0111
0000
0010
0100
1000
0000
0100
1000
,  // measure 175
0011
0000
0001
0010
0000
0001
0100
0001
1010
0000
0101
0000
1001
0000
1100
0000
,  // measure 176
0011
0000
0000
0000
1100
0000
0000
0000
0000
0000
0000
0000
1001
0000
0000
0000
0000
0000
1000
0000
0000
0100
0000
0000
0011
0000
0000
0000
0000
0000
0001
0000
0000
0010
0000
0000
0100
0000
0000
0000
0000
0000
0001
0000
0000
0100
0000
0000
,  // measure 177
0010
0000
1000
0010
0100
0000
0000
0001
0100
0001
1000
0000
0010
0000
0100
0000
,  // measure 178
0001
0000
0010
0000
1000
0010
0001
0100
1011
0000
0101
0000
0110
0000
1100
0000
,  // measure 179
0001
1000
0000
1001
0000
1000
0010
0000
0101
0000
0101
0000
0011
0000
0110
0000
,  // measure 180
1010
0000
1100
0000
1001
0000
1000
0010
1000
0001
0100
0000
0110
0000
0001
0000
,  // measure 181
1000
0010
0000
1100
0000
0100
0010
1000
0011
0000
0101
0000
1010
0000
0101
0000
,  // measure 182
0111
0000
0000
0000
0000
0000
0000
0000
0000
0000
0000
0000
0000
0000
0000
0000
0000
0000
0000
0000
0000
0000
0000
0000
1110
0000
0000
0000
0000
0000
0000
0000
0000
0000
0000
0000
0000
0000
0000
0000
0000
0000
0000
0000
0000
0000
0000
0000
4444
0000
0000
0000
0000
0000
0000
0000
0000
0000
0000
0000
0000
0000
0000
0000
0000
0000
0000
0000
0000
0000
0000
0000
0000
0000
0000
0000
0000
0000
0000
0000
0000
0000
0000
0000
0000
0000
0000
0000
0000
0000
0000
0000
0000
3333
0000
0000
1111
0000
0000
0000
0000
0000
0000
0000
0000
0000
0000
0000
0000
0000
0000
0000
0000
0000
0000
0000
0000
0000
0000
0000
0001
0000
0000
0000
0000
0000
0000
0000
0010
0000
0000
0000
0000
0000
0000
0000
0100
0000
0000
0000
0000
0000
0000
0000
1000
0000
0000
0000
0000
0000
0000
0000
0000
0000
0000
0000
0000
0000
0000
0000
0000
0000
0000
0000
0000
0000
0000
0000
1001
0000
0000
0000
0000
0000
0000
0000
0000
0000
0000
0000
0000
0000
0000
0000
0000
0000
0000
0000
0000
0000
0000
0000
,  // measure 183
1000
0100
0010
0000
0001
0000
0010
0000
0100
0000
1000
0000
0100
0000
0010
0000
,  // measure 184
1001
0000
0000
0011
0000
0000
0110
0000
0000
1100
0000
0000
1101
0010
0100
1000
0100
0010
0001
0010
0100
1000
0100
0010
,  // measure 185
0001
0010
0100
1000
0100
0010
0101
0000
0000
0000
0000
0000
1001
0000
0000
1100
0000
0000
0110
0000
0000
0011
0000
0000
,  // measure 186
0001
0001
0110
0000
2112
0000
0000
0000
0000
0000
0000
0000
0000
0000
0000
0000
,  // measure 187
0000
0000
0000
0000
,  // measure 188
0000
0000
0000
0000
0000
0000
0000
0000
0000
0000
0000
0000
0000
0000
0000
0000
0000
0000
0000
0000
0000
0000
0000
0000
0000
0000
0000
0000
0000
0000
0000
0000
0000
0000
0000
0000
0000
0000
0000
0000
0000
0000
0000
0000
0000
0000
0000
0000
0000
0000
0000
0000
0000
0000
0000
0000
0000
0000
0000
0000
0000
0000
0000
3003
,  // measure 189
2112
0000
0000
0000
,  // measure 190
0000
0000
0000
0000
,  // measure 191
0000
0000
0000
0000
,  // measure 192
0000
0000
0000
0000
0000
0000
0000
0000
0000
0000
0000
0000
0000
0000
0000
0000
0000
0000
0000
0000
0000
0000
0000
0000
0000
0000
0000
0000
0000
0000
0000
0000
0000
0000
0000
0000
0000
0000
0000
0000
0000
0000
0000
0000
0000
0000
0000
0000
0000
0000
0000
0000
0000
0000
0000
0000
0000
0000
0000
0000
0000
0000
0000
3003
,  // measure 193
1111
0000
0000
0000
;
