#TITLE:Holy Macaroni;
#SUBTITLE:;
#ARTIST:The Quick Brown Fox;
#TITLETRANSLIT:;
#SUBTITLETRANSLIT:;
#ARTISTTRANSLIT:;
#GENRE:;
#CREDIT:;
#BANNER:macaroni-bn.png;
#BACKGROUND:macaroni-bg.png;
#LYRICSPATH:;
#CDTITLE:!cdtitle.png;
#MUSIC:04 - Holy Macaroni.mp3;
#OFFSET:-0.020000;
#SAMPLESTART:32.610001;
#SAMPLELENGTH:15.000000;
#SELECTABLE:YES;
#BPMS:0.000000=125.339996
,68.000000=250.681000
,196.000000=125.339996
,212.000000=250.681000
,244.000000=125.341003
,276.000000=250.681000
;
#STOPS:
;
#BGCHANGES:;
#KEYSOUNDS:;
#ATTACKS:;

//---------------dance-single - 2013----------------
#NOTES:
     dance-single:
     :
     Hard:
     14:
     1.976432,2.068957,3.274065,0.360987,2.417771,1648.000000,1251.000000,390.000000,43.000000,0.000000,13.000000,1.976432,2.068957,3.274065,0.360987,2.417771,1648.000000,1251.000000,390.000000,43.000000,0.000000,13.000000:
// measure 0
1001
0010
0000
0100
1010
0000
1001
0000
0001
0001
0010
0000
1100
1000
0001
0000
,  // measure 1
0110
0001
0000
0100
0011
0000
0101
0000
1000
1000
0010
0000
1010
0000
0100
0000
,  // measure 2
0011
1000
0000
0100
1001
0000
0011
0000
0010
0010
0001
0000
0101
0010
1000
0000
,  // measure 3
1001
0100
0000
0001
1010
0000
1001
0000
0100
0010
1000
0000
0110
0000
0100
0100
,  // measure 4
0011
1000
0000
0100
1001
0000
0100
0000
1010
0101
1010
0000
1001
0000
0110
0000
,  // measure 5
0101
1000
0000
0010
0101
0000
1010
0000
1001
0110
1001
0000
0011
0000
1001
0000
,  // measure 6
0110
0100
0000
0010
1100
0000
0011
0000
1100
0011
1100
0000
1001
0000
1100
0000
,  // measure 7
0011
1000
0000
0100
1001
0000
0110
0000
0011
1100
0011
0000
0101
0000
1001
0000
,  // measure 8
1101
0010
0001
0000
0001
0001
0000
0010
0100
0000
0100
1000
0000
1000
0100
0010
,  // measure 9
1001
0000
0100
0000
1000
0000
0000
0000
0010
0000
0100
0000
0000
0000
0010
0000
1010
0000
1000
0000
0100
0000
0010
0100
0010
0000
1000
0000
0001
0000
0100
0000
,  // measure 10
0011
0010
0100
0000
0010
1000
0000
0010
0100
0000
0100
0010
0000
0010
1000
0001
,  // measure 11
1100
0000
0100
0000
0010
0000
0000
0000
0001
0000
1000
0000
0000
0000
0010
0000
0011
0000
0100
0000
0010
0000
0001
1000
0001
0000
0010
0000
0100
0000
1000
0000
,  // measure 12
1100
0010
0001
0100
1010
0000
0001
0100
0011
1100
0011
0000
1100
0011
1100
0000
,  // measure 13
0011
0000
0100
0000
1001
0000
0000
0000
0011
0000
0100
0000
0000
0000
0100
0000
1001
0000
0100
0000
1000
0000
0010
0100
1001
0000
0001
0000
0100
0000
0001
0000
,  // measure 14
0110
1000
0010
0001
0110
0000
0001
0010
1100
0011
1100
0000
0011
1100
0011
0000
,  // measure 15
1001
0000
0000
0000
0000
0000
0000
0000
0000
0000
0000
0000
0000
0000
0000
0000
0000
0000
0000
0000
0000
0000
0000
0000
0010
0000
0000
0000
0000
0000
0000
0000
0101
0000
0000
0000
0000
0000
0000
0000
0000
0000
0000
0000
0000
0000
0000
0000
0000
0000
0000
0000
0000
0000
0000
0000
0000
1000
0100
0010
0001
1000
0100
0010
,  // measure 16
1002
0000
0000
0000
0023
0000
0000
0000
2030
0000
0000
0000
3200
0000
0000
0000
0320
0000
0000
0000
0032
0000
0000
0000
0103
0010
0100
0010
1000
0001
1000
0001
,  // measure 17
1100
0000
0010
0000
1000
0000
0001
0000
0100
0000
0010
0000
0001
0000
1000
0000
0010
0000
1000
0000
0001
0000
0100
0000
1000
0100
0010
0001
1000
0100
0010
0001
,  // measure 18
1000
0000
0000
0000
0001
0000
0000
0000
0100
0000
0000
0000
0010
0000
0000
0000
0001
0000
0000
0000
1000
0000
0000
0000
0010
0000
0000
0000
1000
0000
0000
0000
0100
0000
0000
0000
0010
0000
0000
0000
0001
0000
0000
0000
1000
0000
0000
0000
0001
0000
0000
0000
0100
0000
0000
0000
0010
0000
0000
0000
1000
0100
0010
0001
,  // measure 19
1000
0000
0001
0000
0100
0000
0010
0000
1000
0000
0001
0000
0010
0000
0001
0000
0100
0000
0010
0000
1000
0000
0100
0000
0001
0010
0100
1000
0001
0010
0100
1000
,  // measure 20
0002
0103
1000
0002
0013
0100
0002
1003
0100
0002
1003
0010
1002
0113
1001
0110
,  // measure 21
1001
0000
0010
0000
1000
0000
0001
0000
0010
0000
0100
0000
1000
0000
0010
0000
0001
0000
1000
0000
0100
0000
0001
0000
0010
1000
0001
0100
0010
1000
0001
0100
,  // measure 22
0010
0000
0000
0000
1000
0000
0000
0000
0100
0000
0000
0000
1000
0000
0000
0000
0010
0000
0000
0000
0001
0000
0000
0000
0100
0000
0000
0000
0010
0000
0000
0000
0001
0000
0000
0000
0100
0000
0000
0000
0010
0000
0000
0000
1000
0000
0000
0000
0001
0000
0000
0000
0010
0000
0000
0000
1000
0000
0000
0000
0010
0100
0001
1000
,  // measure 23
0110
0000
1000
0000
0011
0000
0100
0000
1000
0000
0001
0000
0110
0000
0001
0000
1100
0000
0010
0000
0001
0000
0100
0000
1000
0100
0010
0001
1000
0100
0010
0001
,  // measure 24
0200
0310
1000
0200
0301
0010
0200
0301
0010
0200
1300
0001
0210
1301
0110
1001
,  // measure 25
0110
0000
1000
0000
0100
0000
1000
0000
0010
0000
0100
0000
0010
0000
0001
0000
0010
0000
1000
0000
0001
0000
0100
0000
0001
0010
0100
1000
0001
0010
0100
1000
,  // measure 26
0010
0000
0000
0000
1000
0000
0000
0000
0001
0000
0000
0000
1000
0000
0000
0000
0100
0000
0000
0000
0010
0000
0000
0000
0001
0000
0000
0000
1000
0000
0000
0000
0001
0000
0000
0000
0100
0000
0000
0000
0001
0000
0000
0000
0100
0000
0000
0000
1000
0000
0000
0000
0010
0000
0000
0000
0100
0000
0000
0000
0100
0001
1000
0010
,  // measure 27
0100
0000
0010
0000
0001
0000
1000
0000
0100
0000
1000
0000
0010
0000
1000
0000
0100
0000
0001
0000
0010
0000
0100
0000
0001
0010
0100
1000
0001
0010
0100
1000
,  // measure 28
0200
0310
1000
0200
0310
0001
0200
0301
0010
0200
0310
1000
0210
1301
0110
1001
,  // measure 29
0110
0000
0001
0000
1010
0000
0001
0000
0100
0000
1000
0000
0010
0000
0100
0000
0010
0000
1000
0000
0001
0000
0100
0000
0010
1000
0001
0100
0010
1000
0001
0100
,  // measure 30
0010
0000
0000
0000
0100
0000
0000
0000
0001
0000
0000
0000
1000
0000
0000
0000
0100
0000
0000
0000
1000
0000
0000
0000
0010
0000
0000
0000
0001
0000
0000
0000
0100
0000
0000
0000
0010
0000
0000
0000
1000
0000
0000
0000
0100
0000
0000
0000
1000
0000
0000
0000
0010
0000
0000
0000
0100
0000
0000
0000
0010
1000
0001
0100
,  // measure 31
1010
0100
1001
0010
0001
0100
0011
1000
0110
0001
0010
0100
0001
1000
0010
1000
,  // measure 32
0002
0103
0010
0002
0013
0100
0002
1003
0100
0002
1003
0010
1002
0113
1001
0110
,  // measure 33
1001
0011
0011
1010
1001
1001
1100
0110
,  // measure 34
0011
0000
0110
0000
0101
0000
0110
0000
0110
0000
1010
0000
0100
0001
0100
0001
,  // measure 35
1010
0110
0110
0101
1001
1001
0110
1010
,  // measure 36
0101
0000
0011
0000
0110
0000
1100
0000
1000
0010
1000
0000
0100
0010
0100
0010
,  // measure 37
0101
1010
1010
1100
1010
1010
0101
0011
,  // measure 38
0101
0000
0011
0000
0110
0000
1100
0000
0110
0000
1010
0000
0001
1000
0001
1000
,  // measure 39
0110
0101
0011
1001
1010
0101
0011
0101
,  // measure 40
1100
0000
0000
0000
1010
0000
0000
0000
0101
0000
0000
0000
0011
0000
0000
0000
0110
0000
0000
0000
1000
0000
0001
0000
1000
0100
0010
0001
1000
0100
0010
0001
,  // measure 41
1100
0011
0011
0101
1001
1001
1010
0110
,  // measure 42
1000
0100
0010
0000
1100
0000
0000
0000
0001
0010
0100
0000
0011
0000
0000
0000
1001
0000
0000
0000
0110
0000
0000
0000
0011
0000
1100
0000
0011
0000
1100
0000
,  // measure 43
0011
0110
1100
1010
1100
0101
0011
0110
,  // measure 44
0001
0010
0100
1000
0001
0000
0000
0000
1000
0000
0000
0000
0010
0000
0100
0000
1000
0000
0000
0000
1001
0000
0100
0000
1000
0000
0010
0000
1000
0000
0010
0000
,  // measure 45
0101
1010
0011
1100
1010
1001
0101
1100
,  // measure 46
1000
0010
0100
0000
1010
0000
0000
0000
0001
0100
0010
0000
0101
0000
0000
0000
1001
0000
0000
0000
0110
0000
0000
0000
1010
0000
0101
0000
1010
0000
0101
0000
,  // measure 47
1100
0000
0011
0000
1100
0000
0011
0000
1100
0000
0011
0000
1100
0000
0011
0000
1100
0000
0011
0000
1000
0100
0000
0010
0001
0000
1000
0100
0000
0010
0001
0000
,  // measure 48
1110
0000
0000
0111
0000
0000
0000
0000
,  // measure 49
1001
0010
0001
0000
0001
0010
0001
0000
0100
0010
0100
0000
0010
0100
1000
0000
0000
0000
0010
0000
1000
0000
0010
0000
0100
0000
0010
0100
0010
0000
0001
0000
,  // measure 50
0100
0010
1000
0000
0100
0010
0001
0000
0001
0010
0100
0000
0010
0000
0100
0000
0000
0000
0100
0000
0010
0000
1000
0000
0100
0010
0001
0000
0100
1000
0010
0000
,  // measure 51
0001
1000
0010
0000
0100
1000
0010
0000
0001
0010
0100
0000
0010
0000
0100
0000
0000
0000
0100
0000
1000
0000
0010
0000
0001
0010
1000
0000
0100
0000
0010
0000
,  // measure 52
0010
0000
0000
0000
0000
0000
0000
0000
1000
0000
0000
0000
0000
0000
0000
0000
0010
0000
0000
0000
0000
0000
0000
0000
0100
0000
0000
0000
0000
0000
0000
0000
0001
0000
0000
0000
0000
0000
0000
0000
0100
0000
0000
0000
0000
0000
0000
0000
1000
0000
0000
0000
0000
0000
0000
0000
0100
0000
0000
0000
0000
0000
0000
0000
1000
0000
0000
0000
0000
0000
0000
0000
0010
0000
0000
0000
0000
0000
0000
0000
0001
0000
0000
0000
0000
0000
0000
0000
0100
0000
0000
0000
0000
0000
0000
0000
0001
0000
0000
0000
0000
0000
0000
0000
0010
0000
0000
0000
0000
0000
0000
0000
0001
0000
0000
0000
0000
0000
0000
0000
0100
0000
0000
0000
0000
0000
0000
0000
0010
0000
0000
0000
0000
0000
0000
0000
0001
0000
0000
0000
0000
0000
0000
0000
0100
0000
0000
0000
0000
0000
0000
0000
0000
0000
0000
0000
0000
0000
0000
0000
0000
0000
0000
0000
0000
0000
0000
0000
0000
0000
0000
0001
0000
0000
0010
0000
0000
0100
0000
0000
1000
0000
0000
0001
0000
0000
0010
0000
0000
0100
0000
0000
,  // measure 53
1001
0000
0100
0000
1000
0000
0010
0000
0001
0000
0100
0000
0001
0000
0010
0000
1000
0000
0100
0000
0010
0000
0001
0000
0001
0010
0100
1000
0001
0010
0100
1000
,  // measure 54
0001
0000
0000
0000
1000
0000
0000
0000
0010
0000
0000
0000
1000
0000
0000
0000
0100
0000
0000
0000
0010
0000
0000
0000
0001
0000
0000
0000
0100
0000
0000
0000
0001
0000
0000
0000
0100
0000
0000
0000
0010
0000
0000
0000
0001
0000
0000
0000
1000
0000
0000
0000
0010
0000
0000
0000
1001
0000
0000
0000
0000
1000
0100
0010
,  // measure 55
0001
0000
0010
0000
0001
0000
0100
0000
0010
0000
1000
0000
0100
0000
0010
0000
1000
0000
0001
0000
0100
0000
0010
0000
1000
0100
0010
0001
1000
0100
0010
0001
,  // measure 56
2000
3001
0010
2000
3100
0010
2000
3100
0001
2000
3001
0100
2001
3110
1001
0110
,  // measure 57
1001
0000
0100
0000
1010
0000
0001
0000
0100
0000
0010
0000
1000
0000
0010
0000
0001
0000
0100
0000
0010
0000
1000
0000
0100
1000
0001
0010
0100
1000
0001
0010
,  // measure 58
1000
0000
0000
0000
0010
0000
0000
0000
1000
0000
0000
0000
0001
0000
0000
0000
0100
0000
0000
0000
0010
0000
0000
0000
1000
0000
0000
0000
0001
0000
0000
0000
0100
0000
0000
0000
0001
0000
0000
0000
1000
0000
0000
0000
0010
0000
0000
0000
0100
0000
0000
0000
0010
0000
0000
0000
1000
0000
0000
0000
0100
0010
1000
0001
,  // measure 59
0110
0000
0001
0000
1100
0000
0010
0000
0001
0000
1000
0000
0100
0000
0010
0000
1100
0000
0010
0000
0101
0000
0010
0000
0001
0010
0100
1000
0001
0010
0100
1000
,  // measure 60
0201
0310
1000
0200
1300
0010
0002
0103
0020
0031
0100
0020
1031
0110
1001
0110
,  // measure 61
1001
0110
1000
0101
1010
0000
0101
0000
0001
0000
0011
0000
1100
0000
0100
0100
,  // measure 62
1001
0000
0110
0000
1000
0000
0101
0000
1010
0000
0000
0000
1001
0000
0000
0000
1000
0000
0010
0000
0100
0000
0010
0100
1001
0000
0101
0000
0011
0000
0110
0000
,  // measure 63
0011
0101
1000
1010
0011
0000
0101
0000
1000
0000
1100
0000
0011
0000
0010
0010
,  // measure 64
0011
0000
1100
0000
0010
0000
1001
0000
0110
0000
0000
0000
1010
0000
0000
0000
0001
0000
1000
0000
0100
0000
0100
0010
1100
0000
0011
0000
1010
0000
1100
0000
,  // measure 65
0011
1100
0010
1001
0110
0000
0101
0000
1010
0000
0001
0001
1100
0000
1010
0000
,  // measure 66
0101
0000
0010
0000
1001
0000
0110
0000
1000
0000
0101
0000
1010
0000
0000
0000
0101
0000
0000
0000
1001
0000
0000
0000
1000
0010
1100
0000
0101
0000
1010
0000
,  // measure 67
0101
0010
1000
0110
0101
0000
1010
0000
1001
0000
0110
0000
1010
0000
0110
0110
,  // measure 68
0120
2030
3002
0213
0302
2003
3020
0030
,  // measure 69
1100
1010
1010
0101
0011
0011
0110
1001
,  // measure 70
1010
0000
0101
0000
1100
0000
0011
0000
0101
0000
1010
0000
1000
0001
1000
0001
,  // measure 71
1100
0011
0101
1001
0110
1001
1010
0101
,  // measure 72
0011
0000
0110
0000
0011
0000
1100
0000
1000
0010
1000
0000
0001
0100
0001
0100
,  // measure 73
1001
1010
0101
0011
0110
1010
1001
1100
,  // measure 74
0011
0000
0101
0000
1010
0000
0101
0000
1100
0000
0011
0000
1000
0010
1000
0010
,  // measure 75
0101
1100
0011
0101
0110
1010
1001
1100
,  // measure 76
1010
0000
0000
0000
0011
0000
0000
0000
0101
0000
0000
0000
0101
0000
0000
0000
0110
0000
0000
0000
0101
0000
0000
0000
0100
0010
1000
0001
0100
0010
1000
0001
,  // measure 77
0110
1010
1010
0101
1100
1100
1010
0101
,  // measure 78
1000
0001
0100
0000
1001
0000
0000
0000
0001
1000
0100
0000
1001
0000
0000
0000
1010
0000
0000
0000
0101
0000
0000
0000
1000
0000
0001
0000
1000
0000
0001
0000
,  // measure 79
1010
0110
1010
0101
1001
1100
1010
0101
,  // measure 80
0001
0010
0100
1000
0001
0000
0000
0000
0110
0000
0000
0000
1100
0000
0000
0000
0100
0000
0010
0000
0001
0000
1000
0000
0100
0000
1000
0000
0010
0000
0001
0000
,  // measure 81
0110
0011
1100
0101
1001
0110
1100
0011
,  // measure 82
1000
0100
0010
0000
1010
0000
0000
0000
0001
0010
0100
0000
0101
0000
0000
0000
1010
0000
0000
0000
1001
0000
0000
0000
0100
0000
1000
0000
0010
0000
0001
0000
,  // measure 83
1100
0000
0011
0000
1100
0000
0011
0000
1100
0000
0011
0000
1100
0000
0011
0000
1000
0100
0000
0000
0010
0001
0000
0000
1000
0100
0000
0000
0010
0001
0000
0000
,  // measure 84
1011
0000
0000
1101
0000
0000
0000
0000
,  // measure 85
0100
1000
0010
1000
0001
0100
0010
0001
0010
1000
0001
0100
,  // measure 86
0010
0001
1000
0100
1000
0010
0001
0100
1000
0010
0001
0100
,  // measure 87
0001
0010
1000
0100
0010
1000
0100
1000
0010
0001
0100
0010
,  // measure 88
0100
1000
0010
1000
0100
0001
0100
0010
0001
0010
0100
1000
,  // measure 89
0010
0100
0001
1000
0100
1000
0010
0001
0100
0010
1000
0001
,  // measure 90
0100
0010
0001
0010
0001
0100
1000
0010
1000
0100
0001
1000
,  // measure 91
0010
0001
0100
0010
1000
0100
1000
0010
0001
0100
0010
0001
,  // measure 92
0010
1000
0100
0010
1000
0100
1000
0001
0010
0100
0001
0010
,  // measure 93
1111
0000
0000
0000
;
