#TITLE:Gen's Castle Battle;
#SUBTITLE:Romancing SaGa 3 (1995);
#ARTIST:Kenji Ito;
#TITLETRANSLIT:;
#SUBTITLETRANSLIT:;
#ARTISTTRANSLIT:;
#GENRE:;
#CREDIT:;
#BANNER:;
#BACKGROUND:;
#LYRICSPATH:;
#CDTITLE:!cdtitle.png;
#MUSIC:Gen's Castle Battle.ogg;
#OFFSET:-0.000667;
#SAMPLESTART:48.950001;
#SAMPLELENGTH:15.000000;
#SELECTABLE:YES;
#BPMS:0.000000=164.985992
,1.000000=166.511993
,2.000000=168.391998
,3.000000=165.908005
,4.000000=169.182999
,5.000000=166.205002
,6.000000=166.367996
,7.000000=168.067001
,8.000000=166.820999
,9.000000=168.865005
,10.000000=166.061005
,11.000000=168.067001
,12.000000=166.820999
,13.000000=166.061005
,14.000000=169.332001
,15.000000=164.542999
,16.000000=167.733994
,17.000000=166.195007
,18.000000=166.339005
,19.000000=167.891006
,20.000000=167.121002
,21.000000=168.362000
,22.000000=166.492996
,23.000000=168.057007
,24.000000=166.878998
,25.000000=166.570007
,26.000000=168.283005
,27.000000=166.108994
,28.000000=168.994003
,29.000000=166.492996
,30.000000=166.042007
,31.000000=164.214996
,32.000000=165.994003
,33.000000=167.539001
,34.000000=166.291000
,35.000000=167.841995
,36.000000=165.908005
,37.000000=165.298996
,38.000000=168.548996
,39.000000=165.755005
,40.000000=168.076996
,41.000000=165.298996
,42.000000=168.548996
,43.000000=165.755005
,44.000000=165.679001
,45.000000=168.164993
,46.000000=166.598999
,47.000000=166.291000
,48.000000=166.445007
,49.000000=165.212997
,50.000000=168.785995
,51.000000=165.365005
,52.000000=168.164993
,53.000000=165.365005
,54.000000=168.628006
,55.000000=165.679001
,56.000000=165.841003
,57.000000=167.695007
,58.000000=166.070999
,59.000000=168.233994
,60.000000=165.612000
,61.000000=165.602997
,62.000000=169.800995
,63.000000=161.906998
,64.000000=168.145996
,65.000000=165.365005
,66.000000=168.460007
,67.000000=165.975006
,68.000000=165.593002
,69.000000=168.382004
,70.000000=165.440994
,71.000000=168.223999
,72.000000=165.554993
,73.000000=167.403000
,74.000000=166.320007
,75.000000=166.013000
,76.000000=167.169998
,77.000000=166.860001
,78.000000=168.106003
,79.000000=165.326996
,80.000000=165.746002
,81.000000=167.442001
,82.000000=167.363998
,83.000000=167.052994
,84.000000=165.516998
,85.000000=167.675995
,86.000000=165.975006
,87.000000=165.061996
,88.000000=168.815994
,89.000000=164.796997
,90.000000=166.781998
,91.000000=165.554993
,92.000000=165.841003
,93.000000=167.072998
,94.000000=165.994003
,96.000000=166.281998
,97.000000=167.520004
,98.000000=166.281998
,99.000000=165.975006
,100.000000=167.130997
,102.000000=167.910004
,103.000000=165.138000
,104.000000=167.871002
,105.000000=166.628006
,106.000000=165.707993
,107.000000=167.559006
,108.000000=165.100006
,109.000000=169.132996
,110.000000=165.251007
,111.000000=165.860001
,112.000000=167.998993
,113.000000=166.138000
,114.000000=168.628006
,115.000000=164.919998
,116.000000=167.919998
,117.000000=166.367996
,118.000000=166.675995
,119.000000=163.944000
,120.000000=165.880005
,121.000000=167.733994
,122.000000=166.186005
,123.000000=165.574005
,124.000000=168.205002
,125.000000=165.119003
,126.000000=168.835999
,127.000000=165.421997
,128.000000=167.929993
,129.000000=165.460007
,130.000000=166.223999
,131.000000=168.087006
,132.000000=166.223999
,133.000000=167.149994
,134.000000=167.772995
,135.000000=165.307999
,136.000000=166.656998
,137.000000=166.348999
,138.000000=168.214005
,139.000000=165.128006
,140.000000=167.509995
,141.000000=165.660004
,142.000000=166.889008
,143.000000=167.509995
,144.000000=165.621994
,145.000000=168.727005
,146.000000=165.774002
,147.000000=167.626999
,148.000000=164.412003
,149.000000=166.233994
,150.000000=168.253998
,151.000000=163.367004
,152.000000=168.479996
,153.000000=166.291000
,154.000000=165.917999
,155.000000=167.451996
,156.000000=165.345993
,157.000000=167.802994
,158.000000=167.033997
,159.000000=167.335007
,160.000000=166.070999
,161.000000=165.755005
,162.000000=167.306000
,163.000000=163.944000
,164.000000=167.460999
,165.000000=166.214996
,166.000000=168.716995
,167.000000=164.542999
,168.000000=165.042999
,169.000000=166.253006
,170.000000=164.139999
,171.000000=165.337006
,172.000000=165.194000
,173.000000=164.279999
,174.000000=165.955994
,175.000000=162.942001
,176.000000=167.598007
,177.000000=164.524002
,178.000000=168.539001
,179.000000=165.128006
,180.000000=166.281998
,181.000000=166.272003
,182.000000=168.302994
,183.000000=164.863007
,184.000000=168.145996
,185.000000=165.365005
,186.000000=168.460007
,187.000000=165.975006
,188.000000=165.593002
,189.000000=168.382004
,190.000000=165.440994
,191.000000=168.223999
,192.000000=165.554993
,193.000000=167.403000
,194.000000=166.320007
,195.000000=166.013000
,196.000000=167.169998
,197.000000=166.860001
,198.000000=168.106003
,199.000000=165.326996
,200.000000=165.746002
,201.000000=167.442001
,202.000000=167.363998
,203.000000=167.052994
,204.000000=165.516998
,205.000000=167.675995
,206.000000=165.975006
,207.000000=165.061996
,208.000000=168.815994
,209.000000=164.796997
,210.000000=166.781998
,211.000000=165.554993
,212.000000=165.841003
,213.000000=167.072998
,214.000000=165.994003
,216.000000=166.281998
,217.000000=167.520004
,218.000000=166.281998
,219.000000=165.975006
,220.000000=167.130997
,222.000000=167.910004
,223.000000=165.138000
,224.000000=167.871002
,225.000000=166.628006
,226.000000=165.707993
,227.000000=167.559006
,228.000000=165.100006
,229.000000=169.132996
,230.000000=165.251007
,231.000000=165.860001
,232.000000=167.998993
,233.000000=166.138000
,234.000000=168.628006
,235.000000=164.919998
,236.000000=167.919998
,237.000000=166.367996
,238.000000=166.675995
,239.000000=163.944000
,240.000000=165.880005
,241.000000=167.733994
,242.000000=166.186005
,243.000000=165.574005
,244.000000=168.205002
,245.000000=165.119003
,246.000000=168.835999
,247.000000=165.421997
,248.000000=167.929993
,249.000000=165.460007
,250.000000=166.223999
,251.000000=168.087006
,252.000000=166.223999
,253.000000=167.149994
,254.000000=167.772995
,255.000000=165.307999
,256.000000=166.656998
,257.000000=166.348999
,258.000000=168.214005
,259.000000=165.128006
,260.000000=167.509995
,261.000000=165.660004
,262.000000=166.889008
,263.000000=167.509995
,264.000000=165.621994
,265.000000=168.727005
,266.000000=165.774002
,267.000000=167.626999
,268.000000=164.412003
,269.000000=166.233994
,270.000000=168.253998
,271.000000=163.367004
,272.000000=168.479996
,273.000000=166.291000
,274.000000=165.917999
,275.000000=167.451996
,276.000000=165.345993
,277.000000=167.802994
,278.000000=167.033997
,279.000000=167.335007
,280.000000=166.070999
,281.000000=165.755005
,282.000000=167.306000
,283.000000=163.944000
,284.000000=167.460999
,285.000000=166.214996
,286.000000=168.716995
,287.000000=164.542999
,288.000000=165.042999
,289.000000=166.253006
,290.000000=164.139999
,291.000000=165.337006
,292.000000=165.194000
,293.000000=164.279999
,294.000000=165.955994
,295.000000=162.942001
,296.000000=167.598007
,297.000000=164.524002
,298.000000=168.539001
,299.000000=165.128006
,300.000000=166.281998
,301.000000=166.272003
,302.000000=168.302994
,303.000000=162.813004
,304.000000=168.145996
,305.000000=165.365005
,306.000000=168.460007
,307.000000=165.975006
,308.000000=165.593002
,309.000000=168.382004
,310.000000=165.440994
,311.000000=168.223999
,312.000000=165.554993
,313.000000=167.403000
,314.000000=166.320007
,315.000000=166.013000
,316.000000=167.169998
,317.000000=166.860001
,318.000000=168.106003
,319.000000=165.326996
,320.000000=165.746002
,321.000000=167.442001
,322.000000=167.363998
,323.000000=167.052994
,324.000000=165.516998
,325.000000=167.675995
,326.000000=165.975006
,327.000000=165.061996
,328.000000=168.815994
,329.000000=164.796997
,330.000000=166.781998
,331.000000=165.554993
,332.000000=165.841003
,333.000000=167.072998
,334.000000=165.994003
,336.000000=166.281998
,337.000000=167.520004
,338.000000=166.281998
,339.000000=165.975006
,340.000000=167.130997
,342.000000=167.910004
,343.000000=165.138000
,344.000000=167.871002
,345.000000=166.628006
,346.000000=165.707993
,347.000000=167.559006
,348.000000=165.100006
,349.000000=169.132996
,350.000000=165.251007
,351.000000=165.860001
,352.000000=167.998993
,353.000000=166.138000
,354.000000=168.628006
,355.000000=164.919998
;
#STOPS:
;
#BGCHANGES:;
#KEYSOUNDS:;
#ATTACKS:;

//---------------dance-single - 2016----------------
#NOTES:
     dance-single:
     :
     Hard:
     14:
     1.318798,1.670792,2.226166,0.793947,1.455570,1186.000000,878.000000,286.000000,102.000000,8.000000,58.000000,1.318798,1.670792,2.226166,0.793947,1.455570,1186.000000,878.000000,286.000000,102.000000,8.000000,58.000000:
// measure 0
1011
0100
1001
0010
0101
1000
0110
0001
,  // measure 1
1100
0010
1001
0100
0011
1000
0110
0001
,  // measure 2
1010
0001
1100
0010
1001
0100
0011
1000
,  // measure 3
0101
0000
0010
0000
1100
0000
0001
0000
1000
0100
0001
0100
1000
0010
0001
0010
,  // measure 4
1101
1000
0110
1000
0101
0010
1010
0001
,  // measure 5
0110
0100
0011
0001
1100
0010
1010
0001
,  // measure 6
1001
1000
0101
0010
1100
0001
0110
1000
,  // measure 7
0011
0000
0100
0000
1001
0000
0010
0000
0110
1000
0001
1000
0110
0000
0001
0010
,  // measure 8
1101
0011
1000
0011
0100
0011
1100
0010
0101
1000
0011
1000
0110
0001
1010
0001
,  // measure 9
1100
0000
0000
0000
0011
0000
0000
0000
0100
0000
0000
0000
1001
0000
0000
0000
0010
0000
0000
0000
0101
0000
0000
0000
1010
0000
0000
0000
0001
0000
0000
0000
0110
0000
0000
0000
1000
0000
0000
0000
0101
0000
0000
0000
0010
0000
0000
0000
2200
0000
0000
0000
0010
0000
0000
0000
0001
0000
0000
0000
0010
0000
0000
3000
,  // measure 10
1301
0110
0001
1100
0010
0101
1010
0001
1100
0010
0101
1000
0011
0100
1010
0001
,  // measure 11
0110
0000
0000
0000
1001
0000
0000
0000
0010
0000
0000
0000
0101
0000
0000
0000
1000
0000
0000
0000
0110
0000
0000
0000
1001
0000
0000
0000
0010
0000
0000
0000
0101
0000
0000
0000
0010
0000
0000
0000
1100
0000
0000
0000
0001
0000
0000
0000
2020
0000
0000
0000
0101
0000
0000
0000
0000
0000
0000
0000
0101
0000
0000
0030
,  // measure 12
3111
1100
0001
0110
0001
0110
1001
0010
0101
1000
0011
0100
1001
0010
1100
0001
,  // measure 13
1100
0000
0000
0000
0011
0000
0000
0000
0100
0000
0000
0000
1001
0000
0000
0000
0010
0000
0000
0000
1001
0000
0000
0000
0110
0000
0000
0000
1000
0000
0000
0000
0101
0000
0000
0000
0010
0000
0000
0000
1100
0000
0000
0000
0001
0000
0000
0000
2020
0000
0000
0000
0100
0000
0000
0000
0001
0000
0000
0000
0100
0000
0000
3000
,  // measure 14
1031
0110
0001
1010
0001
0110
1001
0010
0101
1000
0011
0100
1001
0010
1100
0001
,  // measure 15
0110
1000
0001
0110
0001
1000
0010
0000
0011
1100
0011
1100
0011
0000
0000
0000
,  // measure 16
2011
0000
0000
3200
0000
0000
0320
0000
0032
0000
0000
0000
0023
0000
0000
0000
,  // measure 17
0230
0000
0000
0302
0000
0000
0023
0000
,  // measure 18
0230
0000
0000
0302
0000
0000
0023
0000
2030
0000
0000
0000
3002
0000
0000
0000
,  // measure 19
0203
0000
0000
0000
,  // measure 20
0320
0000
0000
0230
0000
0000
0320
0000
2030
0000
0000
0000
0000
0000
0000
0000
,  // measure 21
3020
0000
0000
0000
0000
0000
0000
0000
0000
0000
0000
0000
0230
0000
0000
0000
0000
0000
0000
0000
0000
0000
0000
0000
0320
0000
0000
0000
0000
0000
0000
0000
0230
0000
0000
0000
0000
0000
0000
0000
0000
0000
0000
0000
0000
0000
0000
0000
0302
0000
0000
0000
0000
0000
0000
0000
0000
0000
0000
0000
0000
0000
0000
0003
,  // measure 22
0012
0100
0000
0010
0000
0010
0100
0000
0010
0000
0100
0000
1000
0000
0100
0000
,  // measure 23
0010
0100
0000
0010
0000
0010
0100
0000
1000
0110
1010
0100
1020
1100
0003
0101
,  // measure 24
2131
0000
0000
3200
0000
0000
0320
0000
0032
0000
0000
0000
0023
0000
0000
0000
,  // measure 25
0230
0000
0000
0302
0000
0000
0203
0000
,  // measure 26
2300
0000
0000
3002
0000
0023
0230
0000
,  // measure 27
2300
0000
0000
3020
0000
0000
0032
0000
,  // measure 28
0203
0000
0000
0000
0000
0000
0000
0000
0000
0000
0000
0000
0000
0000
0000
0000
0000
0000
0000
0000
0000
0000
0000
0000
0000
0000
0000
0000
0000
0000
0000
0000
0000
0000
0000
0000
0000
0000
0000
0000
0000
0000
0000
0000
0000
0000
0000
0000
0000
0000
0000
0000
0000
0000
0000
0300
0100
0000
0000
0000
0010
0000
0000
0000
,  // measure 29
0200
0000
0000
0000
0000
0000
0000
0000
0000
0000
0000
0000
0000
0000
0000
0000
0000
0000
0000
0000
0000
0000
0000
0300
1100
0000
0000
0000
0011
0000
0000
0000
1100
0000
0000
0000
0010
0000
0000
0000
1000
0000
0000
0000
0001
0000
0000
0000
0110
0000
0000
0000
0000
0000
0000
0000
0000
0000
0000
0000
0000
0000
0000
0000
,  // measure 30
1011
1100
0010
1100
0001
1100
0011
0100
1010
0001
1100
0010
1001
0100
0011
1000
,  // measure 31
0101
0000
0000
0000
1010
0000
0000
0000
0100
0000
0000
0000
1010
0000
0000
0000
0001
0000
0000
0000
1010
0000
0000
0000
0101
0000
0000
0000
0010
0000
0000
0000
1001
0000
0000
0000
0100
0000
0000
0000
1010
0000
0000
0000
0100
0000
0000
0000
0022
0000
0000
0000
0100
0000
0000
0000
1000
0000
0000
0000
0100
0000
0000
0003
,  // measure 32
1031
0110
1000
0110
0001
0110
1001
0010
0101
1000
0011
0100
1001
0010
1100
0001
,  // measure 33
0110
0000
0100
1000
0100
0010
0001
0010
1001
0000
0000
0000
MMMM
0000
0000
0000
,  // measure 34
1001
0100
0001
0100
0010
1000
0110
0001
1000
0100
0010
0100
1010
0001
0100
0010
,  // measure 35
0101
1000
0010
0001
0110
1000
0100
0010
1100
0001
0010
0100
1001
0100
1000
0010
,  // measure 36
0101
1000
0010
0001
1000
0100
0011
1000
0010
0001
1000
0010
0001
0100
1000
0010
,  // measure 37
0100
0001
0010
1000
0001
0010
0100
0010
1000
0000
0100
1000
0100
0010
0001
0010
,  // measure 38
1101
0010
0100
1000
0010
0100
0011
1000
0001
0010
0100
0001
1010
0001
0100
1000
,  // measure 39
0110
1000
0100
0010
0101
1000
0001
0010
1100
0001
1000
0100
1010
0001
0100
0010
,  // measure 40
1001
0100
1000
0001
0010
1000
0110
0001
0100
1000
0010
0001
1010
0001
1000
0100
,  // measure 41
1001
0010
0100
1000
0011
0100
0001
1000
0110
0001
0010
0100
1010
0001
0100
1000
,  // measure 42
0111
1000
0010
0001
1000
0001
0100
1000
0010
0100
0001
1000
0001
0010
0100
0010
,  // measure 43
1101
0010
1000
0100
0001
0010
0100
0001
1000
0010
1000
0001
0100
1000
0010
0100
,  // measure 44
1011
0100
0001
0010
1000
0010
0100
1000
0011
0000
1100
0011
1100
0011
1100
0011
,  // measure 45
1101
0010
0000
0001
0000
0010
0001
0000
0020
0100
0001
1000
0131
0000
0000
0000
,  // measure 46
2011
0000
0000
3200
0000
0000
0320
0000
0032
0000
0000
0000
0023
0000
0000
0000
,  // measure 47
0230
0000
0000
0302
0000
0000
0023
0000
,  // measure 48
0230
0000
0000
0302
0000
0000
0023
0000
2030
0000
0000
0000
3002
0000
0000
0000
,  // measure 49
0203
0000
0000
0000
,  // measure 50
0320
0000
0000
0230
0000
0000
0320
0000
2030
0000
0000
0000
0000
0000
0000
0000
,  // measure 51
3020
0000
0000
0000
0000
0000
0000
0000
0000
0000
0000
0000
0230
0000
0000
0000
0000
0000
0000
0000
0000
0000
0000
0000
0320
0000
0000
0000
0000
0000
0000
0000
0230
0000
0000
0000
0000
0000
0000
0000
0000
0000
0000
0000
0000
0000
0000
0000
0302
0000
0000
0000
0000
0000
0000
0000
0000
0000
0000
0000
0000
0000
0000
0003
,  // measure 52
0012
0100
0000
0010
0000
0010
0100
0000
0010
0000
0100
0000
1000
0000
0100
0000
,  // measure 53
0010
0100
0000
0010
0000
0010
0100
0000
1000
0110
1010
0100
1020
1100
0003
0101
,  // measure 54
2131
0000
0000
3200
0000
0000
0320
0000
0032
0000
0000
0000
0023
0000
0000
0000
,  // measure 55
0230
0000
0000
0302
0000
0000
0203
0000
,  // measure 56
2300
0000
0000
3002
0000
0023
0230
0000
,  // measure 57
2300
0000
0000
3020
0000
0000
0032
0000
,  // measure 58
0203
0000
0000
0000
0000
0000
0000
0000
0000
0000
0000
0000
0000
0000
0000
0000
0000
0000
0000
0000
0000
0000
0000
0000
0000
0000
0000
0000
0000
0000
0000
0000
0000
0000
0000
0000
0000
0000
0000
0000
0000
0000
0000
0000
0000
0000
0000
0000
0000
0000
0000
0000
0000
0000
0000
0300
0100
0000
0000
0000
0010
0000
0000
0000
,  // measure 59
0200
0000
0000
0000
0000
0000
0000
0000
0000
0000
0000
0000
0000
0000
0000
0000
0000
0000
0000
0000
0000
0000
0000
0300
1100
0000
0000
0000
0011
0000
0000
0000
1100
0000
0000
0000
0010
0000
0000
0000
1000
0000
0000
0000
0001
0000
0000
0000
0110
0000
0000
0000
0000
0000
0000
0000
0000
0000
0000
0000
0000
0000
0000
0000
,  // measure 60
1011
1100
0010
1100
0001
1100
0011
0100
1010
0001
1100
0010
1001
0100
0011
1000
,  // measure 61
0101
0000
0000
0000
1010
0000
0000
0000
0100
0000
0000
0000
1010
0000
0000
0000
0001
0000
0000
0000
1010
0000
0000
0000
0101
0000
0000
0000
0010
0000
0000
0000
1001
0000
0000
0000
0100
0000
0000
0000
1010
0000
0000
0000
0100
0000
0000
0000
0022
0000
0000
0000
0100
0000
0000
0000
1000
0000
0000
0000
0100
0000
0000
0003
,  // measure 62
1031
0110
1000
0110
0001
0110
1001
0010
0101
1000
0011
0100
1001
0010
1100
0001
,  // measure 63
0110
0000
0100
1000
0100
0010
0001
0010
1001
0000
0000
0000
MMMM
0000
0000
0000
,  // measure 64
1001
0100
0001
0100
0010
1000
0110
0001
1000
0100
0010
0100
1010
0001
0100
0010
,  // measure 65
0101
1000
0010
0001
0110
1000
0100
0010
1100
0001
0010
0100
1001
0100
1000
0010
,  // measure 66
0101
1000
0010
0001
1000
0100
0011
1000
0010
0001
1000
0010
0001
0100
1000
0010
,  // measure 67
0100
0001
0010
1000
0001
0010
0100
0010
1000
0000
0100
1000
0100
0010
0001
0010
,  // measure 68
1101
0010
0100
1000
0010
0100
0011
1000
0001
0010
0100
0001
1010
0001
0100
1000
,  // measure 69
0110
1000
0100
0010
0101
1000
0001
0010
1100
0001
1000
0100
1010
0001
0100
0010
,  // measure 70
1001
0100
1000
0001
0010
1000
0110
0001
0100
1000
0010
0001
1010
0001
1000
0100
,  // measure 71
1001
0010
0100
1000
0011
0100
0001
1000
0110
0001
0010
0100
1010
0001
0100
1000
,  // measure 72
0111
1000
0010
0001
1000
0001
0100
1000
0010
0100
0001
1000
0001
0010
0100
0010
,  // measure 73
1101
0010
1000
0100
0001
0010
0100
0001
1000
0010
1000
0001
0100
1000
0010
0100
,  // measure 74
1011
0100
0001
0010
1000
0010
0100
1000
0011
0000
1100
0011
1100
0011
1100
0011
,  // measure 75
1101
0010
0000
0001
0000
0010
0001
0000
0020
0100
0001
1000
0131
0000
0000
0000
,  // measure 76
1101
0011
1000
0011
0100
0011
1100
0010
0101
1000
0011
1000
0110
0001
1010
0001
,  // measure 77
1100
0000
0000
0000
0011
0000
0000
0000
0100
0000
0000
0000
1001
0000
0000
0000
0010
0000
0000
0000
0101
0000
0000
0000
1010
0000
0000
0000
0001
0000
0000
0000
0110
0000
0000
0000
1000
0000
0000
0000
0101
0000
0000
0000
0010
0000
0000
0000
2200
0000
0000
0000
0010
0000
0000
0000
0001
0000
0000
0000
0010
0000
0000
3000
,  // measure 78
1301
0110
0001
1100
0010
0101
1010
0001
1100
0010
0101
1000
0011
0100
1010
0001
,  // measure 79
0110
0000
0000
0000
1001
0000
0000
0000
0010
0000
0000
0000
0101
0000
0000
0000
1000
0000
0000
0000
0110
0000
0000
0000
1001
0000
0000
0000
0010
0000
0000
0000
0101
0000
0000
0000
0010
0000
0000
0000
1100
0000
0000
0000
0001
0000
0000
0000
2020
0000
0000
0000
0101
0000
0000
0000
0000
0000
0000
0000
0101
0000
0000
3030
,  // measure 80
2012
0000
0000
0000
,  // measure 81
3003
0000
0000
0000
;
