#TITLE:Game Over;
#SUBTITLE:Super Mario Land 2 - 6 Golden Coins (1992);
#ARTIST:Kazumi Totaka;
#TITLETRANSLIT:;
#SUBTITLETRANSLIT:;
#ARTISTTRANSLIT:;
#GENRE:;
#CREDIT:;
#BANNER:;
#BACKGROUND:;
#LYRICSPATH:;
#CDTITLE:!cdtitle.png;
#MUSIC:Game Over.ogg;
#OFFSET:-0.000998;
#SAMPLESTART:0.000998;
#SAMPLELENGTH:19.289503;
#SELECTABLE:YES;
#BPMS:0.000000=99.536003
;
#STOPS:
;
#BGCHANGES:;
#KEYSOUNDS:;
#ATTACKS:;

//---------------dance-single - 2015----------------
#NOTES:
     dance-single:
     :
     Hard:
     13:
     1.098014,0.884228,1.745290,0.000000,1.472411,1352.000000,1043.000000,307.000000,0.000000,0.000000,1.000000,1.098014,0.884228,1.745290,0.000000,1.472411,1352.000000,1043.000000,307.000000,0.000000,0.000000,1.000000:
// measure 0
1010
0100
0010
0100
0011
1000
0100
0010
0101
0010
0001
0100
1010
0001
0100
0010
,  // measure 1
1001
0100
0010
0100
1010
0100
1001
0100
0010
0100
1000
0100
0010
0100
1000
0100
,  // measure 2
0010
0100
0011
1000
0011
0100
1010
0100
1001
0100
0011
1000
0100
0010
0101
0010
,  // measure 3
1100
0001
0110
1000
0011
0100
1001
0010
1000
0100
0010
0100
1000
0100
0010
0100
,  // measure 4
1010
0001
0110
0001
1010
0100
1001
0100
0010
0100
0011
1000
0101
0010
0100
0001
,  // measure 5
0110
0001
1010
0001
1100
0010
1001
0100
0010
0001
1010
0100
0011
0100
1000
0010
,  // measure 6
0101
0010
1100
0001
0110
0001
1010
0001
0100
0010
0101
1000
0110
0001
0010
0100
,  // measure 7
1010
0100
0010
0001
0010
0100
0010
0001
0010
0100
0010
0001
0010
0100
0010
0001
,  // measure 8
1010
0100
0010
0100
0011
1000
0100
0010
0101
0010
0001
0100
1010
0001
0100
0010
,  // measure 9
1001
0100
0010
0100
1010
0100
1001
0100
0010
0100
1000
0100
0010
0100
1000
0100
,  // measure 10
0010
0100
0011
1000
0011
0100
1010
0100
1001
0100
0011
1000
0100
0010
0101
0010
,  // measure 11
1100
0001
0110
1000
0011
0100
1001
0010
1000
0100
0010
0100
1000
0100
0010
0100
,  // measure 12
1010
0001
0110
0001
1010
0100
1001
0100
0010
0100
0011
1000
0101
0010
0100
0001
,  // measure 13
0110
0001
1010
0001
1100
0010
1001
0100
0010
0001
1010
0100
0011
0100
1000
0010
,  // measure 14
0101
0010
1100
0001
0110
0001
1010
0001
0100
0010
0101
1000
0110
0001
0010
0100
,  // measure 15
1010
0100
0010
0001
0010
0100
0010
0001
0010
0100
0010
0001
0010
0100
0010
0001
,  // measure 16
1010
0100
0010
0100
0011
1000
0100
0010
0101
0010
0001
0100
1010
0001
0100
0010
,  // measure 17
1001
0100
0010
0100
1010
0100
1001
0100
0010
0100
1000
0100
0010
0100
1000
0100
,  // measure 18
0010
0100
0011
1000
0011
0100
1010
0100
1001
0100
0011
1000
0100
0010
0101
0010
,  // measure 19
1100
0001
0110
1000
0011
0100
1001
0010
1000
0100
0010
0100
1000
0100
0010
0100
,  // measure 20
1010
0001
0110
0001
1010
0100
1001
0100
0010
0100
0011
1000
0101
0010
0100
0001
,  // measure 21
0110
0001
1010
0001
1100
0010
1001
0100
0010
0001
1010
0100
0011
0100
1000
0010
,  // measure 22
0101
0010
1100
0001
0110
0001
1010
0001
0100
0010
0101
1000
0110
0001
0010
0100
,  // measure 23
1010
0100
0010
0001
0010
0100
0010
0001
0010
0100
0010
0001
0010
0100
0010
0001
,  // measure 24
1010
0100
0010
0100
0011
1000
0100
0010
0101
0010
0001
0100
1010
0001
0100
0010
,  // measure 25
1001
0100
0010
0100
1010
0100
1001
0100
0010
0100
1000
0100
0010
0100
1000
0100
,  // measure 26
0010
0100
0011
1000
0011
0100
1010
0100
1001
0100
0011
1000
0100
0010
0101
0010
,  // measure 27
1100
0001
0110
1000
0011
0100
1001
0010
1000
0100
0010
0100
1000
0100
0010
0100
,  // measure 28
1010
0001
0110
0001
1010
0100
1001
0100
0010
0100
0011
1000
0101
0010
0100
0001
,  // measure 29
0110
0001
1010
0001
1100
0010
1001
0100
0010
0001
1010
0100
0011
0100
1000
0010
,  // measure 30
0101
0010
1100
0001
0110
0001
1010
0001
0100
0010
0101
1000
0110
0001
0010
0100
,  // measure 31
1010
0100
0010
0001
0010
0100
0010
0001
0010
0100
0010
0001
0010
0100
0010
0001
,  // measure 32
1010
0100
0010
0100
0011
1000
0100
0010
0101
0010
0001
0100
1010
0001
0100
0010
,  // measure 33
1001
0100
0010
0100
1010
0100
1001
0100
0010
0100
1000
0100
0010
0100
1000
0100
,  // measure 34
0010
0100
0011
1000
0011
0100
1010
0100
1001
0100
0011
1000
0100
0010
0101
0010
,  // measure 35
1100
0001
0110
1000
0011
0100
1001
0010
1000
0100
0010
0100
1000
0100
0010
0100
,  // measure 36
1010
0001
0110
0001
1010
0100
1001
0100
0010
0100
0011
1000
0101
0010
0100
0001
,  // measure 37
0110
0001
1010
0001
1100
0010
1001
0100
0010
0001
1010
0100
0011
0100
1000
0010
,  // measure 38
0101
0010
1100
0001
0110
0001
1010
0001
0100
0010
0101
1000
0110
0001
0010
0100
,  // measure 39
1010
0100
0010
0001
0010
0100
0010
0001
0010
0100
0010
0001
0010
0100
0010
0001
,  // measure 40
1010
0100
0010
0100
0011
1000
0100
0010
0101
0010
0001
0100
1010
0001
0100
0010
,  // measure 41
1001
0100
0010
0100
1010
0100
1001
0100
0010
0100
1000
0100
0010
0100
1000
0100
,  // measure 42
0010
0100
0011
1000
0011
0100
1010
0100
1001
0100
0011
1000
0100
0010
0101
0010
,  // measure 43
1100
0001
0110
1000
0011
0100
1001
0010
1000
0100
0010
0100
1000
0100
0010
0100
,  // measure 44
1010
0001
0110
0001
1010
0100
1001
0100
0010
0100
0011
1000
0101
0010
0100
0001
,  // measure 45
0110
0001
1010
0001
1100
0010
1001
0100
0010
0001
1010
0100
0011
0100
1000
0010
,  // measure 46
0101
0010
1100
0001
0110
0001
1010
0001
0100
0010
0101
1000
0110
0001
0010
0100
,  // measure 47
1010
0100
0010
0001
0010
0100
0010
0001
0010
0100
0010
0001
0010
0100
0010
0001
,  // measure 48
1010
0100
0010
0100
0011
1000
0100
0010
0101
0010
0001
0100
1010
0001
0100
0010
,  // measure 49
1001
0100
0010
0100
1010
0100
1001
0100
0010
0100
1000
0100
0010
0100
1000
0100
,  // measure 50
0010
0100
0011
1000
0011
0100
1010
0100
1001
0100
0011
1000
0100
0010
0101
0010
,  // measure 51
1100
0001
0110
1000
0011
0100
1001
0010
1000
0100
0010
0100
1000
0100
0010
0100
,  // measure 52
1010
0001
0110
0001
1010
0100
1001
0100
0010
0100
0011
1000
0101
0010
0100
0001
,  // measure 53
0110
0001
1010
0001
1100
0010
1001
0100
0010
0001
1010
0100
0011
0100
1000
0010
,  // measure 54
0101
0010
1100
0001
0110
0001
1010
0001
0100
0010
0101
1000
0110
0001
0010
0100
,  // measure 55
1010
0100
0010
0001
0010
0100
0010
0001
0010
0100
0010
0001
0010
0100
0010
0001
,  // measure 56
1010
0100
0010
0100
0011
1000
0100
0010
0101
0010
0001
0100
1010
0001
0100
0010
,  // measure 57
1001
0100
0010
0100
1010
0100
1001
0100
0010
0100
1000
0100
0010
0100
1000
0100
,  // measure 58
0010
0100
0011
1000
0011
0100
1010
0100
1001
0100
0011
1000
0100
0010
0101
0010
,  // measure 59
1100
0001
0110
1000
0011
0100
1001
0010
1000
0100
0010
0100
1000
0100
0010
0100
,  // measure 60
1010
0001
0110
0001
1010
0100
1001
0100
0010
0100
0011
1000
0101
0010
0100
0001
,  // measure 61
0110
0001
1010
0001
1100
0010
1001
0100
0010
0001
1010
0100
0011
0100
1000
0010
,  // measure 62
0101
0010
1100
0001
0110
0001
1010
0001
0100
0010
0101
1000
0110
0001
0010
0100
,  // measure 63
1010
0100
0010
0001
0010
0100
0010
0001
0010
0100
0010
0001
0010
0100
0010
0001
,  // measure 64
1010
0000
0000
0000
1010
1001
0101
0000
0000
0000
0011
0000
0110
0000
0000
0000
0000
0000
0101
0000
0000
0000
0000
0000
,  // measure 65
1001
1010
0110
0000
,  // measure 66
0101
0000
0000
0000
0011
0101
1010
0000
0000
0000
1001
0000
0110
0000
0000
0000
0000
0000
0000
0000
0000
0000
0000
0000
,  // measure 67
1010
0000
0101
0000
0000
1111
0000
0000
;

//---------------dance-single - 2015 retarded ending----------------
#NOTES:
     dance-single:
     :
     Challenge:
     1337:
     1.228769,2.098625,1.745290,0.000000,1.881730,1513.000000,1204.000000,307.000000,0.000000,0.000000,1.000000,1.228769,2.098625,1.745290,0.000000,1.881730,1513.000000,1204.000000,307.000000,0.000000,0.000000,1.000000:
// measure 0
1010
0100
0010
0100
0011
1000
0100
0010
0101
0010
0001
0100
1010
0001
0100
0010
,  // measure 1
1001
0100
0010
0100
1010
0100
1001
0100
0010
0100
1000
0100
0010
0100
1000
0100
,  // measure 2
0010
0100
0011
1000
0011
0100
1010
0100
1001
0100
0011
1000
0100
0010
0101
0010
,  // measure 3
1100
0001
0110
1000
0011
0100
1001
0010
1000
0100
0010
0100
1000
0100
0010
0100
,  // measure 4
1010
0001
0110
0001
1010
0100
1001
0100
0010
0100
0011
1000
0101
0010
0100
0001
,  // measure 5
0110
0001
1010
0001
1100
0010
1001
0100
0010
0001
1010
0100
0011
0100
1000
0010
,  // measure 6
0101
0010
1100
0001
0110
0001
1010
0001
0100
0010
0101
1000
0110
0001
0010
0100
,  // measure 7
1010
0100
0010
0001
0010
0100
0010
0001
0010
0100
0010
0001
0010
0100
0010
0001
,  // measure 8
1010
0100
0010
0100
0011
1000
0100
0010
0101
0010
0001
0100
1010
0001
0100
0010
,  // measure 9
1001
0100
0010
0100
1010
0100
1001
0100
0010
0100
1000
0100
0010
0100
1000
0100
,  // measure 10
0010
0100
0011
1000
0011
0100
1010
0100
1001
0100
0011
1000
0100
0010
0101
0010
,  // measure 11
1100
0001
0110
1000
0011
0100
1001
0010
1000
0100
0010
0100
1000
0100
0010
0100
,  // measure 12
1010
0001
0110
0001
1010
0100
1001
0100
0010
0100
0011
1000
0101
0010
0100
0001
,  // measure 13
0110
0001
1010
0001
1100
0010
1001
0100
0010
0001
1010
0100
0011
0100
1000
0010
,  // measure 14
0101
0010
1100
0001
0110
0001
1010
0001
0100
0010
0101
1000
0110
0001
0010
0100
,  // measure 15
1010
0100
0010
0001
0010
0100
0010
0001
0010
0100
0010
0001
0010
0100
0010
0001
,  // measure 16
1010
0100
0010
0100
0011
1000
0100
0010
0101
0010
0001
0100
1010
0001
0100
0010
,  // measure 17
1001
0100
0010
0100
1010
0100
1001
0100
0010
0100
1000
0100
0010
0100
1000
0100
,  // measure 18
0010
0100
0011
1000
0011
0100
1010
0100
1001
0100
0011
1000
0100
0010
0101
0010
,  // measure 19
1100
0001
0110
1000
0011
0100
1001
0010
1000
0100
0010
0100
1000
0100
0010
0100
,  // measure 20
1010
0001
0110
0001
1010
0100
1001
0100
0010
0100
0011
1000
0101
0010
0100
0001
,  // measure 21
0110
0001
1010
0001
1100
0010
1001
0100
0010
0001
1010
0100
0011
0100
1000
0010
,  // measure 22
0101
0010
1100
0001
0110
0001
1010
0001
0100
0010
0101
1000
0110
0001
0010
0100
,  // measure 23
1010
0100
0010
0001
0010
0100
0010
0001
0010
0100
0010
0001
0010
0100
0010
0001
,  // measure 24
1010
0100
0010
0100
0011
1000
0100
0010
0101
0010
0001
0100
1010
0001
0100
0010
,  // measure 25
1001
0100
0010
0100
1010
0100
1001
0100
0010
0100
1000
0100
0010
0100
1000
0100
,  // measure 26
0010
0100
0011
1000
0011
0100
1010
0100
1001
0100
0011
1000
0100
0010
0101
0010
,  // measure 27
1100
0001
0110
1000
0011
0100
1001
0010
1000
0100
0010
0100
1000
0100
0010
0100
,  // measure 28
1010
0001
0110
0001
1010
0100
1001
0100
0010
0100
0011
1000
0101
0010
0100
0001
,  // measure 29
0110
0001
1010
0001
1100
0010
1001
0100
0010
0001
1010
0100
0011
0100
1000
0010
,  // measure 30
0101
0010
1100
0001
0110
0001
1010
0001
0100
0010
0101
1000
0110
0001
0010
0100
,  // measure 31
1010
0100
0010
0001
0010
0100
0010
0001
0010
0100
0010
0001
0010
0100
0010
0001
,  // measure 32
1010
0100
0010
0100
0011
1000
0100
0010
0101
0010
0001
0100
1010
0001
0100
0010
,  // measure 33
1001
0100
0010
0100
1010
0100
1001
0100
0010
0100
1000
0100
0010
0100
1000
0100
,  // measure 34
0010
0100
0011
1000
0011
0100
1010
0100
1001
0100
0011
1000
0100
0010
0101
0010
,  // measure 35
1100
0001
0110
1000
0011
0100
1001
0010
1000
0100
0010
0100
1000
0100
0010
0100
,  // measure 36
1010
0001
0110
0001
1010
0100
1001
0100
0010
0100
0011
1000
0101
0010
0100
0001
,  // measure 37
0110
0001
1010
0001
1100
0010
1001
0100
0010
0001
1010
0100
0011
0100
1000
0010
,  // measure 38
0101
0010
1100
0001
0110
0001
1010
0001
0100
0010
0101
1000
0110
0001
0010
0100
,  // measure 39
1010
0100
0010
0001
0010
0100
0010
0001
0010
0100
0010
0001
0010
0100
0010
0001
,  // measure 40
1010
0100
0010
0100
0011
1000
0100
0010
0101
0010
0001
0100
1010
0001
0100
0010
,  // measure 41
1001
0100
0010
0100
1010
0100
1001
0100
0010
0100
1000
0100
0010
0100
1000
0100
,  // measure 42
0010
0100
0011
1000
0011
0100
1010
0100
1001
0100
0011
1000
0100
0010
0101
0010
,  // measure 43
1100
0001
0110
1000
0011
0100
1001
0010
1000
0100
0010
0100
1000
0100
0010
0100
,  // measure 44
1010
0001
0110
0001
1010
0100
1001
0100
0010
0100
0011
1000
0101
0010
0100
0001
,  // measure 45
0110
0001
1010
0001
1100
0010
1001
0100
0010
0001
1010
0100
0011
0100
1000
0010
,  // measure 46
0101
0010
1100
0001
0110
0001
1010
0001
0100
0010
0101
1000
0110
0001
0010
0100
,  // measure 47
1010
0100
0010
0001
0010
0100
0010
0001
0010
0100
0010
0001
0010
0100
0010
0001
,  // measure 48
1010
0100
0010
0100
0011
1000
0100
0010
0101
0010
0001
0100
1010
0001
0100
0010
,  // measure 49
1001
0100
0010
0100
1010
0100
1001
0100
0010
0100
1000
0100
0010
0100
1000
0100
,  // measure 50
0010
0100
0011
1000
0011
0100
1010
0100
1001
0100
0011
1000
0100
0010
0101
0010
,  // measure 51
1100
0001
0110
1000
0011
0100
1001
0010
1000
0100
0010
0100
1000
0100
0010
0100
,  // measure 52
1010
0001
0110
0001
1010
0100
1001
0100
0010
0100
0011
1000
0101
0010
0100
0001
,  // measure 53
0110
0001
1010
0001
1100
0010
1001
0100
0010
0001
1010
0100
0011
0100
1000
0010
,  // measure 54
0101
0010
1100
0001
0110
0001
1010
0001
0100
0010
0101
1000
0110
0001
0010
0100
,  // measure 55
1010
0100
0010
0001
0010
0100
0010
0001
0010
0100
0010
0001
0010
0100
0010
0001
,  // measure 56
1010
0100
0010
0100
0011
1000
0100
0010
0101
0010
0001
0100
1010
0001
0100
0010
,  // measure 57
1001
0100
0010
0100
1010
0100
1001
0100
0010
0100
1000
0100
0010
0100
1000
0100
,  // measure 58
0010
0100
0011
1000
0011
0100
1010
0100
1001
0100
0011
1000
0100
0010
0101
0010
,  // measure 59
1100
0001
0110
1000
0011
0100
1001
0010
1000
0100
0010
0100
1000
0100
0010
0100
,  // measure 60
1010
0001
0110
0001
1010
0100
1001
0100
0010
0100
0011
1000
0101
0010
0100
0001
,  // measure 61
0110
0001
1010
0001
1100
0010
1001
0100
0010
0001
1010
0100
0011
0100
1000
0010
,  // measure 62
0101
0010
1100
0001
0110
0001
1010
0001
0100
0010
0101
1000
0110
0001
0010
0100
,  // measure 63
1010
0100
0010
0001
0010
0100
0010
0001
0010
0100
0010
0001
0010
0100
0010
0001
,  // measure 64
1010
0100
0001
1000
0100
0001
0100
0010
0101
0000
1001
0000
1010
0001
0100
0010
1000
0100
0001
1000
0011
0100
1000
0001
0110
0001
0010
1000
0100
1000
0001
0100
0010
0001
1000
0010
0101
0010
1000
0001
0100
0010
1000
0001
0100
0001
0010
0100
,  // measure 65
1001
0100
0010
1000
0001
0100
0001
0010
1000
0100
0001
0100
1010
0001
1000
0100
0001
0010
0100
0001
1000
0100
0010
1000
0110
0001
0010
0100
0001
1000
0100
0010
1000
0100
0001
0100
0001
0010
1000
0001
0100
1000
0001
0010
0100
0001
1000
0010
,  // measure 66
0101
0010
0100
1000
0001
0100
0001
1000
0011
1000
0101
0010
1001
0010
0100
1000
0100
0001
0100
0010
1001
0100
0001
1000
0110
0001
0100
0010
1000
0100
0001
0010
0100
0001
0100
0010
1000
0001
0100
0001
0010
1000
0001
0010
0100
0001
0100
0010
,  // measure 67
1001
0000
0000
0000
0010
0000
0000
0000
0100
0000
0000
0000
0001
0000
0000
0000
1000
0000
0000
0000
0100
0000
0000
0000
1000
0000
0000
0000
0010
0000
0000
0000
0100
0000
0000
0000
0001
0000
0000
0000
1000
0000
0000
0000
0001
0000
0000
0000
0110
0000
0000
0000
1000
0000
0000
0000
0100
0000
0000
0000
0010
0000
0000
0000
0001
0000
0000
0000
0100
0000
0000
0000
0010
0000
0000
0000
1000
0000
0000
0000
0100
0000
0000
0000
0001
0000
0000
0000
0100
0000
0000
0000
0010
0000
0000
0000
1000
0000
0000
0000
0001
0000
0000
0000
0100
0000
0000
0000
0001
0000
0000
0000
0010
0000
0000
0000
0100
0000
0000
0000
1111
0000
0000
0100
0000
0000
0010
0000
0000
0001
0000
0000
1000
0000
0000
0100
0000
0000
0010
0000
0000
0001
0000
0000
0000
0000
0000
0000
0000
0000
0000
0000
0000
0000
0000
0000
0000
0000
0000
0000
0000
0000
0000
0000
0000
0000
0000
0000
0000
0000
0000
0000
0000
0000
0000
0000
0000
0000
0000
0000
0000
0000
0000
0000
0000
0000
0000
0000
0000
0000
0000
0000
;
