#TITLE:Dogsong;
#SUBTITLE:;
#ARTIST:Toby Fox;
#TITLETRANSLIT:;
#SUBTITLETRANSLIT:;
#ARTISTTRANSLIT:;
#GENRE:;
#CREDIT:;
#BANNER:mysisterdrewthisforme-bn.png;
#BACKGROUND:mysisterdrewthisforme-bg.png;
#LYRICSPATH:;
#CDTITLE:!cdtitle.png;
#MUSIC:Dogsong.ogg;
#OFFSET:-0.001814;
#SAMPLESTART:0.019033;
#SAMPLELENGTH:17.216904;
#SELECTABLE:YES;
#DISPLAYBPM:*;
#BPMS:0.000000=255.282013
,1.000000=255.207993
,2.000000=218.352997
,3.000000=236.587997
,4.000000=245.135986
,5.000000=201.186005
,6.000000=233.147995
,7.000000=248.731018
,8.000000=232.942993
,9.000000=255.429977
,10.000000=230.729004
,11.000000=225.153000
,12.000000=239.651993
,13.000000=226.386002
,15.000000=230.548004
,16.000000=251.663986
,17.000000=236.651001
,18.000000=242.596008
,19.000000=230.488007
,20.000000=249.528015
,21.000000=211.968002
,22.000000=241.181000
,23.000000=204.544998
,24.000000=220.647003
,25.000000=223.876999
,26.000000=190.483002
,27.000000=211.324997
,28.000000=221.070999
,29.000000=224.580002
,30.000000=139.585999
,31.000000=213.731995
,32.000000=212.563995
,33.000000=239.457001
,34.000000=239.565002
,35.000000=233.292007
,36.000000=241.291016
,37.000000=228.537003
,38.000000=271.774994
,39.000000=196.057999
,40.000000=229.528000
,41.000000=222.278000
,42.000000=237.585999
,43.000000=223.384995
,44.000000=248.964981
,45.000000=231.718994
,46.000000=240.632996
,47.000000=199.531998
,48.000000=256.470001
,49.000000=232.759003
,50.000000=241.798004
,51.000000=220.591995
,52.000000=240.873993
,53.000000=223.253006
,54.000000=212.479004
,55.000000=187.367004
,56.000000=224.751999
,57.000000=213.145996
,58.000000=181.432007
,59.000000=224.712997
,60.000000=219.748993
,61.000000=219.639999
,62.000000=91.143997
,63.000000=216.000000
,64.000000=221.016006
,65.000000=262.864990
,66.000000=206.074997
,67.000000=231.072006
,68.000000=207.740997
,69.000000=259.106995
,70.000000=172.434006
,71.000000=228.516998
,72.000000=234.824005
,73.000000=236.356003
,74.000000=208.149994
,75.000000=248.356995
,76.000000=180.565002
,77.000000=200.166000
,78.000000=177.619995
,79.000000=242.063995
,80.000000=247.776001
,81.000000=222.259995
,82.000000=230.266998
,83.000000=254.765991
,84.000000=204.214005
,85.000000=250.095001
,86.000000=182.080994
,87.000000=230.910004
,88.000000=213.009003
,89.000000=125.212997
,90.000000=224.179993
,91.000000=235.054001
,93.000000=172.479004
,94.000000=234.845001
,95.000000=236.334000
,96.000000=248.753983
,97.000000=217.438004
,98.000000=240.152008
,99.000000=197.832001
,100.000000=262.343994
,101.000000=207.985992
,102.000000=240.939987
,103.000000=233.313004
,104.000000=280.325989
,105.000000=216.175995
,106.000000=258.675995
,107.000000=222.222000
,109.000000=196.612000
,110.000000=224.942993
,111.000000=272.558990
,112.000000=232.513000
,113.000000=232.492996
,114.000000=233.024994
,115.000000=228.595993
,117.000000=214.042999
,118.000000=248.707977
,119.000000=247.358978
,120.000000=247.335999
,122.000000=250.142014
,123.000000=219.438995
,124.000000=274.196991
,125.000000=182.912003
,126.000000=272.783997
,127.000000=272.755005
,128.000000=265.903015
,129.000000=234.056000
,130.000000=236.800003
,133.000000=236.779007
,134.000000=255.282013
,135.000000=255.207993
,136.000000=218.352997
,137.000000=236.587997
,138.000000=245.135986
,139.000000=201.186005
,140.000000=233.147995
,141.000000=248.731018
,142.000000=232.942993
,143.000000=255.429977
,144.000000=230.729004
,145.000000=225.153000
,146.000000=239.651993
,147.000000=226.386002
,149.000000=230.548004
,150.000000=251.663986
,151.000000=236.651001
,152.000000=242.596008
,153.000000=230.488007
,154.000000=249.528015
,155.000000=211.968002
,156.000000=241.181000
,157.000000=204.544998
,158.000000=220.647003
,159.000000=223.876999
,160.000000=190.483002
,161.000000=211.324997
,162.000000=221.070999
,163.000000=224.580002
,164.000000=139.585999
,165.000000=213.731995
,166.000000=212.563995
,167.000000=239.457001
,168.000000=239.565002
,169.000000=233.292007
,170.000000=241.291016
,171.000000=228.537003
,172.000000=271.774994
,173.000000=196.057999
,174.000000=229.528000
,175.000000=222.278000
,176.000000=237.585999
,177.000000=223.384995
,178.000000=248.964981
,179.000000=231.718994
,180.000000=240.632996
,181.000000=199.531998
,182.000000=256.470001
,183.000000=232.759003
,184.000000=241.798004
,185.000000=220.591995
,186.000000=240.873993
,187.000000=223.253006
,188.000000=212.479004
,189.000000=187.367004
,190.000000=224.751999
,191.000000=213.145996
,192.000000=181.432007
,193.000000=224.712997
,194.000000=219.748993
,195.000000=219.639999
,196.000000=91.143997
,197.000000=216.000000
,198.000000=221.016006
,199.000000=262.864990
,200.000000=206.074997
,201.000000=231.072006
,202.000000=207.740997
,203.000000=259.106995
,204.000000=172.434006
,205.000000=228.516998
,206.000000=234.824005
,207.000000=236.356003
,208.000000=208.149994
,209.000000=248.356995
,210.000000=180.565002
,211.000000=200.166000
,212.000000=177.619995
,213.000000=242.063995
,214.000000=247.776001
,215.000000=222.259995
,216.000000=230.266998
,217.000000=254.765991
,218.000000=204.214005
,219.000000=250.095001
,220.000000=182.080994
,221.000000=230.910004
,222.000000=213.009003
,223.000000=125.212997
,224.000000=224.179993
,225.000000=235.054001
,227.000000=172.479004
,228.000000=234.845001
,229.000000=236.334000
,230.000000=248.753983
,231.000000=217.438004
,232.000000=240.152008
,233.000000=197.832001
,234.000000=262.343994
,235.000000=207.985992
,236.000000=240.939987
,237.000000=233.313004
,238.000000=280.325989
,239.000000=216.175995
,240.000000=258.675995
,241.000000=222.222000
,243.000000=196.612000
,244.000000=224.942993
,245.000000=272.558990
,246.000000=232.513000
,247.000000=232.492996
,248.000000=233.024994
,249.000000=228.595993
,251.000000=214.042999
,252.000000=248.707977
,253.000000=247.358978
,254.000000=247.335999
,256.000000=250.142014
,257.000000=219.438995
,258.000000=274.196991
,259.000000=182.912003
,260.000000=272.783997
,261.000000=272.755005
,262.000000=265.903015
,263.000000=234.056000
,264.000000=236.800003
,267.000000=236.779007
,268.000000=255.282013
,269.000000=255.207993
,270.000000=218.352997
,271.000000=236.587997
,272.000000=245.135986
,273.000000=201.186005
,274.000000=233.147995
,275.000000=248.731018
,276.000000=232.942993
,277.000000=255.429977
,278.000000=230.729004
,279.000000=225.153000
,280.000000=239.651993
,281.000000=226.386002
,283.000000=230.548004
,284.000000=251.663986
,285.000000=236.651001
,286.000000=242.596008
,287.000000=230.488007
,288.000000=249.528015
,289.000000=211.968002
,290.000000=241.181000
,291.000000=204.544998
,292.000000=220.647003
,293.000000=223.876999
;
#STOPS:
;
#BGCHANGES:;
#KEYSOUNDS:;
#ATTACKS:;

//---------------dance-single - 2016 sorta-dump----------------
#NOTES:
     dance-single:
     :
     Hard:
     20:
     2.372730,2.064438,3.440730,0.012650,3.213034,1313.000000,1025.000000,272.000000,1.000000,8.000000,14.000000,2.372730,2.064438,3.440730,0.012650,3.213034,1313.000000,1025.000000,272.000000,1.000000,8.000000,14.000000:
// measure 0
1000
0100
0010
0001
1100
0010
1000
0100
0001
0010
0101
1000
0010
0100
0001
0010
,  // measure 1
1100
0001
0010
0100
0011
0100
1001
0010
0100
1000
0011
0100
1010
0001
1100
0010
,  // measure 2
0001
0100
0010
1000
0101
0010
1000
0001
0010
0100
0011
0100
0001
0010
1000
0010
,  // measure 3
1100
0010
0001
1000
0110
1000
0011
0100
0010
0001
0100
0001
1000
0100
1000
0010
,  // measure 4
0001
0100
0010
0100
1001
0010
1000
0001
0010
1000
0110
0001
0100
1000
0010
0100
,  // measure 5
1001
0010
0100
0001
1100
0010
0101
1000
0010
0100
0011
1000
0101
0010
1100
0010
,  // measure 6
1101
0010
0101
1000
0110
0001
0010
0100
1011
0100
0011
1000
0110
0001
1000
0100
,  // measure 7
0011
0100
1000
0010
1100
0001
0010
0100
1001
0000
0000
0000
MMMM
0000
0000
0000
,  // measure 8
0010
1000
0001
0100
1001
0100
0010
1000
0001
0010
0101
1000
0100
0001
0010
0100
,  // measure 9
1010
0001
0100
1000
0101
0010
1100
0010
0100
1000
0011
0100
1001
0010
0101
1000
,  // measure 10
0010
0100
0001
1000
0101
0010
0001
0100
1000
0010
1100
0001
1000
0100
0010
0001
,  // measure 11
1100
0010
0001
0100
0011
1000
0110
0001
1000
0100
1000
0010
0101
0010
0001
0100
,  // measure 12
0010
0001
1000
0010
1100
0001
0100
0010
1000
0100
0011
0100
0001
0010
1000
0001
,  // measure 13
0110
1000
0010
0001
1100
0010
0101
1000
0010
0100
0011
0100
1010
0001
1100
0001
,  // measure 14
1110
0001
0110
1000
0011
0100
0001
1000
0111
1000
0011
0100
1001
0010
0100
0001
,  // measure 15
1100
0010
0001
0100
1001
0010
0100
1000
0111
0000
0000
0000
0010
0100
0001
0100
,  // measure 16
1010
0001
0100
1000
0010
0001
1100
0010
0101
1000
0100
0010
1001
0010
1000
0100
,  // measure 17
0011
1000
0101
0010
1000
0100
0011
0100
1010
0100
1001
0010
1000
0010
0100
0001
,  // measure 18
1100
0010
1000
0100
0001
0100
0011
0100
1001
0010
0001
0010
1100
0001
1000
0100
,  // measure 19
0011
1000
0110
0001
0010
1000
0110
0001
1100
0010
0100
0001
0010
0100
1000
0100
,  // measure 20
0011
1000
0001
0010
0101
0010
1100
0001
1010
0001
0100
0010
1001
0100
0001
1000
,  // measure 21
0011
0100
1010
0001
0100
0001
1010
0100
1001
0010
0101
1000
0110
1000
0011
0100
,  // measure 22
1000
0001
0100
0001
1010
0100
1000
0010
0101
1000
0001
0010
1100
0001
1010
0100
,  // measure 23
0001
1000
0101
0010
1100
0001
0110
1000
0101
0010
1000
0001
0110
0001
0010
1000
,  // measure 24
0100
0010
1001
0100
1010
0001
0100
0001
0110
1000
0010
0100
0011
1000
0101
0010
,  // measure 25
0100
0010
1001
0100
1010
0100
0011
1000
0010
0001
0100
1000
0101
0010
0001
1000
,  // measure 26
0100
0001
1010
0100
1001
0010
0100
0010
1001
0010
0001
1000
0101
0010
1100
0010
,  // measure 27
0001
1000
0011
0100
1001
0100
0001
0010
1100
0001
1000
0100
0011
0100
0001
0010
,  // measure 28
0100
1000
0110
0001
1010
0100
0001
0010
1001
0100
0010
0001
0110
1000
0101
1000
,  // measure 29
0001
0010
0101
1000
0011
1000
0101
0010
1001
0100
0010
0100
0011
1000
0001
0010
,  // measure 30
0100
0001
1100
0010
0001
1000
0010
0100
1001
0100
0010
0100
0011
0100
1010
0001
,  // measure 31
0010
0100
1000
0010
1001
0100
0010
0100
1000
0001
0100
0010
1100
0010
0001
0100
,  // measure 32
1001
0010
0100
1000
0100
0010
0001
0100
1011
0000
0000
0000
0000
0000
1111
0000
,  // measure 33
0000
0000
0000
0000
0000
0000
0000
0000
1000
0100
0010
0001
1100
0010
1000
0100
,  // measure 34
0001
0010
0101
1000
0010
0100
0001
0010
1100
0001
0010
0100
0011
0100
1001
0010
,  // measure 35
0100
1000
0011
0100
1010
0001
1100
0010
0001
0100
0010
1000
0101
0010
1000
0001
,  // measure 36
0010
0100
0011
0100
0001
0010
1000
0010
1100
0010
0001
1000
0110
1000
0011
0100
,  // measure 37
0010
0001
0100
0001
1000
0100
1000
0010
0001
0100
0010
0100
1001
0010
1000
0001
,  // measure 38
0010
1000
0110
0001
0100
1000
0010
0100
1001
0010
0100
0001
1100
0010
0101
1000
,  // measure 39
0010
0100
0011
1000
0101
0010
1100
0010
1101
0010
0101
1000
0110
0001
0010
0100
,  // measure 40
1011
0100
0011
1000
0110
0001
1000
0100
0011
0100
1000
0010
1100
0001
0010
0100
,  // measure 41
1001
0000
0000
0000
MMMM
0000
0000
0000
0010
1000
0001
0100
1001
0100
0010
1000
,  // measure 42
0001
0010
0101
1000
0100
0001
0010
0100
1010
0001
0100
1000
0101
0010
1100
0010
,  // measure 43
0100
1000
0011
0100
1001
0010
0101
1000
0010
0100
0001
1000
0101
0010
0001
0100
,  // measure 44
1000
0010
1100
0001
1000
0100
0010
0001
1100
0010
0001
0100
0011
1000
0110
0001
,  // measure 45
1000
0100
1000
0010
0101
0010
0001
0100
0010
0001
1000
0010
1100
0001
0100
0010
,  // measure 46
1000
0100
0011
0100
0001
0010
1000
0001
0110
1000
0010
0001
1100
0010
0101
1000
,  // measure 47
0010
0100
0011
0100
1010
0001
1100
0001
1110
0001
0110
1000
0011
0100
0001
1000
,  // measure 48
0111
1000
0011
0100
1001
0010
0100
0001
1100
0010
0001
0100
1001
0010
0100
1000
,  // measure 49
0111
0000
0000
0000
0010
0100
0001
0100
1010
0001
0100
1000
0010
0001
1100
0010
,  // measure 50
0101
1000
0100
0010
1001
0010
1000
0100
0011
1000
0101
0010
1000
0100
0011
0100
,  // measure 51
1010
0100
1001
0010
1000
0010
0100
0001
1100
0010
1000
0100
0001
0100
0011
0100
,  // measure 52
1001
0010
0001
0010
1100
0001
1000
0100
0011
1000
0110
0001
0010
1000
0110
0001
,  // measure 53
1100
0010
0100
0001
0010
0100
1000
0100
0011
1000
0001
0010
0101
0010
1100
0001
,  // measure 54
1010
0001
0100
0010
1001
0100
0001
1000
0011
0100
1010
0001
0100
0001
1010
0100
,  // measure 55
1001
0010
0101
1000
0110
1000
0011
0100
1000
0001
0100
0001
1010
0100
1000
0010
,  // measure 56
0101
1000
0001
0010
1100
0001
1010
0100
0001
1000
0101
0010
1100
0001
0110
1000
,  // measure 57
0101
0010
1000
0001
0110
0001
0010
1000
0100
0010
1001
0100
1010
0001
0100
0001
,  // measure 58
0110
1000
0010
0100
0011
1000
0101
0010
0100
0010
1001
0100
1010
0100
0011
1000
,  // measure 59
0010
0001
0100
1000
0101
0010
0001
1000
0100
0001
1010
0100
1001
0010
0100
0010
,  // measure 60
1001
0010
0001
1000
0101
0010
1100
0010
0001
1000
0011
0100
1001
0100
0001
0010
,  // measure 61
1100
0001
1000
0100
0011
0100
0001
0010
0100
1000
0110
0001
1010
0100
0001
0010
,  // measure 62
1001
0100
0010
0001
0110
1000
0101
1000
0001
0010
0101
1000
0011
1000
0101
0010
,  // measure 63
1001
0100
0010
0100
0011
1000
0001
0010
0100
0001
1100
0010
0001
1000
0010
0100
,  // measure 64
1001
0100
0010
0100
0011
0100
1010
0001
0010
0100
1000
0010
1001
0100
0010
0100
,  // measure 65
1000
0001
0100
0010
1100
0010
0001
0100
1001
0010
0100
1000
0100
0010
0001
0100
,  // measure 66
1011
0000
0000
1111
0000
0000
0000
0000
,  // measure 67
2000
0000
0000
0000
,  // measure 68
3000
0000
0000
0000
;
