#TITLE:Dash Hopes 2;
#SUBTITLE:vFINAL;
#ARTIST:Renard;
#TITLETRANSLIT:;
#SUBTITLETRANSLIT:;
#ARTISTTRANSLIT:;
#GENRE:;
#CREDIT:;
#BANNER:stopplayingdashhopes-bn.png;
#BACKGROUND:stopplayingdashhopes-bg.png;
#LYRICSPATH:;
#CDTITLE:!cdtitle.png;
#MUSIC:Dash Hopes 2.mp3;
#OFFSET:-0.050998;
#SAMPLESTART:4.830000;
#SAMPLELENGTH:15.000000;
#SELECTABLE:YES;
#BPMS:0.000000=249.999985
;
#STOPS:
;
#BGCHANGES:;
#KEYSOUNDS:;
#ATTACKS:;

//---------------dance-single - 2016, all of these charts are PAD ONLY----------------
#NOTES:
     dance-single:
     :
     Challenge:
     14:
     1.266333,1.752695,0.616357,0.100858,1.199095,791.000000,736.000000,55.000000,9.000000,16.000000,0.000000,1.266333,1.752695,0.616357,0.100858,1.199095,791.000000,736.000000,55.000000,9.000000,16.000000,0.000000:
// measure 0
MMMM
0000
0000
0000
,  // measure 1
0000
0000
0000
0000
,  // measure 2
0000
0000
0000
0000
,  // measure 3
0000
0000
0000
0000
,  // measure 4
0000
0000
0000
0000
,  // measure 5
1001
0000
0000
1000
0100
0000
1000
0000
0001
0000
0000
0001
0010
0000
0001
0000
,  // measure 6
0100
0000
0000
0100
0010
0000
0100
0000
0010
0000
0000
0010
0100
0000
0010
0000
,  // measure 7
1000
0000
0010
1000
0010
0000
1000
0000
0001
0000
0100
0001
0100
0000
0001
0000
,  // measure 8
0100
0000
0010
0100
0010
0000
0100
0000
0010
0000
0100
0010
0100
0000
0010
0000
,  // measure 9
0101
0000
0001
0100
0000
0000
0100
0000
0010
0000
1000
0010
0000
0000
0010
0000
,  // measure 10
1000
0000
0100
1000
0000
0000
1000
0000
0001
0000
0010
0001
0000
0000
0001
0000
,  // measure 11
0100
0000
0001
0100
0001
0000
0100
0000
1000
0000
0010
1000
0010
0000
1000
0000
,  // measure 12
0001
0000
0100
0001
0100
0000
0001
0000
0010
0000
1000
0010
1000
0000
0100
0000
,  // measure 13
1100
0010
1000
0010
0100
0010
1000
0010
,  // measure 14
0100
0001
0010
0001
0100
0001
0010
0001
,  // measure 15
0100
0000
0001
0100
0001
0000
0100
0000
0010
0000
1000
0010
1000
0000
0010
0000
,  // measure 16
1000
0000
0100
1000
0100
0000
1000
0000
0001
0000
0010
0001
0010
0000
0001
0000
,  // measure 17
1001
0010
0100
0010
0001
0010
0100
0010
,  // measure 18
1000
0001
0010
0001
1000
0001
0010
0001
,  // measure 19
0100
0000
0010
0100
0010
0000
1000
0000
0001
0000
0100
0001
0100
0000
0010
0000
,  // measure 20
1000
0000
0010
1000
0010
0000
0100
0000
0001
0000
1000
0001
1000
0000
0010
0000
,  // measure 21
0110
0000
0100
0000
0001
0010
0001
0010
0100
0000
0100
0000
1000
0010
1000
0010
,  // measure 22
0100
0000
0100
0000
0001
0010
0001
0010
0100
0001
0100
0001
1000
0010
1000
0010
,  // measure 23
1000
0000
1000
0000
0100
0010
0100
0010
0001
0000
0001
0000
0010
0100
0010
0100
,  // measure 24
0001
0000
0001
0000
0100
0010
0100
0010
1000
0001
1000
0001
0100
0010
0100
0010
,  // measure 25
0001
0000
0001
0000
1000
0010
1000
0010
0100
0000
0100
0000
0001
0100
0001
0100
,  // measure 26
1000
0000
1000
0000
0100
0010
0100
0010
0001
0100
0001
0100
1000
0001
1000
0001
,  // measure 27
0010
0000
0010
0000
0100
0010
0100
0010
1000
0000
1000
0000
0100
0001
0100
0001
,  // measure 28
0010
0000
0010
0000
0001
0010
0001
0010
0100
0001
0100
0001
1000
0010
1000
0010
,  // measure 29
0001
0000
0001
0000
0100
0010
0100
0010
1000
0000
1000
0000
0010
0100
0010
0100
,  // measure 30
0001
0000
0001
0000
0100
0001
0100
0001
0010
0100
0010
0100
1000
0010
1000
0010
,  // measure 31
0100
0000
0100
0000
0010
0001
0010
0001
1000
0000
1000
0000
0001
0100
0001
0100
,  // measure 32
0010
0000
0010
0000
0100
1000
0100
1000
0010
1000
0010
1000
0100
0010
0100
0010
,  // measure 33
0001
0100
0001
0100
0001
0100
0001
0100
0001
1000
0001
1000
0001
1000
0001
1000
,  // measure 34
0010
1000
0010
1000
0010
1000
0010
1000
0010
0100
0010
0100
0010
0100
0010
0100
,  // measure 35
1000
0010
1000
0010
1000
0010
1000
0010
0100
0001
0100
0001
0100
0001
0100
0001
,  // measure 36
0010
0000
0000
0000
0100
0000
0000
0000
0010
0000
0000
0000
0100
0000
0000
0000
0010
0000
0000
0000
0100
0000
0000
0000
0010
0000
0000
0000
0100
0000
0000
0000
0020
0000
0000
0000
0000
0000
0000
0000
0000
0000
0000
0000
0000
0000
0000
0000
0000
0000
0000
0000
0000
0000
0000
0000
0000
0000
0000
0000
0000
0000
0000
0030
,  // measure 37
MMMM
0000
0000
0000
,  // measure 38
0000
0000
0000
0000
,  // measure 39
0000
0000
0000
0000
,  // measure 40
0000
0000
0000
0000
,  // measure 41
0000
0000
0000
0000
,  // measure 42
0110
1100
0011
0011
,  // measure 43
0101
0101
1010
1010
,  // measure 44
1001
1001
0101
0101
,  // measure 45
0011
0001
0101
0100
1100
1000
1010
0000
,  // measure 46
0110
0110
0011
0011
,  // measure 47
0101
0000
0000
0000
0101
0000
0000
0000
1010
0000
0010
0000
0010
0100
0010
0100
,  // measure 48
0001
0100
1000
0100
0001
0010
1000
0010
,  // measure 49
0001
0100
0010
0100
1000
0010
0100
0010
1000
0001
0100
0001
0010
0100
0001
0000
,  // measure 50
MMMM
0000
0000
0000
,  // measure 51
0000
0000
0000
0000
,  // measure 52
0000
0000
0000
0000
,  // measure 53
0000
0000
0000
0000
,  // measure 54
0000
0000
0000
0000
,  // measure 55
1001
0000
0001
1000
0001
0000
0001
0000
1001
0000
1000
0001
1000
0000
1000
0000
,  // measure 56
1001
0000
0001
1000
0001
0000
0001
0000
1000
0000
1000
0000
1001
0000
0000
0000
,  // measure 57
0110
0000
0010
0100
0010
0000
0010
0000
0110
0000
0100
0010
0100
0000
0100
0000
,  // measure 58
0110
0000
0010
0100
0010
0000
0010
0000
0100
0000
0100
0000
0110
0000
0000
0000
,  // measure 59
1001
0000
1000
0001
1000
0000
1000
0000
1001
0000
0001
1000
0001
0000
0001
0000
,  // measure 60
1001
0000
1000
0001
1000
0000
1000
0000
0001
0000
0001
0000
1001
0000
0000
0000
,  // measure 61
0110
0000
0100
0010
0100
0000
0100
0000
0110
0000
0010
0100
0010
0000
0010
0000
,  // measure 62
0110
0000
0100
0010
0100
0000
0100
0000
0010
0000
0010
0000
0110
0000
0000
0000
,  // measure 63
1010
0000
0100
0010
1000
0000
1000
0000
0001
0000
0001
0100
0010
0000
0010
0000
,  // measure 64
0100
0000
0100
0010
0001
0000
0001
0000
0010
0000
0010
0000
0110
0000
0000
0000
,  // measure 65
0100
0000
0100
0010
1000
0000
1000
0000
0010
0000
0010
0001
0100
0000
0100
0000
,  // measure 66
0010
0000
0010
0100
1000
0000
1000
0000
0100
0000
0100
0000
0101
0000
0000
0000
,  // measure 67
1001
0000
1000
0001
0100
0000
0100
0000
0001
0000
0001
1000
0010
0000
0010
0000
,  // measure 68
0100
0000
0100
0010
0001
0000
0001
0000
0010
0000
0010
0000
1010
0000
0000
0000
,  // measure 69
2000
0000
3000
1020
0000
0000
0230
0000
,  // measure 70
0300
0000
0000
0000
0000
0000
0000
0000
0102
0000
0000
0000
0000
0000
0000
0000
0000
0000
0000
0000
0000
0000
0000
0000
0000
0000
0000
0000
0000
0000
0000
0000
0023
0000
0000
0000
0000
0000
0000
0000
0030
0000
0000
0000
0000
0000
0000
0000
2010
0000
0000
0000
0000
0000
0000
0000
0000
0000
0000
0000
0000
0000
0000
3000
,  // measure 71
1001
0000
0000
1000
0100
0000
1000
0000
0001
0000
0000
0001
0010
0000
0001
0000
,  // measure 72
0100
0000
0000
0100
0010
0000
0100
0000
0010
0000
0000
0010
0100
0000
0010
0000
,  // measure 73
1000
0000
0010
1000
0010
0000
1000
0000
0001
0000
0100
0001
0100
0000
0001
0000
,  // measure 74
0100
0000
0010
0100
0010
0000
0100
0000
0010
0000
0100
0010
0100
0000
0010
0000
,  // measure 75
1010
0100
1000
0100
0010
0100
0010
0100
,  // measure 76
0001
0010
0001
0010
0100
0001
0100
0010
,  // measure 77
1000
0000
0010
1000
0010
0000
1000
0000
0100
0000
0001
0100
0001
0000
0100
0000
,  // measure 78
0001
0000
0010
0001
0010
0000
0001
0000
0010
0000
0010
0100
1000
0000
0100
0000
,  // measure 79
MMMM
0000
0000
0000
,  // measure 80
0000
0000
0000
0000
,  // measure 81
0000
0000
0000
0000
,  // measure 82
0000
0000
0000
0000
,  // measure 83
0000
0000
0000
0000
,  // measure 84
1000
0010
1000
0100
1000
0010
1000
0100
0010
0100
0001
0100
0010
0001
0100
0001
,  // measure 85
0100
0001
1000
0001
0010
0001
1000
0001
0010
0001
0100
0001
0010
0100
0001
0100
,  // measure 86
0001
1000
0100
1000
0001
0010
1000
0010
0100
0001
0100
0010
0100
1000
0100
0001
,  // measure 87
0010
0100
1000
0010
0100
0001
0010
0100
0001
1000
0100
0001
1000
0010
0100
0010
,  // measure 88
0001
0100
0001
0100
0001
0100
0001
0100
1000
0100
1000
0100
1000
0100
1000
0100
,  // measure 89
1000
0010
1000
0010
1000
0010
1000
0010
0001
0010
0001
0010
0001
0010
0001
0010
,  // measure 90
0100
0001
0100
0001
0100
0001
0100
0001
1000
0010
1000
0010
1000
0010
1000
0010
,  // measure 91
1000
0001
1000
0001
1000
0001
1000
0001
2020
0000
0000
0000
0000
0000
0000
0000
,  // measure 92
3030
0000
0000
0000
;

//---------------dance-single - ----------------
#NOTES:
     dance-single:
     :
     Beginner:
     5:
     0.414640,0.512697,0.224130,0.044826,0.000000,259.000000,239.000000,20.000000,4.000000,0.000000,0.000000,0.414640,0.512697,0.224130,0.044826,0.000000,259.000000,239.000000,20.000000,4.000000,0.000000,0.000000:
// measure 0
0000
0000
0000
0000
,  // measure 1
0000
0000
0000
0000
,  // measure 2
0000
0000
0000
0000
,  // measure 3
0000
0000
0000
0000
,  // measure 4
0000
0000
0000
0000
,  // measure 5
1001
0000
1000
0000
,  // measure 6
1000
0000
1000
0000
,  // measure 7
0001
0000
0001
0000
,  // measure 8
0001
0000
0001
0010
,  // measure 9
0110
0000
0100
0000
,  // measure 10
0100
0000
0100
0000
,  // measure 11
0010
0000
0010
0000
,  // measure 12
0010
0000
0010
1000
,  // measure 13
1001
0000
1000
0001
,  // measure 14
1000
0000
0001
1000
,  // measure 15
0001
0000
0100
0010
,  // measure 16
0100
0000
0010
0100
,  // measure 17
0110
0000
0100
0010
,  // measure 18
0100
0000
0010
0100
,  // measure 19
1000
0000
0001
1000
,  // measure 20
0001
0000
1000
0001
,  // measure 21
1001
1000
1000
0000
,  // measure 22
1000
1000
1000
0000
,  // measure 23
0001
0001
0001
0000
,  // measure 24
0001
0001
0001
0000
,  // measure 25
0110
0100
0100
0000
,  // measure 26
0100
0100
0100
0000
,  // measure 27
0010
0010
0010
0000
,  // measure 28
0010
0010
0010
0000
,  // measure 29
1001
0001
1000
1000
,  // measure 30
0001
0001
1000
0000
,  // measure 31
1000
1000
0001
0001
,  // measure 32
1000
1000
0001
0000
,  // measure 33
0110
0100
0010
0010
,  // measure 34
0100
0100
0010
0010
,  // measure 35
1000
1000
0010
0010
,  // measure 36
0100
0100
0110
0000
,  // measure 37
1001
0000
0000
0000
,  // measure 38
0000
0000
0000
0000
,  // measure 39
0000
0000
0000
0000
,  // measure 40
0000
0000
0000
0000
,  // measure 41
0000
0000
0000
0000
,  // measure 42
0010
0100
0010
0100
,  // measure 43
0001
1000
0001
1000
,  // measure 44
0100
0010
0100
0010
,  // measure 45
1000
0100
0010
0001
,  // measure 46
0100
0010
0100
0010
,  // measure 47
0001
1000
0001
1000
,  // measure 48
0100
0010
0100
0010
,  // measure 49
1000
1000
1000
1000
,  // measure 50
1001
0000
0000
0000
,  // measure 51
0000
0000
0000
0000
,  // measure 52
0000
0000
0000
0000
,  // measure 53
0000
0000
0000
0000
,  // measure 54
0000
0000
0000
0000
,  // measure 55
0110
0010
0010
0010
,  // measure 56
0010
0010
0100
0100
,  // measure 57
0001
0001
0001
0001
,  // measure 58
0001
0001
1000
1000
,  // measure 59
1001
1000
1000
1000
,  // measure 60
1000
1000
0100
0100
,  // measure 61
0010
0010
0010
0010
,  // measure 62
0010
0010
0001
0001
,  // measure 63
0110
0010
0100
0100
,  // measure 64
1000
1000
1000
1000
,  // measure 65
0010
0010
0100
0100
,  // measure 66
0001
0001
0001
0001
,  // measure 67
0010
0010
0100
0100
,  // measure 68
1000
1000
1000
1000
,  // measure 69
2000
3000
0200
0300
,  // measure 70
0002
0003
0020
0030
,  // measure 71
0110
0000
0010
0000
,  // measure 72
0010
0000
0010
0000
,  // measure 73
0001
0000
0001
0000
,  // measure 74
0001
0000
0001
1000
,  // measure 75
1001
0000
1000
0000
,  // measure 76
0001
0000
0001
0000
,  // measure 77
0100
0000
0100
0000
,  // measure 78
0010
0000
0010
1000
,  // measure 79
0110
0000
0000
0000
,  // measure 80
0000
0000
0000
0000
,  // measure 81
0000
0000
0000
0000
,  // measure 82
0000
0000
0000
0000
,  // measure 83
0000
0000
0000
0000
,  // measure 84
1001
0010
0100
0010
,  // measure 85
1000
0010
0001
0010
,  // measure 86
0100
0001
0100
0010
,  // measure 87
1000
0001
0100
0001
,  // measure 88
0110
0010
0100
0100
,  // measure 89
0010
0010
1000
1000
,  // measure 90
0001
0001
0100
0100
,  // measure 91
0010
0010
0110
0000
;

//---------------dance-single - ----------------
#NOTES:
     dance-single:
     :
     Easy:
     6:
     0.536311,0.721698,0.280162,0.044826,0.000000,335.000000,310.000000,25.000000,4.000000,0.000000,0.000000,0.536311,0.721698,0.280162,0.044826,0.000000,335.000000,310.000000,25.000000,4.000000,0.000000,0.000000:
// measure 0
0000
0000
0000
0000
,  // measure 1
0000
0000
0000
0000
,  // measure 2
0000
0000
0000
0000
,  // measure 3
0000
0000
0000
0000
,  // measure 4
0000
0000
0000
0000
,  // measure 5
1001
1000
0100
0100
,  // measure 6
0010
0010
0001
0001
,  // measure 7
1000
1000
0010
0010
,  // measure 8
0100
0100
0001
0001
,  // measure 9
1001
0001
0010
0010
,  // measure 10
0100
0100
1000
1000
,  // measure 11
0001
0001
0100
0100
,  // measure 12
0010
0010
1000
1000
,  // measure 13
1001
0010
1000
0010
,  // measure 14
0100
0001
0100
0001
,  // measure 15
1000
0100
1000
0100
,  // measure 16
0010
0001
0010
0001
,  // measure 17
0110
0001
0100
0001
,  // measure 18
1000
0010
1000
0010
,  // measure 19
0001
0010
0001
0010
,  // measure 20
1000
0100
1000
0100
,  // measure 21
1010
0010
0001
0001
,  // measure 22
0010
0100
1000
0100
,  // measure 23
1000
1000
0100
0100
,  // measure 24
0010
0001
0100
0001
,  // measure 25
0011
0010
0001
0001
,  // measure 26
0100
0010
1000
0010
,  // measure 27
1000
1000
0001
0001
,  // measure 28
0100
0001
0010
0001
,  // measure 29
1010
0000
1000
0010
1000
0000
1000
0000
,  // measure 30
0101
0000
0001
0100
0001
0000
0001
0000
,  // measure 31
1010
0000
0010
1000
0010
0000
0010
0000
,  // measure 32
0101
0000
0100
0001
0100
0000
0100
0000
,  // measure 33
1000
0010
1000
0000
1000
0010
1000
0000
,  // measure 34
0001
0100
0001
0000
0001
0100
0001
0000
,  // measure 35
1000
0100
1000
0000
1000
0100
1000
0000
,  // measure 36
0001
0010
0001
0000
0022
0000
0033
0000
,  // measure 37
0011
0000
0000
0000
,  // measure 38
0000
0000
0000
0000
,  // measure 39
0000
0000
0000
0000
,  // measure 40
0000
0000
0000
0000
,  // measure 41
0000
0000
0000
0000
,  // measure 42
1001
0001
0100
0100
,  // measure 43
0010
0010
1000
1000
,  // measure 44
0100
0100
0010
0010
,  // measure 45
1000
0010
0001
0100
,  // measure 46
1001
1000
0100
0100
,  // measure 47
0001
0000
0001
0000
0010
0000
0010
0100
,  // measure 48
0010
0100
0010
0100
,  // measure 49
1000
0001
0100
0010
,  // measure 50
1001
0000
0000
0000
,  // measure 51
0000
0000
0000
0000
,  // measure 52
0000
0000
0000
0000
,  // measure 53
0000
0000
0000
0000
,  // measure 54
0000
0000
0000
0000
,  // measure 55
1001
0010
0001
0100
,  // measure 56
0001
0000
0010
0000
0001
0100
0001
0000
,  // measure 57
1000
0010
1000
0100
,  // measure 58
1000
0000
0010
0000
1000
0100
1000
0000
,  // measure 59
0101
0001
0010
0001
,  // measure 60
0100
0000
0001
0000
0010
0001
0010
0000
,  // measure 61
1000
0010
1000
0100
,  // measure 62
1000
0000
0010
0000
1000
0100
1000
0000
,  // measure 63
1001
1000
0100
0100
,  // measure 64
0010
0010
0010
0010
,  // measure 65
0100
0100
0010
0010
,  // measure 66
0001
0001
0001
0001
,  // measure 67
1001
1000
0100
0100
,  // measure 68
0010
0010
0010
0010
,  // measure 69
0100
0000
0000
0001
0000
0000
0010
0000
,  // measure 70
0000
1000
0000
0000
0100
0000
0001
0000
,  // measure 71
1001
1000
0100
0100
,  // measure 72
0010
0010
0001
0001
,  // measure 73
1000
1000
0010
0010
,  // measure 74
0100
0100
0001
0001
,  // measure 75
1001
1000
0010
0010
,  // measure 76
0100
0100
0001
0001
,  // measure 77
1000
1000
0001
0001
,  // measure 78
0100
0100
0010
0010
,  // measure 79
0110
0000
0000
0000
,  // measure 80
0000
0000
0000
0000
,  // measure 81
0000
0000
0000
0000
,  // measure 82
0000
0000
0000
0000
,  // measure 83
0000
0000
0000
0000
,  // measure 84
1001
0000
1000
0001
1000
0000
0001
1000
,  // measure 85
0001
0000
0100
0010
0100
0000
0010
0100
,  // measure 86
0010
0000
0010
0000
0001
0000
0100
0001
,  // measure 87
0100
0000
1000
0010
1000
0000
0010
1000
,  // measure 88
0010
0010
1001
0100
,  // measure 89
1000
0001
0010
0001
,  // measure 90
0100
0001
0010
0100
,  // measure 91
1000
0001
0220
0000
,  // measure 92
0330
0000
0000
0000
;

//---------------dance-single - ----------------
#NOTES:
     dance-single:
     :
     Medium:
     8:
     0.795661,0.927897,0.874106,0.033619,0.067239,497.000000,419.000000,78.000000,3.000000,0.000000,0.000000,0.795661,0.927897,0.874106,0.033619,0.067239,497.000000,419.000000,78.000000,3.000000,0.000000,0.000000:
// measure 0
0000
0000
0000
0000
,  // measure 1
0000
0000
0000
0000
,  // measure 2
0000
0000
0000
0000
,  // measure 3
0000
0000
0000
0000
,  // measure 4
0000
0000
0000
0000
,  // measure 5
1001
1001
1100
1100
,  // measure 6
0110
0110
0011
0011
,  // measure 7
0100
0001
0100
0000
0001
0100
0001
0000
,  // measure 8
1000
0010
1000
0000
0010
1000
0010
0000
,  // measure 9
0110
0110
0011
0011
,  // measure 10
0101
0101
1001
1001
,  // measure 11
0100
0010
0100
0000
1000
0010
1000
0000
,  // measure 12
0001
0100
0001
0000
1000
0100
1000
0000
,  // measure 13
0101
0000
0001
0100
0001
0000
0100
0001
,  // measure 14
0100
0000
0001
0100
0001
0000
0100
0001
,  // measure 15
0100
0000
0010
0100
0010
0000
1000
0010
,  // measure 16
1000
0000
0100
0001
0100
0000
0010
0100
,  // measure 17
0110
0000
1000
0100
1000
0000
0001
0100
,  // measure 18
0001
0000
0010
0001
0010
0000
0100
0010
,  // measure 19
0100
0000
0001
0100
0001
0000
1000
0001
,  // measure 20
1000
0000
0010
1000
0010
0000
0100
1000
,  // measure 21
1100
0000
1100
0000
0100
0010
0100
0000
,  // measure 22
0101
0000
0101
0000
0001
0010
0001
0000
,  // measure 23
1001
0000
1001
0000
1000
0010
1000
0000
,  // measure 24
1001
0000
1001
0000
0001
0100
0001
0000
,  // measure 25
0011
0000
0011
0000
0010
0001
0010
0000
,  // measure 26
1010
0000
1010
0000
1000
0010
1000
0000
,  // measure 27
1001
0000
1001
0000
0001
1000
0001
0000
,  // measure 28
0101
0000
0101
0000
0100
0001
0100
0000
,  // measure 29
0110
0000
0010
0100
0010
0100
0010
0000
,  // measure 30
0110
0000
0100
0010
0100
0010
0100
0000
,  // measure 31
1001
0000
1000
0001
1000
0001
1000
0000
,  // measure 32
1001
0000
0001
1000
0001
1000
0001
0000
,  // measure 33
0101
0100
0010
0100
1000
0010
1000
0010
,  // measure 34
0001
0010
0001
0010
0100
0001
0100
0001
,  // measure 35
1000
0001
1000
0001
1000
0010
1000
0010
,  // measure 36
0100
0001
0100
0010
2000
0000
0000
3000
,  // measure 37
1001
0000
0000
0000
,  // measure 38
0000
0000
0000
0000
,  // measure 39
0000
0000
0000
0000
,  // measure 40
0000
0000
0000
0000
,  // measure 41
0000
0000
0000
0000
,  // measure 42
0110
0010
0011
0010
,  // measure 43
0110
0010
1010
0010
,  // measure 44
0011
0001
0101
0001
,  // measure 45
0001
0010
0100
1000
0100
0010
0001
0000
,  // measure 46
1001
1000
1100
1000
,  // measure 47
1010
0000
1000
0000
1001
0001
0100
0010
,  // measure 48
1000
0100
0010
0000
0010
0100
0001
0000
,  // measure 49
0001
0100
0001
1000
0010
1000
0100
0010
,  // measure 50
0110
0000
0000
0000
,  // measure 51
0000
0000
0000
0000
,  // measure 52
0000
0000
0000
0000
,  // measure 53
0000
0000
0000
0000
,  // measure 54
0000
0000
0000
0000
,  // measure 55
0101
0000
0000
0100
0001
0000
0000
0000
0100
0000
0000
0100
0001
0000
0000
0000
,  // measure 56
0100
0000
0000
0100
0001
0000
0000
0000
0100
0000
0001
0000
0100
0000
0000
0000
,  // measure 57
0010
0000
0000
0010
1000
0000
0000
0000
0010
0000
0000
0010
1000
0000
0000
0000
,  // measure 58
0010
0000
0000
0010
1000
0000
0000
0000
0010
0000
1000
0000
0010
0000
0000
0000
,  // measure 59
1001
0000
0000
1000
0001
0000
0000
0000
1000
0000
0000
1000
0001
0000
0000
0000
,  // measure 60
1000
0000
0000
1000
0001
0000
0000
0000
1000
0000
0001
0000
1000
0000
0000
0000
,  // measure 61
0001
0000
0000
0001
1000
0000
0000
0000
0001
0000
0000
0001
1000
0000
0000
0000
,  // measure 62
0001
0000
0000
0001
1000
0000
0000
0000
0001
0000
1000
0000
0001
0000
0000
0000
,  // measure 63
1001
1000
0100
0000
0100
0100
0010
0000
,  // measure 64
0010
0010
0001
0000
0001
0001
1000
0000
,  // measure 65
1000
1000
0100
0000
0100
0100
0010
0000
,  // measure 66
0010
0010
0001
0000
0001
0001
1000
0000
,  // measure 67
1001
1000
0100
0000
0100
0100
0010
0000
,  // measure 68
0010
0010
0001
0000
0001
0001
1000
0000
,  // measure 69
1000
0000
0000
1001
0000
0000
0001
0000
,  // measure 70
0000
0101
0000
0000
0010
0000
0110
0000
,  // measure 71
1001
1001
0011
0011
,  // measure 72
0101
0101
1010
1010
,  // measure 73
0010
1000
0010
0000
0100
0010
0100
0000
,  // measure 74
0001
0100
0001
0000
1000
0001
1000
0000
,  // measure 75
1100
1100
0101
0101
,  // measure 76
1001
1001
0011
0011
,  // measure 77
0001
0100
0001
0000
0100
0001
0100
0000
,  // measure 78
0010
1000
0010
0000
1000
0010
1000
0100
,  // measure 79
0101
0000
0000
0000
,  // measure 80
0000
0000
0000
0000
,  // measure 81
0000
0000
0000
0000
,  // measure 82
0000
0000
0000
0000
,  // measure 83
0000
0000
0000
0000
,  // measure 84
1001
0100
1000
0100
0010
0100
0010
0100
,  // measure 85
0001
0100
0001
0100
0001
0010
0001
0010
,  // measure 86
0100
0001
0100
0001
1000
0001
1000
0001
,  // measure 87
1000
0010
1000
0010
0001
0010
0001
0010
,  // measure 88
0110
1000
0010
1000
0010
0100
0010
0100
,  // measure 89
0001
0100
0001
0100
0001
0010
0001
0010
,  // measure 90
0100
1000
0100
1000
0100
0001
0100
0001
,  // measure 91
1000
0010
1000
0010
2002
0000
0000
0000
,  // measure 92
3003
0000
0000
0000
;

//---------------dance-single - ----------------
#NOTES:
     dance-single:
     :
     Hard:
     11:
     1.085429,1.494946,0.549118,0.112065,0.605151,678.000000,629.000000,49.000000,10.000000,0.000000,0.000000,1.085429,1.494946,0.549118,0.112065,0.605151,678.000000,629.000000,49.000000,10.000000,0.000000,0.000000:
// measure 0
0000
0000
0000
0000
,  // measure 1
0000
0000
0000
0000
,  // measure 2
0000
0000
0000
0000
,  // measure 3
0000
0000
0000
0000
,  // measure 4
0000
0000
0000
0000
,  // measure 5
1010
0010
1000
0010
0100
0001
0100
0001
,  // measure 6
1000
0100
1000
0100
0001
0010
0100
0010
,  // measure 7
0001
0000
0010
0100
0010
0000
1000
0000
0100
0000
0010
0100
0010
0000
0001
0000
,  // measure 8
0100
0000
0001
1000
0001
0000
0010
0000
1000
0000
0100
0010
0100
0000
0001
0000
,  // measure 9
1001
0010
1000
0010
0100
0001
0100
0001
,  // measure 10
0010
0100
0010
0100
0010
1000
0010
1000
,  // measure 11
0100
0000
0010
0100
0010
0000
0001
0000
0100
0000
0001
0010
0001
0000
1000
0000
,  // measure 12
0010
0000
0100
1000
0100
0000
0010
0000
0100
0000
0001
0010
0001
0000
0010
0000
,  // measure 13
1010
1000
0100
0010
0001
0001
0010
0100
,  // measure 14
1000
1000
0010
0100
0001
0001
0100
0010
,  // measure 15
0100
0000
0010
1000
0010
0000
0001
0000
0100
0000
0001
0100
0001
0000
1000
0000
,  // measure 16
0010
0000
1000
0010
1000
0000
0100
0000
0001
0000
0100
0001
0100
0000
0010
0000
,  // measure 17
0110
1000
0010
1000
0010
0001
0010
0001
,  // measure 18
0100
0001
0100
0001
1000
0010
1000
0010
,  // measure 19
0100
0000
0001
1000
0001
0000
0100
0000
0010
0000
1000
0001
1000
0000
0010
0000
,  // measure 20
0100
0000
0010
0100
0010
0000
0001
0000
0001
0000
0100
1000
0100
0000
0010
0000
,  // measure 21
0110
0000
0000
0000
0010
0100
0010
0000
0110
0000
0000
0000
0100
0010
0100
0000
,  // measure 22
0110
0000
0000
0000
0010
0100
0010
0000
1000
0010
1000
0000
0001
0100
0001
0000
,  // measure 23
1001
0000
0000
0000
1000
0001
1000
0000
1001
0000
0000
0000
0001
1000
0001
0000
,  // measure 24
1001
0000
0000
0000
1000
0001
1000
0000
0100
0001
0100
0000
0010
1000
0010
0000
,  // measure 25
0011
0000
0000
0000
0001
0010
0001
0000
0011
0000
0000
0000
0010
0001
0010
0000
,  // measure 26
0011
0000
0000
0000
0001
0010
0001
0000
0010
0100
0010
0000
1000
0100
1000
0000
,  // measure 27
1010
0000
0000
0000
1000
0010
1000
0000
1010
0000
0000
0000
0010
1000
0010
0000
,  // measure 28
0110
0000
0000
0000
0100
0010
0100
0000
0010
0100
0010
0000
0100
0010
0100
0000
,  // measure 29
1001
0010
0001
0100
0010
1000
0100
1000
,  // measure 30
0100
0010
0100
0001
1000
0010
0100
0010
,  // measure 31
0001
0100
0001
1000
0010
0100
0001
1000
,  // measure 32
0100
1000
0010
0100
0001
0010
0100
0010
,  // measure 33
0001
0010
0001
0000
0010
0000
0100
0000
1000
0100
1000
0000
0100
0000
0010
0000
,  // measure 34
1000
0010
1000
0000
0010
0000
0001
0000
0100
0001
0100
0000
0001
1000
0001
0000
,  // measure 35
0010
0100
0010
0000
0100
0000
1000
0000
0100
0001
0100
0000
1000
0000
0010
0000
,  // measure 36
0001
1000
0001
0000
0010
0000
0100
0000
0220
0000
0000
0000
0330
0000
0000
0000
,  // measure 37
0110
0000
0000
0000
,  // measure 38
0000
0000
0000
0000
,  // measure 39
0000
0000
0000
0000
,  // measure 40
0000
0000
0000
0000
,  // measure 41
0000
0000
0000
0000
,  // measure 42
1001
0100
1001
0001
,  // measure 43
1001
1000
1010
0010
,  // measure 44
0011
0001
0101
0100
,  // measure 45
0100
0010
1000
0010
0100
0010
0001
0000
,  // measure 46
1001
0001
0101
0100
,  // measure 47
1100
0000
0000
0000
1000
0000
0000
0000
1010
0000
0010
0000
0100
0010
0100
0010
,  // measure 48
0001
0010
0100
0010
1000
0100
0010
0100
,  // measure 49
1000
0010
0100
0001
0010
0100
1000
0001
0100
0010
0001
0010
,  // measure 50
1100
0000
0000
0000
,  // measure 51
0000
0000
0000
0000
,  // measure 52
0000
0000
0000
0000
,  // measure 53
0000
0000
0000
0000
,  // measure 54
0000
0000
0000
0000
,  // measure 55
1001
0000
0100
0000
0010
0001
0100
0000
0001
0000
0010
0000
0100
1000
0010
0000
,  // measure 56
1000
0000
0100
0000
0010
0001
0100
0000
0001
0000
0010
0000
0110
0000
0000
0000
,  // measure 57
0001
0000
0010
0000
0100
1000
0001
0000
0010
0000
0100
0000
0010
0100
0001
0000
,  // measure 58
1000
0000
0010
0000
0100
0001
0010
0000
0100
0000
0001
0000
1001
0000
0000
0000
,  // measure 59
1010
0000
0010
0000
0100
0010
0001
0000
0010
0000
1000
0000
0100
1000
0010
0000
,  // measure 60
0100
0000
0001
0000
1000
0010
0100
0000
0001
0000
0010
0000
0011
0000
0000
0000
,  // measure 61
0010
0000
0100
0000
0001
0010
1000
0000
0100
0000
1000
0000
0100
0010
0001
0000
,  // measure 62
1000
0000
0001
0000
0010
0001
0100
0000
0001
0000
0010
0000
1100
0000
0000
0000
,  // measure 63
1010
1000
0100
0010
1000
1000
0100
0010
,  // measure 64
0001
0001
0010
0100
0001
0001
1001
0000
,  // measure 65
0001
0001
0010
0100
0001
0001
0010
0100
,  // measure 66
1000
1000
0100
0010
1000
1000
1001
0000
,  // measure 67
0110
0100
0010
0001
0010
0010
0100
1000
,  // measure 68
0100
0100
0010
0001
0010
0010
0110
0000
,  // measure 69
2000
0000
3000
1002
0000
0003
0200
0000
,  // measure 70
0300
0102
0000
0003
0020
0030
0210
0300
,  // measure 71
1010
0010
1000
0010
0100
0001
0100
0001
,  // measure 72
1000
0100
1000
0100
0001
0010
0100
0010
,  // measure 73
0001
0000
0010
0100
0010
0000
1000
0000
0100
0000
0010
0100
0010
0000
0001
0000
,  // measure 74
0100
0000
0001
1000
0001
0000
0010
0000
1000
0000
0100
0010
0100
0000
0001
0000
,  // measure 75
1001
1000
0010
0100
0001
0001
0100
0010
,  // measure 76
0100
0100
0001
1000
0010
0010
1000
0001
,  // measure 77
0100
0000
0001
1000
0001
0000
0010
0000
1000
0000
0100
0001
0100
0000
1000
0000
,  // measure 78
0010
0000
0001
1000
0001
0000
0100
0000
1000
0000
0001
1000
0001
0000
0010
0000
,  // measure 79
0110
0000
0000
0000
,  // measure 80
0000
0000
0000
0000
,  // measure 81
0000
0000
0000
0000
,  // measure 82
0000
0000
0000
0000
,  // measure 83
0000
0000
0000
0000
,  // measure 84
1001
0000
1000
0000
1000
0010
0100
0010
0001
0000
0001
0000
0100
0001
1000
0001
,  // measure 85
0010
0000
0010
0000
0100
0001
0100
0010
1000
0010
1000
0010
0001
0010
0001
0010
,  // measure 86
0100
0000
0100
0000
0010
1000
0100
1000
0001
0000
0001
0000
0100
0001
0010
0001
,  // measure 87
1000
0000
1000
0000
0010
0001
1000
0001
0100
0001
0100
0001
0100
1000
0100
1000
,  // measure 88
0010
1000
0010
1000
0010
0000
0010
0000
0100
0001
0100
0001
0100
0000
0100
0000
,  // measure 89
0001
1000
0001
1000
0001
0000
0001
0000
1000
0001
1000
0001
1000
0000
1000
0000
,  // measure 90
1000
0010
1000
0001
0100
0000
0100
0000
0001
0010
0001
0100
0010
0000
0010
0000
,  // measure 91
1000
0100
0001
0100
0010
0000
0010
0000
0220
0000
0000
0000
0000
0000
0000
0000
,  // measure 92
0330
0000
0000
0000
;
