#TITLE:Clash on the Big Bridge;
#SUBTITLE:Final Fantasy V (1992);
#ARTIST:植松伸夫;
#TITLETRANSLIT:;
#SUBTITLETRANSLIT:;
#ARTISTTRANSLIT:Nobuo Uematsu;
#GENRE:;
#CREDIT:;
#BANNER:Clash on the Big Bridge.png;
#BACKGROUND:Clash on the Big Bridge-bg.png;
#LYRICSPATH:;
#CDTITLE:!cdtitle.png;
#MUSIC:Clash on the Big Bridge.ogg;
#OFFSET:-0.063000;
#SAMPLESTART:32.625000;
#SAMPLELENGTH:15.000000;
#SELECTABLE:YES;
#DISPLAYBPM:177.841003;
#BPMS:0.000000=178.964996
,22.000000=185.802002
,23.000000=176.671005
,24.000000=178.578995
,25.000000=178.194000
,26.000000=178.964996
,27.000000=176.671005
,28.000000=178.964996
,29.000000=175.546005
,30.000000=178.194000
,32.000000=178.964996
,33.000000=176.671005
,34.000000=178.964996
,35.000000=178.001999
,36.000000=180.330994
,37.000000=180.923004
,38.000000=177.048996
,39.000000=178.578995
,40.000000=176.294006
,41.000000=180.923004
,42.000000=178.194000
,43.000000=180.528000
,44.000000=176.860001
,45.000000=178.578995
,46.000000=176.860001
,47.000000=180.134995
,48.000000=177.048996
,49.000000=178.001999
,50.000000=177.811005
,51.000000=178.194000
,52.000000=174.802994
,53.000000=180.923004
,54.000000=177.619995
,55.000000=174.688004
,56.000000=178.893005
,57.000000=178.410004
,58.000000=179.988007
,59.000000=177.429001
,60.000000=178.554993
,61.000000=176.365005
,62.000000=180.503006
,63.000000=178.578995
,64.000000=179.865005
,65.000000=177.811005
,66.000000=177.929993
,67.000000=177.167999
,68.000000=180.257996
,69.000000=176.412003
,70.000000=178.121994
,71.000000=176.412003
,72.000000=179.475006
,73.000000=177.738998
,75.000000=178.505997
,76.000000=175.104004
,77.000000=178.505997
,78.000000=176.977997
,79.000000=177.548004
,80.000000=175.662003
,81.000000=178.098007
,98.000000=180.750000
,99.000000=174.365997
,100.000000=174.710999
,101.000000=176.035995
,102.000000=184.248993
,103.000000=177.048996
,104.000000=177.787003
,106.000000=181.046997
,107.000000=177.285995
,109.000000=180.750000
,110.000000=176.082993
,111.000000=179.742996
,112.000000=174.710999
,113.000000=179.621002
,114.000000=179.014008
,116.000000=174.826996
,117.000000=178.675003
,120.000000=175.802002
,121.000000=179.548004
,124.000000=174.850006
,125.000000=179.889999
,126.000000=172.748993
,127.000000=176.388000
,128.000000=175.639008
,129.000000=177.595993
,130.000000=180.110001
,131.000000=178.169998
,132.000000=178.554993
,133.000000=176.576996
,134.000000=178.098007
,135.000000=176.931000
,136.000000=176.177002
,137.000000=176.294006
,138.000000=182.119003
,139.000000=177.429001
,140.000000=179.742996
,141.000000=178.651001
,142.000000=179.817001
,143.000000=176.742004
,144.000000=176.223999
,145.000000=177.667007
,146.000000=175.895996
,147.000000=177.453003
,148.000000=175.919006
,149.000000=179.352997
,150.000000=175.848999
,151.000000=176.931000
,152.000000=176.552994
,153.000000=179.061996
,154.000000=179.962997
,155.000000=178.026001
,156.000000=175.382996
,157.000000=178.481995
,158.000000=179.742996
,159.000000=178.026001
,160.000000=176.082993
,161.000000=176.459000
,162.000000=177.214996
,163.000000=174.733994
,164.000000=178.893005
,165.000000=175.104004
,166.000000=180.061005
,167.000000=174.733994
,168.000000=177.738998
,169.000000=176.977997
,170.000000=175.731995
,171.000000=174.044998
,172.000000=179.182999
,175.000000=174.641998
,176.000000=176.505997
,177.000000=176.764999
,178.000000=177.977997
,179.000000=177.097000
,180.000000=179.110992
,181.000000=176.294006
,182.000000=178.266006
,183.000000=176.977997
,184.000000=175.289993
,185.000000=178.699005
,186.000000=173.815994
,187.000000=176.789001
,188.000000=173.815994
,189.000000=179.768005
,190.000000=178.434006
,191.000000=179.597000
,192.000000=177.501007
,193.000000=176.977997
,194.000000=179.279999
,195.000000=176.600006
,196.000000=177.738998
,197.000000=177.453003
,198.000000=184.944000
,199.000000=172.098007
,200.000000=173.587997
,201.000000=179.231995
,202.000000=178.675003
,203.000000=179.768005
,204.000000=178.457993
,205.000000=178.313995
,206.000000=180.184006
,207.000000=178.242004
,208.000000=178.074005
,209.000000=178.843994
,210.000000=178.074005
,211.000000=178.362000
,212.000000=178.748001
,213.000000=175.709000
,214.000000=177.595993
,215.000000=177.214996
,216.000000=177.977997
,217.000000=177.906006
,220.000000=176.434998
,221.000000=178.098007
,223.000000=179.645996
,224.000000=177.738998
,225.000000=178.505997
,227.000000=180.207993
,228.000000=175.779007
,229.000000=178.602997
,230.000000=177.690994
,231.000000=180.873993
,232.000000=176.199997
,233.000000=178.867996
,234.000000=177.858002
,235.000000=181.046997
,236.000000=175.546005
,237.000000=179.182999
,238.000000=180.356003
,239.000000=177.643005
,240.000000=179.158997
,241.000000=178.988998
,244.000000=178.050003
,245.000000=175.988998
,246.000000=176.082993
,247.000000=175.522003
,248.000000=174.412003
,249.000000=176.931000
,250.000000=180.552994
,251.000000=176.341003
,252.000000=176.977997
,254.000000=180.675995
,255.000000=177.097000
,256.000000=177.882004
,257.000000=180.207993
,258.000000=178.266006
,259.000000=177.738998
,260.000000=177.285995
,261.000000=180.774994
,262.000000=176.059998
,263.000000=179.425995
,264.000000=175.126999
,265.000000=179.889999
,266.000000=178.964996
,267.000000=176.294006
,268.000000=174.619003
,269.000000=179.158997
,270.000000=178.386002
,271.000000=179.158997
,272.000000=176.106003
,273.000000=179.597000
,274.000000=181.095993
,275.000000=177.097000
,276.000000=177.858002
,277.000000=176.718002
,278.000000=175.126999
,279.000000=173.656006
,280.000000=176.035995
,281.000000=178.001999
,282.000000=180.725006
,283.000000=177.072998
,284.000000=179.378006
,285.000000=176.013000
,286.000000=180.626999
,287.000000=176.764999
,288.000000=176.013000
,289.000000=178.675003
,290.000000=176.434998
,291.000000=180.037003
,294.000000=177.858002
,295.000000=177.453003
,296.000000=174.664993
,297.000000=179.110992
,298.000000=174.389008
,299.000000=177.858002
,300.000000=175.220001
,301.000000=179.498993
,302.000000=176.412003
,303.000000=177.643005
,304.000000=175.080994
,305.000000=178.481995
,306.000000=180.848999
,307.000000=177.906006
,308.000000=175.126999
,309.000000=179.304993
,310.000000=178.529999
,311.000000=178.362000
,312.000000=176.177002
,313.000000=175.802002
,314.000000=178.074005
,315.000000=173.042999
,316.000000=177.501007
,317.000000=176.552994
,318.000000=178.602997
,319.000000=175.871994
,320.000000=177.214996
,321.000000=177.190994
,322.000000=177.263000
,323.000000=172.412003
,324.000000=178.748001
,325.000000=177.309998
,326.000000=178.651001
,327.000000=175.755997
,328.000000=177.643005
,329.000000=179.572006
,330.000000=177.263000
,333.000000=176.882996
,334.000000=177.263000
,335.000000=176.882996
,336.000000=175.755997
,337.000000=178.796005
,338.000000=173.998993
,339.000000=175.919006
,340.000000=174.343002
,341.000000=179.742996
,342.000000=178.505997
,343.000000=179.669998
,344.000000=177.548004
,345.000000=177.024994
,346.000000=182.899002
,347.000000=173.953003
,348.000000=178.505997
,349.000000=177.358002
,350.000000=180.134995
,351.000000=174.434998
,352.000000=176.671005
,353.000000=178.194000
,354.000000=179.742996
,355.000000=178.194000
,356.000000=178.964996
,357.000000=177.429001
,358.000000=179.742996
,359.000000=177.811005
,360.000000=178.194000
,361.000000=178.988998
,362.000000=178.602997
,363.000000=178.988998
,364.000000=177.835007
,365.000000=174.457993
,366.000000=178.602997
,367.000000=177.453003
,368.000000=174.873001
,369.000000=177.143997
,373.000000=179.694000
,376.000000=176.789001
,378.000000=177.763000
,379.000000=181.270004
,380.000000=177.763000
,382.000000=177.858002
,383.000000=180.184006
,384.000000=179.110992
,385.000000=178.723007
,386.000000=178.578995
,388.000000=177.811005
,389.000000=177.048996
,390.000000=178.964996
,391.000000=178.266006
,392.000000=179.231995
,393.000000=179.014008
,394.000000=178.893005
,397.000000=175.406006
,398.000000=176.153000
,399.000000=175.498993
,400.000000=174.274002
,401.000000=176.317993
,402.000000=179.498993
,404.000000=175.569000
,405.000000=178.988998
,408.000000=175.197006
,409.000000=180.110001
,410.000000=179.328995
,411.000000=178.554993
,412.000000=175.498993
,413.000000=180.233002
,414.000000=176.388000
,415.000000=180.233002
,416.000000=174.457993
,417.000000=178.505997
,418.000000=177.738998
,419.000000=178.505997
,420.000000=173.975998
,421.000000=177.072998
;
#STOPS:
;
#BGCHANGES:;
#KEYSOUNDS:;
#ATTACKS:;

//---------------dance-single - 2015----------------
#NOTES:
     dance-single:
     :
     Hard:
     14:
     1.437169,1.592634,2.366297,0.458214,1.046368,1471.000000,1068.000000,346.000000,67.000000,0.000000,71.000000,1.437169,1.592634,2.366297,0.458214,1.046368,1471.000000,1068.000000,346.000000,67.000000,0.000000,71.000000:
// measure 0
1011
0100
0010
0100
0010
0100
0010
0001
0010
0001
0100
0001
0100
0010
1000
0010
,  // measure 1
0100
1000
0100
0010
0100
0001
0010
1000
0111
1000
0100
0010
0100
0010
0100
0001
,  // measure 2
0010
0100
1000
0100
1000
0100
0001
0100
1000
0010
0001
0010
0100
1000
0100
0010
,  // measure 3
1101
0010
0001
0010
0100
0010
1000
0010
1000
0100
0001
0100
0001
0010
0001
0100
,  // measure 4
0010
1000
0100
0010
0100
0001
0010
0001
1110
0001
0010
0100
0001
1000
0100
0010
,  // measure 5
1000
0010
1000
0001
0100
0010
0001
0010
0100
0010
1000
0100
0012
0100
1000
0100
,  // measure 6
1013
0100
0010
1000
0011
0100
0001
0100
0010
1000
0101
0010
0100
1000
0010
0001
,  // measure 7
0100
0010
1000
0001
1110
0001
0100
0010
1000
0001
1000
0001
1100
0010
1000
0001
,  // measure 8
0100
0010
1001
0100
0001
0010
1000
0001
0100
0010
1000
0010
1101
0010
0100
1000
,  // measure 9
0100
0001
1000
0010
0101
0010
0100
1000
0001
0100
0011
1000
0100
0010
0100
0001
,  // measure 10
0010
0001
1000
0100
1011
0100
1000
0001
0100
0010
0001
0100
1010
0001
1000
0010
,  // measure 11
0001
0010
1100
0001
1000
0010
0100
1000
0001
0010
1100
0011
1100
0011
1100
0011
,  // measure 12
1100
0000
0000
1000
0000
0000
1011
0000
0000
0001
0000
0000
1101
0000
0000
1000
0100
0010
0001
0000
0000
0010
0000
0000
,  // measure 13
1101
0100
1011
0011
0010
0100
1110
0001
,  // measure 14
0111
0000
1000
0000
1001
0010
0100
0010
0101
0010
1000
0001
0100
0010
1001
0010
,  // measure 15
0001
0100
1000
0001
0010
0100
1000
0010
1101
0010
0100
1000
0001
0100
0010
1000
,  // measure 16
0011
1000
0001
0100
0010
0001
1100
0010
0001
0100
0010
1000
0001
0100
0011
1100
,  // measure 17
0011
0000
0000
1100
0000
0000
0011
0000
0000
1100
0000
0000
0011
0000
0000
0000
0000
0000
0001
0000
0000
0000
0000
0000
1110
0000
0000
0000
0000
0000
0010
0000
0000
0000
0000
0000
1101
0000
0000
0000
0000
0000
0001
0000
1000
0000
0010
0000
,  // measure 18
0100
1000
1011
0001
0111
0110
0100
0100
,  // measure 19
1110
0010
1011
0001
0010
0100
1101
0001
,  // measure 20
0111
0010
1111
0011
0000
0010
0110
0100
,  // measure 21
0000
0000
0000
0000
0100
0000
0000
0000
1010
0000
0000
0000
1000
0000
0010
0000
1001
0000
0000
0000
0010
0000
0100
0000
0011
1000
0001
0000
0100
0000
0010
0000
,  // measure 22
1001
0000
0100
0000
1010
0000
1010
0100
1001
0000
0101
1000
0011
0000
0110
0001
,  // measure 23
1110
0000
0000
0000
1100
0000
1000
1000
1010
0000
1000
1000
1001
0000
0001
0001
,  // measure 24
0101
0000
0001
0001
0011
0000
1001
0010
1100
0000
1010
0001
0110
0000
0101
0010
,  // measure 25
1001
0010
1100
0001
1010
0000
1001
0100
0011
0000
0101
0010
1100
0000
1002
0010
,  // measure 26
0100
0000
0000
0000
0010
0000
0000
0003
1001
0000
0000
0000
0010
0000
0000
0000
1100
0000
0000
0000
0000
0000
0000
0000
0110
0000
0000
0000
1000
0000
0000
0000
0011
0000
0000
0000
0000
0000
0000
0000
0101
0000
0000
0000
0010
0000
0000
0000
1001
0000
0000
0000
0000
0000
0000
0000
2010
0000
0000
0000
0001
0000
0000
0000
,  // measure 27
0010
0000
0000
0000
0100
0000
0000
3000
1001
0000
0000
0000
1000
0000
0000
0000
0101
0000
0000
0000
0000
0000
0000
0000
0110
0000
0000
0000
0000
0000
0000
0000
1010
0000
0000
0000
0000
0000
0000
0000
1001
0000
0000
0000
0001
0000
0000
0000
1100
0000
0000
0000
0000
0000
0000
0000
0110
0000
0000
0000
0000
0000
0000
0000
,  // measure 28
0011
0000
1001
0000
0101
0000
0011
0100
1001
0000
1010
0100
1001
0000
0110
0001
,  // measure 29
1100
0010
0101
1000
0110
0000
0101
0010
1001
0000
0101
0010
1100
0000
0021
1000
,  // measure 30
0100
0000
0000
0000
0001
0000
0000
0030
0110
0000
0000
0000
0001
0000
0000
0000
1010
0000
0000
0000
0000
0000
0000
0000
0101
0000
0000
0000
0010
0000
0000
0000
1001
0000
0000
0000
0000
0000
0000
0000
0110
0000
0000
0000
1000
0000
0000
0000
0101
0000
0000
0000
0000
0000
0000
0000
0210
0000
0000
0000
1000
0000
0000
0000
,  // measure 31
0001
0000
0000
0000
0010
0000
0000
0300
0101
0000
0000
0000
0001
0000
0000
0000
0110
0000
0000
0000
1000
0000
0000
0000
0101
0000
0000
0000
1000
0000
0000
0000
0011
0000
0000
0000
0100
0000
0000
0000
1001
0000
0000
0000
0010
0000
0000
0000
1100
0000
0000
0000
0001
0000
0000
0000
1010
0000
0000
0000
0100
0000
0000
0000
,  // measure 32
0011
0100
1001
0010
0102
0000
1000
0000
0110
0000
0010
0000
1000
0000
0010
0000
,  // measure 33
1100
0100
0010
0100
1023
0230
2300
0010
,  // measure 34
3021
0100
0032
0010
0100
2003
0100
0010
,  // measure 35
3002
0010
0203
0010
0001
0320
0100
1030
,  // measure 36
1000
0100
0010
0001
1000
0100
0010
0001
1020
0000
0000
0000
0100
0000
0000
0000
1000
0000
0000
0000
2030
0000
0000
0000
0100
0000
0000
0000
0010
0000
0000
0000
,  // measure 37
3002
0010
0203
1000
0010
0302
0010
0100
,  // measure 38
2003
0100
3020
0000
0000
2030
0000
0000
,  // measure 39
3002
0000
0203
0000
0000
0302
0000
0000
,  // measure 40
2003
0000
3011
0100
0011
0110
0001
0110
,  // measure 41
2100
0000
0000
0000
0000
0000
0000
0000
0010
0000
0000
0000
0000
0000
0000
0000
0001
0000
0000
0000
0000
0000
0000
0000
0010
0000
0000
0000
0000
0000
0000
0000
0101
0000
0000
0000
0000
0000
0000
0000
0010
0000
0000
0000
0000
0000
0000
3000
1100
0000
0000
0000
0000
0000
0000
0000
0010
0000
0000
0000
0000
0000
0000
0000
,  // measure 42
1001
0010
1100
0010
1100
1001
0100
1001
,  // measure 43
0012
0100
1000
0010
0110
1000
0010
0100
,  // measure 44
1013
0001
1001
0010
0101
0011
0110
1100
,  // measure 45
0110
1010
0100
1001
0100
1001
0110
1000
,  // measure 46
0011
0000
0100
0000
1001
0000
0001
0010
0100
0001
0100
1000
0010
1000
0100
0010
,  // measure 47
1000
0001
0100
0010
1101
0000
0100
0000
0010
0000
0100
0000
0001
0000
0010
0000
,  // measure 48
0100
0010
1000
0000
1110
0000
0001
0000
,  // measure 49
0111
0000
0000
0000
1000
0100
0010
0100
1011
0100
0001
0010
0100
0001
0100
0010
,  // measure 50
1101
0000
0000
0000
1001
0010
0100
0010
0101
1000
0110
0001
0010
0100
0001
1000
,  // measure 51
0110
0001
0100
0010
1001
0010
1000
0100
1010
0001
1100
0010
0001
0100
0010
1000
,  // measure 52
0011
0100
0001
0010
1101
0000
1100
0000
0000
0000
0110
0000
0011
0000
0110
0000
,  // measure 53
0000
0000
0000
0000
1010
0000
0000
0000
0110
0000
0000
0000
0101
0000
0010
0000
1101
0000
0000
0000
1001
0000
0010
0000
1100
0010
0001
0000
1010
0000
0000
0000
,  // measure 54
1001
0000
0101
0000
1011
0000
0010
0100
0010
0000
1101
0000
0100
0010
0100
0000
,  // measure 55
1011
0000
0001
0000
0011
0000
0010
0000
0110
0000
0100
0000
1100
0000
1000
0100
,  // measure 56
1010
0010
2110
0001
0010
0001
0010
0001
,  // measure 57
0010
0001
3211
1000
0010
1000
0010
1000
,  // measure 58
0010
1000
1312
0100
0010
0100
0010
0100
,  // measure 59
0010
0100
1123
0001
1000
0001
1000
0001
,  // measure 60
1000
0000
0000
0000
0000
0000
0000
0000
0001
0000
0000
0000
0000
0000
0000
0030
1111
0000
0000
0000
0000
0000
0000
0000
1001
0000
0000
0000
0000
0000
0000
0000
0000
0000
0000
0000
0000
0000
0000
0000
0001
0000
0000
0000
0000
0000
0000
0000
0110
0000
0000
0000
0000
0000
0000
0000
1000
0000
0000
0000
0000
0000
0000
0000
,  // measure 61
0000
0000
0000
0000
0010
0000
0000
0000
1001
0000
0000
0000
0100
0000
0010
0000
0101
0000
0000
0000
0001
0000
1000
0000
0001
0010
0100
0000
1000
0000
0000
0000
,  // measure 62
1010
0000
0100
0000
0011
0000
1001
0010
1100
0000
1010
0001
0110
0000
0101
0010
,  // measure 63
1001
0010
1100
0001
1010
0000
1001
0100
0011
0000
0101
0010
1100
0000
1002
0010
,  // measure 64
0100
0000
0000
0000
0010
0000
0000
0003
1001
0000
0000
0000
0010
0000
0000
0000
1100
0000
0000
0000
0000
0000
0000
0000
0110
0000
0000
0000
1000
0000
0000
0000
0011
0000
0000
0000
0000
0000
0000
0000
0101
0000
0000
0000
0010
0000
0000
0000
1001
0000
0000
0000
0000
0000
0000
0000
2010
0000
0000
0000
0001
0000
0000
0000
,  // measure 65
0010
0000
0000
0000
0100
0000
0000
3000
1001
0000
0000
0000
1000
0000
0000
0000
0101
0000
0000
0000
0000
0000
0000
0000
0110
0000
0000
0000
0000
0000
0000
0000
1010
0000
0000
0000
0000
0000
0000
0000
1001
0000
0000
0000
0001
0000
0000
0000
1100
0000
0000
0000
0000
0000
0000
0000
0110
0000
0000
0000
0000
0000
0000
0000
,  // measure 66
0011
0000
1001
0000
0101
0000
0011
0100
1001
0000
1010
0100
1001
0000
0110
0001
,  // measure 67
1100
0010
0101
1000
0110
0000
0101
0010
1001
0000
0101
0010
1100
0000
0021
1000
,  // measure 68
0100
0000
0000
0000
0001
0000
0000
0030
0110
0000
0000
0000
0001
0000
0000
0000
1010
0000
0000
0000
0000
0000
0000
0000
0101
0000
0000
0000
0010
0000
0000
0000
1001
0000
0000
0000
0000
0000
0000
0000
0110
0000
0000
0000
1000
0000
0000
0000
0101
0000
0000
0000
0000
0000
0000
0000
0210
0000
0000
0000
1000
0000
0000
0000
,  // measure 69
0001
0000
0000
0000
0010
0000
0000
0300
0101
0000
0000
0000
0001
0000
0000
0000
0110
0000
0000
0000
1000
0000
0000
0000
0101
0000
0000
0000
1000
0000
0000
0000
0011
0000
0000
0000
0100
0000
0000
0000
1001
0000
0000
0000
0010
0000
0000
0000
1100
0000
0000
0000
0001
0000
0000
0000
1010
0000
0000
0000
0100
0000
0000
0000
,  // measure 70
0011
0100
1001
0010
0102
0000
1000
0000
0110
0000
0010
0000
1000
0000
0010
0000
,  // measure 71
1100
0100
0010
0100
1023
0230
2300
0010
,  // measure 72
3021
0100
0032
0010
0100
2003
0100
0010
,  // measure 73
3002
0010
0203
0010
0001
0320
0100
1030
,  // measure 74
1000
0100
0010
0001
1000
0100
0010
0001
1020
0000
0000
0000
0100
0000
0000
0000
1000
0000
0000
0000
2030
0000
0000
0000
0100
0000
0000
0000
0010
0000
0000
0000
,  // measure 75
3002
0010
0203
1000
0010
0302
0010
0100
,  // measure 76
2003
0100
3020
0000
0000
2030
0000
0000
,  // measure 77
3002
0000
0203
0000
0000
0302
0000
0000
,  // measure 78
2003
0000
3011
0100
0011
0110
0001
0110
,  // measure 79
2100
0000
0000
0000
0000
0000
0000
0000
0010
0000
0000
0000
0000
0000
0000
0000
0001
0000
0000
0000
0000
0000
0000
0000
0010
0000
0000
0000
0000
0000
0000
0000
0101
0000
0000
0000
0000
0000
0000
0000
0010
0000
0000
0000
0000
0000
0000
3000
1100
0000
0000
0000
0000
0000
0000
0000
0010
0000
0000
0000
0000
0000
0000
0000
,  // measure 80
1001
0010
1100
0010
1100
1001
0100
1001
,  // measure 81
0012
0100
1000
0010
0110
1000
0010
0100
,  // measure 82
1013
0001
1001
0010
0101
0011
0110
1100
,  // measure 83
0110
1010
0100
1001
0100
1001
0110
1000
,  // measure 84
0011
0000
0100
0000
1001
0000
0001
0010
0100
0001
0100
1000
0010
1000
0100
0010
,  // measure 85
1000
0001
0100
0010
1101
0000
0100
0000
0010
0000
0100
0000
0001
0000
0010
0000
,  // measure 86
0100
0010
1000
0000
1110
0000
0001
0000
,  // measure 87
0111
0000
0000
0000
1000
0100
0010
0100
1011
0100
0001
0010
0100
0001
0100
0010
,  // measure 88
1101
0000
0000
0000
1001
0010
0100
0010
0101
1000
0110
0001
0010
0100
0001
1000
,  // measure 89
0110
0001
0100
0010
1001
0010
1000
0100
1010
0001
1100
0010
0001
0100
0010
1000
,  // measure 90
0011
0100
0001
0010
1101
0000
1100
0000
0000
0000
0110
0000
0011
0000
0110
0000
,  // measure 91
0000
0000
0000
0000
1010
0000
0000
0000
0110
0000
0000
0000
0101
0000
0010
0000
1101
0000
0000
0000
1001
0000
0010
0000
1100
0010
0001
0000
1010
0000
0000
0000
,  // measure 92
1001
0000
0101
0000
1011
0000
0010
0100
0010
0000
1101
0000
0100
0010
0100
0000
,  // measure 93
1011
0000
0001
0000
0011
0000
0010
0000
0110
0000
0100
0000
1100
0000
1000
0100
,  // measure 94
1010
0010
2110
0001
0010
0001
0010
0001
,  // measure 95
0010
0001
3211
1000
0010
1000
0010
1000
,  // measure 96
0010
1000
1312
0100
0010
0100
0010
0100
,  // measure 97
0010
0100
1123
0001
1000
0001
1000
0001
,  // measure 98
1000
0000
0000
0000
0000
0000
0000
0000
0001
0000
0000
0000
0000
0000
0000
0030
1111
0000
0000
0000
0000
0000
0000
0000
1001
0000
0000
0000
0000
0000
0000
0000
0000
0000
0000
0000
0000
0000
0000
0000
0001
0000
0000
0000
0000
0000
0000
0000
0110
0000
0000
0000
0000
0000
0000
0000
1000
0000
0000
0000
0000
0000
0000
0000
,  // measure 99
0000
0000
0000
0000
0010
0000
0000
0000
1001
0000
0000
0000
0100
0000
0010
0000
0101
0000
0000
0000
0001
0000
1000
0000
0001
0010
0100
0000
1000
0000
0000
0000
,  // measure 100
1010
0100
0022
0000
0000
0000
0000
0000
,  // measure 101
0000
0033
0000
0000
;

//---------------dance-single - 2015, edited 2016----------------
#NOTES:
     dance-single:
     :
     Challenge:
     14:
     1.438146,1.592634,2.366297,0.458214,1.032690,1472.000000,1060.000000,346.000000,67.000000,0.000000,80.000000,1.438146,1.592634,2.366297,0.458214,1.032690,1472.000000,1060.000000,346.000000,67.000000,0.000000,80.000000:
// measure 0
1011
0100
0010
0100
0010
0100
0010
0001
0010
0001
0100
0001
0100
0010
1000
0010
,  // measure 1
0100
1000
0100
0010
0100
0001
0010
1000
0111
1000
0100
0010
0100
0010
0100
0001
,  // measure 2
0010
0100
1000
0100
1000
0100
0001
0100
1000
0010
0001
0010
0100
1000
0100
0010
,  // measure 3
1101
0010
0001
0010
0100
0010
1000
0010
1000
0100
0001
0100
0001
0010
0001
0100
,  // measure 4
0010
1000
0100
0010
0100
0001
0010
0001
1110
0001
0010
0100
0001
1000
0100
0010
,  // measure 5
1000
0010
1000
0001
0100
0010
0001
0010
0100
0010
1000
0100
0012
0100
1000
0100
,  // measure 6
1013
0100
0010
1000
0011
0100
0001
0100
0010
1000
0101
0010
0100
1000
0010
0001
,  // measure 7
0100
0010
1000
0001
1110
0001
0100
0010
1000
0001
1000
0001
1100
0010
1000
0001
,  // measure 8
0100
0010
1001
0100
0001
0010
1000
0001
0100
0010
1000
0010
1101
0010
0100
1000
,  // measure 9
0100
0001
1000
0010
0101
0010
0100
1000
0001
0100
0011
1000
0100
0010
0100
0001
,  // measure 10
0010
0001
1000
0100
1011
0100
1000
0001
0100
0010
0001
0100
1010
0001
1000
0010
,  // measure 11
0001
0010
1100
0001
1000
0010
0100
1000
0001
0010
1100
0011
1100
0011
1100
0011
,  // measure 12
1100
0000
0000
1000
0000
0000
1011
0000
0000
0001
0000
0000
1101
0000
0000
1000
0100
0010
0001
0000
0000
0010
0000
0000
,  // measure 13
1101
0100
1011
0011
0010
0100
1110
0001
,  // measure 14
0111
0000
1000
0000
1001
0010
0100
0010
0101
0010
1000
0001
0100
0010
1001
0010
,  // measure 15
0001
0100
1000
0001
0010
0100
1000
0010
1101
0010
0100
1000
0001
0100
0010
1000
,  // measure 16
0011
1000
0001
0100
0010
0001
1100
0010
0001
0100
0010
1000
0001
0100
0011
1100
,  // measure 17
0011
0000
0000
1100
0000
0000
0011
0000
0000
1100
0000
0000
0011
0000
0000
0000
0000
0000
0001
0000
0000
0000
0000
0000
1110
0000
0000
0000
0000
0000
0010
0000
0000
0000
0000
0000
1101
0000
0000
0000
0000
0000
0001
0000
1000
0000
0010
0000
,  // measure 18
0100
1000
1011
0001
0111
0110
0100
0100
,  // measure 19
1110
0010
1011
0001
0010
0100
1101
0001
,  // measure 20
0111
0010
1111
0011
0000
0010
0110
0100
,  // measure 21
0000
0000
0000
0000
0100
0000
0000
0000
1010
0000
0000
0000
1000
0000
0010
0000
1101
0000
0000
0000
0010
0000
0100
0000
0011
1000
0001
0000
0010
0000
0100
0000
,  // measure 22
1011
0000
0100
0000
1010
0000
1010
0100
1011
0000
0101
1000
0011
0000
0110
0001
,  // measure 23
1110
0000
0000
0000
0011
0000
1000
0100
0011
0000
1000
0100
0011
0000
1000
0100
,  // measure 24
0011
0000
1000
0100
0011
0000
1001
0010
1100
0000
1010
0001
0110
0000
0101
0010
,  // measure 25
1001
0010
1100
0001
1010
0000
1001
0100
0011
0000
0101
0010
1100
0000
1002
0010
,  // measure 26
0100
0000
0000
0000
0010
0000
0000
0003
1001
0000
0000
0000
0010
0000
0000
0000
1100
0000
0000
0000
0000
0000
0000
0000
0110
0000
0000
0000
1000
0000
0000
0000
0011
0000
0000
0000
0000
0000
0000
0000
0101
0000
0000
0000
0010
0000
0000
0000
1001
0000
0000
0000
0000
0000
0000
0000
2010
0000
0000
0000
0001
0000
0000
0000
,  // measure 27
0010
0000
0000
0000
0100
0000
0000
3000
1001
0000
0000
0000
1000
0000
0000
0000
0101
0000
0000
0000
0000
0000
0000
0000
0110
0000
0000
0000
0000
0000
0000
0000
1010
0000
0000
0000
0000
0000
0000
0000
1001
0000
0000
0000
0001
0000
0000
0000
1100
0000
0000
0000
0000
0000
0000
0000
0110
0000
0000
0000
0000
0000
0000
0000
,  // measure 28
0011
0000
1001
0000
0101
0000
0011
0100
1001
0000
1010
0100
1001
0000
0110
0001
,  // measure 29
1100
0010
0101
1000
0110
0000
0101
0010
1001
0000
0101
0010
1100
0000
0021
1000
,  // measure 30
0100
0000
0000
0000
0001
0000
0000
0030
0110
0000
0000
0000
0001
0000
0000
0000
1010
0000
0000
0000
0000
0000
0000
0000
0101
0000
0000
0000
0010
0000
0000
0000
1001
0000
0000
0000
0000
0000
0000
0000
0110
0000
0000
0000
1000
0000
0000
0000
0101
0000
0000
0000
0000
0000
0000
0000
0210
0000
0000
0000
1000
0000
0000
0000
,  // measure 31
0001
0000
0000
0000
0010
0000
0000
0300
0101
0000
0000
0000
1000
0000
0000
0000
0110
0000
0000
0000
1000
0000
0000
0000
0101
0000
0000
0000
1000
0000
0000
0000
0011
0000
0000
0000
0100
0000
0000
0000
1001
0000
0000
0000
0010
0000
0000
0000
1100
0000
0000
0000
0001
0000
0000
0000
1010
0000
0000
0000
0100
0000
0000
0000
,  // measure 32
0011
0100
1001
0010
0102
0000
1000
0000
0110
0000
0010
0000
1000
0000
0010
0000
,  // measure 33
1100
0100
0010
0100
1023
0230
2300
0010
,  // measure 34
3021
0100
0032
0010
0100
2003
0100
0010
,  // measure 35
3002
0010
0203
0010
0001
0320
0100
1030
,  // measure 36
1000
0010
0100
0001
1000
0100
0021
0000
0000
0100
0000
0000
1000
0000
0000
2030
0000
0000
0100
0000
0000
0010
0000
0000
,  // measure 37
3002
0010
0203
1000
0010
0302
0010
0100
,  // measure 38
2003
0100
3020
0000
0000
2030
0000
0000
,  // measure 39
3002
0000
0203
0000
0000
0302
0000
0000
,  // measure 40
2003
0000
3011
0100
0011
0110
0001
0110
,  // measure 41
2100
0000
0000
0000
0000
0000
0000
0000
0010
0000
0000
0000
0000
0000
0000
0000
0001
0000
0000
0000
0000
0000
0000
0000
0010
0000
0000
0000
0000
0000
0000
0000
0101
0000
0000
0000
0000
0000
0000
0000
0010
0000
0000
0000
0000
0000
0000
3000
1100
0000
0000
0000
0000
0000
0000
0000
0010
0000
0000
0000
0000
0000
0000
0000
,  // measure 42
1001
0010
1100
0010
1100
1001
0100
1001
,  // measure 43
0012
0100
1000
0010
0110
1000
0010
0100
,  // measure 44
1013
0000
1001
0010
0101
0011
0110
1100
,  // measure 45
0110
1010
0100
1001
0100
1001
0110
1000
,  // measure 46
0011
0000
0100
0000
1001
0000
0001
0010
0100
0001
0100
1000
0010
1000
0100
0010
,  // measure 47
1000
0001
0100
0010
1101
0000
0100
0000
0010
0000
0100
0000
0001
0000
0010
0000
,  // measure 48
0100
0010
1000
0000
1110
0000
0001
0000
,  // measure 49
0111
0000
0000
0000
1000
0100
0010
0100
1011
0100
0001
0010
0100
0001
0100
0010
,  // measure 50
1101
0000
0000
0000
1001
0010
0100
0010
0101
1000
0110
0001
0010
0100
0001
1000
,  // measure 51
0110
0001
0100
0010
1001
0010
1000
0100
1010
0001
1100
0010
0001
0100
0010
1000
,  // measure 52
0011
0100
0001
0010
1101
0000
1100
0000
0000
0000
0110
0000
0011
0000
0110
0000
,  // measure 53
0000
0000
0000
0000
1010
0000
0000
0000
0110
0000
0000
0000
0101
0000
0010
0000
1101
0000
0000
0000
1001
0000
0010
0000
1100
0010
0001
0000
1010
0000
0000
0000
,  // measure 54
1011
0000
0101
0000
1011
0000
0010
0100
0010
0000
1101
0000
0100
0010
0100
0000
,  // measure 55
1011
0000
0000
0000
0011
0000
0010
0000
0110
0000
0100
0000
1100
0000
1000
0100
,  // measure 56
1010
0010
2110
0001
0010
0001
0010
0001
,  // measure 57
0010
0001
3211
1000
0010
1000
0010
1000
,  // measure 58
0010
1000
1312
0100
0010
0100
0010
0100
,  // measure 59
0010
0100
1123
0001
1000
0001
1000
0001
,  // measure 60
1000
0000
0000
0000
0000
0000
0000
0000
0001
0000
0000
0000
0000
0000
0000
0030
1111
0000
0000
0000
0000
0000
0000
0000
1001
0000
0000
0000
0000
0000
0000
0000
0000
0000
0000
0000
0000
0000
0000
0000
0001
0000
0000
0000
0000
0000
0000
0000
0110
0000
0000
0000
0000
0000
0000
0000
1000
0000
0000
0000
0000
0000
0000
0000
,  // measure 61
0000
0000
0000
0000
0010
0000
0000
0000
1001
0000
0000
0000
0100
0000
0010
0000
1101
0000
0000
0000
0001
0000
1000
0000
0001
0010
0100
0000
1000
0000
0000
0000
,  // measure 62
1011
0000
0100
0000
0011
0000
1001
0010
1100
0000
1010
0001
0110
0000
0101
0010
,  // measure 63
1001
0010
1100
0001
1010
0000
1001
0100
0011
0000
0101
0010
1100
0000
1002
0010
,  // measure 64
0100
0000
0000
0000
0010
0000
0000
0003
1001
0000
0000
0000
0010
0000
0000
0000
1100
0000
0000
0000
0000
0000
0000
0000
0110
0000
0000
0000
1000
0000
0000
0000
0011
0000
0000
0000
0000
0000
0000
0000
0101
0000
0000
0000
0010
0000
0000
0000
1001
0000
0000
0000
0000
0000
0000
0000
2010
0000
0000
0000
0001
0000
0000
0000
,  // measure 65
0010
0000
0000
0000
0100
0000
0000
3000
1001
0000
0000
0000
1000
0000
0000
0000
0101
0000
0000
0000
0000
0000
0000
0000
0110
0000
0000
0000
0000
0000
0000
0000
1010
0000
0000
0000
0000
0000
0000
0000
1001
0000
0000
0000
0001
0000
0000
0000
1100
0000
0000
0000
0000
0000
0000
0000
0110
0000
0000
0000
0000
0000
0000
0000
,  // measure 66
0011
0000
1001
0000
0101
0000
0011
0100
1001
0000
1010
0100
1001
0000
0110
0001
,  // measure 67
1100
0010
0101
1000
0110
0000
0101
0010
1001
0000
0101
0010
1100
0000
0021
1000
,  // measure 68
0100
0000
0000
0000
0001
0000
0000
0030
0110
0000
0000
0000
0001
0000
0000
0000
1010
0000
0000
0000
0000
0000
0000
0000
0101
0000
0000
0000
0010
0000
0000
0000
1001
0000
0000
0000
0000
0000
0000
0000
0110
0000
0000
0000
1000
0000
0000
0000
0101
0000
0000
0000
0000
0000
0000
0000
0210
0000
0000
0000
1000
0000
0000
0000
,  // measure 69
0001
0000
0000
0000
0010
0000
0000
0300
0101
0000
0000
0000
1000
0000
0000
0000
0110
0000
0000
0000
1000
0000
0000
0000
0101
0000
0000
0000
1000
0000
0000
0000
0011
0000
0000
0000
0100
0000
0000
0000
1001
0000
0000
0000
0010
0000
0000
0000
1100
0000
0000
0000
0001
0000
0000
0000
1010
0000
0000
0000
0100
0000
0000
0000
,  // measure 70
0011
0100
1001
0010
0102
0000
1000
0000
0110
0000
0010
0000
1000
0000
0010
0000
,  // measure 71
1100
0100
0010
0100
1023
0230
2300
0010
,  // measure 72
3021
0100
0032
0010
0100
2003
0100
0010
,  // measure 73
3002
0010
0203
0010
0001
0320
0100
1030
,  // measure 74
1000
0010
0100
0001
1000
0100
0021
0000
0000
0100
0000
0000
1000
0000
0000
2030
0000
0000
0100
0000
0000
0010
0000
0000
,  // measure 75
3002
0010
0203
1000
0010
0302
0010
0100
,  // measure 76
2003
0100
3020
0000
0000
2030
0000
0000
,  // measure 77
3002
0000
0203
0000
0000
0302
0000
0000
,  // measure 78
2003
0000
3011
0100
0011
0110
0001
0110
,  // measure 79
2100
0000
0000
0000
0000
0000
0000
0000
0010
0000
0000
0000
0000
0000
0000
0000
0001
0000
0000
0000
0000
0000
0000
0000
0010
0000
0000
0000
0000
0000
0000
0000
0101
0000
0000
0000
0000
0000
0000
0000
0010
0000
0000
0000
0000
0000
0000
3000
1100
0000
0000
0000
0000
0000
0000
0000
0010
0000
0000
0000
0000
0000
0000
0000
,  // measure 80
1001
0010
1100
0010
1100
1001
0100
1001
,  // measure 81
0012
0100
1000
0010
0110
1000
0010
0100
,  // measure 82
1013
0000
1001
0010
0101
0011
0110
1100
,  // measure 83
0110
1010
0100
1001
0100
1001
0110
1000
,  // measure 84
0011
0000
0100
0000
1001
0000
0001
0010
0100
0001
0100
1000
0010
1000
0100
0010
,  // measure 85
1000
0001
0100
0010
1101
0000
0100
0000
0010
0000
0100
0000
0001
0000
0010
0000
,  // measure 86
0100
0010
1000
0000
1110
0000
0001
0000
,  // measure 87
0111
0000
0000
0000
1000
0100
0010
0100
1011
0100
0001
0010
0100
0001
0100
0010
,  // measure 88
1101
0000
0000
0000
1001
0010
0100
0010
0101
1000
0110
0001
0010
0100
0001
1000
,  // measure 89
0110
0001
0100
0010
1001
0010
1000
0100
1010
0001
1100
0010
0001
0100
0010
1000
,  // measure 90
0011
0100
0001
0010
1101
0000
1100
0000
0000
0000
0110
0000
0011
0000
0110
0000
,  // measure 91
0000
0000
0000
0000
1010
0000
0000
0000
0110
0000
0000
0000
0101
0000
0010
0000
1101
0000
0000
0000
1001
0000
0010
0000
1100
0010
0001
0000
1010
0000
0000
0000
,  // measure 92
1011
0000
0101
0000
1011
0000
0010
0100
0010
0000
1101
0000
0100
0010
0100
0000
,  // measure 93
1011
0000
0000
0000
0011
0000
0010
0000
0110
0000
0100
0000
1100
0000
1000
0100
,  // measure 94
1010
0010
2110
0001
0010
0001
0010
0001
,  // measure 95
0010
0001
3211
1000
0010
1000
0010
1000
,  // measure 96
0010
1000
1312
0100
0010
0100
0010
0100
,  // measure 97
0010
0100
1123
0001
1000
0001
1000
0001
,  // measure 98
1000
0000
0000
0000
0000
0000
0000
0000
0001
0000
0000
0000
0000
0000
0000
0030
1111
0000
0000
0000
0000
0000
0000
0000
1001
0000
0000
0000
0000
0000
0000
0000
0000
0000
0000
0000
0000
0000
0000
0000
0001
0000
0000
0000
0000
0000
0000
0000
0110
0000
0000
0000
0000
0000
0000
0000
1000
0000
0000
0000
0000
0000
0000
0000
,  // measure 99
0000
0000
0000
0000
0010
0000
0000
0000
1001
0000
0000
0000
0100
0000
0010
0000
1101
0000
0000
0000
0001
0000
1000
0000
0001
0010
0100
0000
1000
0000
0000
0000
,  // measure 100
1011
0100
0022
0000
0000
0000
0000
0000
,  // measure 101
0000
0033
0000
0000
;
