#TITLE:Boogie-Woogie (SNES ver.);
#SUBTITLE:Dragon Quest 3 - Soshite Densetsu he... (1996);
#ARTIST:Koichi Sugiyama;
#TITLETRANSLIT:;
#SUBTITLETRANSLIT:;
#ARTISTTRANSLIT:;
#GENRE:;
#CREDIT:;
#BANNER:;
#BACKGROUND:;
#LYRICSPATH:;
#CDTITLE:!cdtitle.png;
#MUSIC:Boogie-Woogie.ogg;
#OFFSET:-0.380000;
#SAMPLESTART:25.250000;
#SAMPLELENGTH:15.000000;
#SELECTABLE:YES;
#BPMS:0.000000=131.807999
;
#STOPS:
;
#BGCHANGES:;
#KEYSOUNDS:;
#ATTACKS:;

//---------------dance-single - 2015----------------
#NOTES:
     dance-single:
     :
     Hard:
     13:
     0.749181,0.681755,1.649101,0.063184,0.991988,830.000000,569.000000,261.000000,10.000000,0.000000,2.000000,0.749181,0.681755,1.649101,0.063184,0.991988,830.000000,569.000000,261.000000,10.000000,0.000000,2.000000:
// measure 0
1000
0000
0100
0010
0000
0001
1000
0000
0010
0100
0000
0001
,  // measure 1
1000
0000
0100
0010
0000
0001
1000
0000
0010
0100
0000
0001
,  // measure 2
0011
0000
1000
0011
0000
1000
0101
0000
0010
0101
0000
0100
,  // measure 3
1010
0000
1010
0000
0000
0101
0000
0000
0001
0100
0000
0100
,  // measure 4
0110
0000
0001
0110
0000
0100
1001
0000
0010
1001
0000
1000
,  // measure 5
0101
0000
0101
0000
0000
1001
0000
0000
1000
0001
0000
0100
,  // measure 6
0101
0000
0010
0101
0000
0001
1010
0000
0100
1010
0000
0001
,  // measure 7
0110
0000
0110
0000
0000
1001
0000
0000
1000
0010
0000
0100
,  // measure 8
0011
0000
1000
0011
0000
0010
1100
0000
0001
1100
0000
1000
,  // measure 9
0101
0000
1001
0000
0000
1001
0000
0000
1000
0100
0000
0010
,  // measure 10
0101
0000
0000
0000
0000
0000
0000
0000
1000
0000
0000
0000
0101
0000
0000
0000
0000
0000
0000
0000
0100
0000
0000
0000
1010
0000
0000
0000
0000
0000
0000
0000
0001
0000
0000
0000
1010
0000
0000
0000
0000
0000
0100
0000
0000
0010
0000
0000
,  // measure 11
1001
0000
0000
1010
0000
0000
1001
0010
0100
1000
0100
0010
,  // measure 12
1001
0000
0100
1001
0000
0100
0011
0000
0001
0011
0000
0100
,  // measure 13
1010
0000
1010
0000
0000
0101
0000
0100
0010
0100
0010
0100
,  // measure 14
0011
0000
1000
0011
0000
0100
1010
0000
0001
1010
0000
0100
,  // measure 15
1001
0000
1001
0000
0000
0110
0000
0000
0100
0010
0000
0010
,  // measure 16
0101
0000
0010
0101
0000
0001
1010
0000
0100
1010
0000
0100
,  // measure 17
0011
0000
0011
0000
0000
1001
0000
0000
0001
0010
0000
0100
,  // measure 18
1010
0000
0001
1010
0000
0100
1001
0000
0010
1001
0000
0100
,  // measure 19
0011
0000
0101
0000
0000
0110
0000
0000
0010
0100
0000
0100
,  // measure 20
0011
0000
1000
0011
0000
0100
1001
0000
0010
1001
0000
0100
,  // measure 21
1010
0000
1100
0000
0000
0110
0000
0000
1000
0101
0000
0010
,  // measure 22
1100
0000
0000
0000
0000
0000
0000
0000
0001
0000
0000
0000
1100
0000
0000
0000
0000
0000
0000
0000
0001
0000
0000
0000
1010
0000
0000
0000
0000
0000
0000
0000
0100
0000
0000
0000
1010
0000
0000
0000
0000
0000
1000
0000
0000
0100
0000
0000
,  // measure 23
0011
0000
0000
0101
0000
0000
0110
0001
0010
0100
1000
0100
,  // measure 24
1001
0000
0010
1001
0000
0100
0011
0000
1000
0011
0000
0100
,  // measure 25
1010
0000
1001
0000
0000
1001
0000
0000
0001
0010
0100
1000
,  // measure 26
1000
0000
0010
1100
0000
0010
0001
0000
0100
0011
0000
0100
,  // measure 27
1000
0000
0010
1100
0000
0010
0001
0000
0100
0011
0000
0100
,  // measure 28
1010
0000
1001
0000
0000
0101
0000
0000
0010
1100
0000
0010
,  // measure 29
0001
0000
0100
0011
0100
0010
1000
0010
0100
1010
0001
0010
,  // measure 30
1100
0000
1001
0000
0000
1001
0000
0000
0101
0000
0000
0012
,  // measure 31
0000
0000
0000
0010
0100
1003
0100
1000
0010
0101
1000
0100
,  // measure 32
1001
0000
1100
0000
0000
0110
0000
0000
0001
1100
0000
1000
,  // measure 33
0010
0000
1000
0011
0100
0010
0001
0100
0010
1001
0100
0001
,  // measure 34
0110
0000
1010
0000
0000
1010
0000
0000
0110
0000
0000
0201
,  // measure 35
0000
0000
0300
0000
,  // measure 36
0011
0011
0011
0000
,  // measure 37
0000
0000
0000
0000
0000
0000
0000
0000
0000
0000
0000
0000
0000
0000
0000
0000
0000
0000
0000
0000
0000
0000
0000
0000
0000
0000
0000
0000
0000
0000
0000
0000
0000
0000
0000
0000
0000
0000
0000
0000
0000
0000
0000
0000
0000
0000
0000
0000
0120
0000
0000
0000
0000
0000
0000
0000
0000
0000
0000
0000
0000
0000
0000
0000
0000
0000
0000
0000
0000
0000
0000
0000
0000
0000
0000
0000
0000
0000
0000
0000
0000
0000
0000
0000
0000
0000
0000
0000
0000
0000
0000
0000
0000
0000
0000
0000
0000
0000
0000
0000
0000
0000
0000
0000
0000
0000
0000
0000
0000
0000
0000
0000
0000
0000
0000
0000
0000
0000
0000
0000
0000
0000
0000
0000
0000
0000
0000
0000
2130
0000
0000
0000
0000
0000
0000
0000
0000
0000
0000
0000
0000
0000
0000
0000
0000
0000
0000
0000
0000
0000
0000
0000
0000
0000
0000
0000
0000
0000
0000
0000
0000
0000
0000
0000
0000
0000
0000
0000
0000
0000
0000
0000
0000
0000
0000
0000
0000
0000
0000
0000
0000
0000
0000
0000
0000
0000
0000
0000
0000
3000
0000
0000
,  // measure 38
1010
1010
1010
0110
,  // measure 39
0110
0000
0000
1001
0000
0000
1000
0000
0011
0100
0000
0000
,  // measure 40
1010
0000
0100
1010
0000
0001
1010
0000
0100
1001
0000
0100
,  // measure 41
0001
0000
0010
0101
0000
0001
1000
0000
0100
1010
0000
1000
,  // measure 42
0011
0000
1000
0011
0000
1000
0101
0000
0010
0101
0000
0100
,  // measure 43
1010
0000
1010
0000
0000
0101
0000
0000
0001
0100
0000
0100
,  // measure 44
0110
0000
0001
0110
0000
0100
1001
0000
0010
1001
0000
1000
,  // measure 45
0101
0000
0101
0000
0000
1001
0000
0000
1000
0001
0000
0100
,  // measure 46
0101
0000
0010
0101
0000
0001
1010
0000
0100
1010
0000
0001
,  // measure 47
0110
0000
0110
0000
0000
1001
0000
0000
1000
0010
0000
0100
,  // measure 48
0011
0000
1000
0011
0000
0010
1100
0000
0001
1100
0000
1000
,  // measure 49
0101
0000
1001
0000
0000
1001
0000
0000
1000
0100
0000
0010
,  // measure 50
0101
0000
0000
0000
0000
0000
0000
0000
1000
0000
0000
0000
0101
0000
0000
0000
0000
0000
0000
0000
0100
0000
0000
0000
1010
0000
0000
0000
0000
0000
0000
0000
0001
0000
0000
0000
1010
0000
0000
0000
0000
0000
0100
0000
0000
0010
0000
0000
,  // measure 51
1001
0000
0000
1010
0000
0000
1001
0010
0100
1000
0100
0010
,  // measure 52
1001
0000
0100
1001
0000
0100
0011
0000
0001
0011
0000
0100
,  // measure 53
1010
0000
1010
0000
0000
0101
0000
0100
0010
0100
0010
0100
,  // measure 54
0011
0000
1000
0011
0000
0100
1010
0000
0001
1010
0000
0100
,  // measure 55
1001
0000
1001
0000
0000
0110
0000
0000
0100
0010
0000
0010
,  // measure 56
0101
0000
0010
0101
0000
0001
1010
0000
0100
1010
0000
0100
,  // measure 57
0011
0000
0011
0000
0000
1001
0000
0000
0001
0010
0000
0100
,  // measure 58
1010
0000
0001
1010
0000
0100
1001
0000
0010
1001
0000
0100
,  // measure 59
0011
0000
0101
0000
0000
0110
0000
0000
0010
0100
0000
0100
,  // measure 60
0011
0000
1000
0011
0000
0100
1001
0000
0010
1001
0000
0100
,  // measure 61
1010
0000
1100
0000
0000
0110
0000
0000
1000
0101
0000
0010
,  // measure 62
1100
0000
0000
0000
0000
0000
0000
0000
0001
0000
0000
0000
1100
0000
0000
0000
0000
0000
0000
0000
0001
0000
0000
0000
1010
0000
0000
0000
0000
0000
0000
0000
0100
0000
0000
0000
1010
0000
0000
0000
0000
0000
1000
0000
0000
0100
0000
0000
,  // measure 63
0011
0000
0000
0101
0000
0000
0110
0001
0010
0100
1000
0100
,  // measure 64
1001
0000
0010
1001
0000
0100
0011
0000
1000
0011
0000
0100
,  // measure 65
1010
0000
1001
0000
0000
1001
0000
0000
0001
0010
0100
1000
,  // measure 66
1000
0000
0010
1100
0000
0010
0001
0000
0100
0011
0000
0100
,  // measure 67
1000
0000
0010
1100
0000
0010
0001
0000
0100
0011
0000
0100
,  // measure 68
1010
0000
1001
0000
0000
0101
0000
0000
0010
1100
0000
0010
,  // measure 69
0001
0000
0100
0011
0100
0010
1000
0010
0100
1010
0001
0010
,  // measure 70
1100
0000
1001
0000
0000
1001
0000
0000
0101
0000
0000
0012
,  // measure 71
0000
0000
0000
0010
0100
1003
0100
1000
0010
0101
1000
0100
,  // measure 72
1001
0000
1100
0000
0000
0110
0000
0000
0001
1100
0000
1000
,  // measure 73
0010
0000
1000
0011
0100
0010
0001
0100
0010
1001
0100
0001
,  // measure 74
0110
0000
1010
0000
0000
1010
0000
0000
0110
0000
0000
0201
,  // measure 75
0000
0000
0300
0000
,  // measure 76
0011
0011
0011
0000
,  // measure 77
0000
0000
0000
0000
0000
0000
0000
0000
0000
0000
0000
0000
0000
0000
0000
0000
0000
0000
0000
0000
0000
0000
0000
0000
0000
0000
0000
0000
0000
0000
0000
0000
0000
0000
0000
0000
0000
0000
0000
0000
0000
0000
0000
0000
0000
0000
0000
0000
0120
0000
0000
0000
0000
0000
0000
0000
0000
0000
0000
0000
0000
0000
0000
0000
0000
0000
0000
0000
0000
0000
0000
0000
0000
0000
0000
0000
0000
0000
0000
0000
0000
0000
0000
0000
0000
0000
0000
0000
0000
0000
0000
0000
0000
0000
0000
0000
0000
0000
0000
0000
0000
0000
0000
0000
0000
0000
0000
0000
0000
0000
0000
0000
0000
0000
0000
0000
0000
0000
0000
0000
0000
0000
0000
0000
0000
0000
0000
0000
2130
0000
0000
0000
0000
0000
0000
0000
0000
0000
0000
0000
0000
0000
0000
0000
0000
0000
0000
0000
0000
0000
0000
0000
0000
0000
0000
0000
0000
0000
0000
0000
0000
0000
0000
0000
0000
0000
0000
0000
0000
0000
0000
0000
0000
0000
0000
0000
0000
0000
0000
0000
0000
0000
0000
0000
0000
0000
0000
0000
0000
3000
0000
0000
,  // measure 78
1010
1010
1010
0110
,  // measure 79
0110
0000
0000
1001
0000
0000
1000
0000
0011
0100
0000
0000
,  // measure 80
1010
0000
0100
1010
0000
0001
1010
0000
0100
1001
0000
0100
,  // measure 81
0001
0000
0010
0101
0000
0001
1000
0000
0100
1010
0000
1000
,  // measure 82
0022
0000
0000
0000
,  // measure 83
0033
0000
0000
0000
;
