#TITLE:Go K.K. Rider;
#SUBTITLE:;
#ARTIST:Kazumi Totaka;
#TITLETRANSLIT:k.k.46 - Go K.K. Rider;
#SUBTITLETRANSLIT:;
#ARTISTTRANSLIT:;
#GENRE:;
#CREDIT:;
#BANNER:kkrider-bn.png;
#BACKGROUND:kkrider-bg.png;
#LYRICSPATH:;
#CDTITLE:!cdtitle.png;
#MUSIC:Go K.K. Rider.ogg;
#OFFSET:-0.000000;
#SAMPLESTART:8.156983;
#SAMPLELENGTH:15.000000;
#SELECTABLE:YES;
#DISPLAYBPM:139.975006;
#BPMS:0.000000=139.970001
,1.000000=139.977997
,3.000000=139.970001
,4.000000=139.977997
,6.000000=139.970001
,7.000000=139.977997
,8.000000=139.970001
,9.000000=139.977997
,11.000000=139.970001
,12.000000=139.977997
,14.000000=139.970001
,15.000000=139.977997
,16.000000=139.970001
,17.000000=139.977997
,19.000000=139.970001
,20.000000=139.977997
,22.000000=139.970001
,23.000000=139.977997
,24.000000=139.970001
,25.000000=139.977997
,27.000000=139.970001
,28.000000=139.977997
,30.000000=139.970001
,31.000000=139.977997
,32.000000=139.970001
,33.000000=139.977997
,35.000000=139.970001
,36.000000=139.977997
,38.000000=139.970001
,39.000000=139.977997
,40.000000=139.970001
,41.000000=139.977997
,43.000000=139.970001
,44.000000=139.977997
,46.000000=139.970001
,47.000000=139.977997
,48.000000=139.970001
,49.000000=139.977997
,51.000000=139.970001
,52.000000=139.977997
,54.000000=139.970001
,55.000000=139.977997
,56.000000=139.970001
,57.000000=139.977997
,59.000000=139.970001
,60.000000=139.977997
,61.000000=139.970001
,62.000000=139.977997
,64.000000=139.970001
,65.000000=139.977997
,67.000000=139.970001
,68.000000=139.977997
,69.000000=139.970001
,70.000000=139.977997
,72.000000=139.970001
,73.000000=139.977997
,75.000000=139.970001
,76.000000=139.977997
,77.000000=139.970001
,78.000000=139.977997
,80.000000=139.970001
,81.000000=139.977997
,83.000000=139.970001
,84.000000=139.977997
,85.000000=139.970001
,86.000000=139.977997
,88.000000=139.970001
,89.000000=139.977997
,91.000000=139.970001
,92.000000=139.977997
,93.000000=139.970001
,94.000000=139.977997
,96.000000=139.970001
,97.000000=139.977997
,99.000000=139.970001
,100.000000=139.977997
,101.000000=139.970001
,102.000000=139.977997
,104.000000=139.970001
,105.000000=139.977997
,107.000000=139.970001
,108.000000=139.977997
,109.000000=139.970001
,110.000000=139.977997
,111.000000=139.970001
,112.000000=139.977997
,113.000000=139.970001
,114.000000=139.977997
,115.000000=139.970001
,116.000000=139.977997
,117.000000=139.970001
,118.000000=139.977997
,119.000000=139.970001
,120.000000=139.977997
,121.000000=139.970001
,122.000000=139.977997
,123.000000=139.970001
,124.000000=139.977997
,125.000000=139.970001
,126.000000=139.977997
,127.000000=139.970001
,128.000000=139.977997
,129.000000=139.970001
,130.000000=139.977997
,131.000000=139.970001
,132.000000=139.977997
,133.000000=139.970001
,134.000000=139.977997
,135.000000=139.970001
,136.000000=139.977997
,137.000000=139.970001
,138.000000=139.977997
,139.000000=139.970001
,140.000000=139.977997
,141.000000=139.970001
,142.000000=139.977997
,143.000000=139.970001
,144.000000=139.977997
,145.000000=139.970001
,146.000000=139.977997
,147.000000=139.970001
,148.000000=139.977997
,149.000000=139.970001
,150.000000=139.977997
,151.000000=139.970001
,152.000000=139.977997
,153.000000=139.970001
,154.000000=139.977997
,155.000000=139.970001
,156.000000=139.977997
,157.000000=139.970001
,158.000000=139.977997
,159.000000=139.970001
,160.000000=139.977997
,161.000000=139.970001
,162.000000=139.977997
,163.000000=139.970001
,164.000000=139.977997
,165.000000=139.970001
,166.000000=139.977997
,167.000000=139.970001
,168.000000=139.977997
,169.000000=139.970001
,170.000000=139.977997
,171.000000=139.970001
,172.000000=139.977997
,173.000000=139.970001
,174.000000=139.977997
,175.000000=139.970001
,176.000000=139.977997
,177.000000=139.970001
,178.000000=139.977997
,179.000000=139.970001
,180.000000=139.977997
,181.000000=139.970001
,182.000000=139.977997
,183.000000=139.970001
,184.000000=139.977997
,185.000000=139.970001
,186.000000=139.977997
,187.000000=139.970001
,188.000000=139.977997
,189.000000=139.970001
,190.000000=139.977997
,191.000000=139.970001
,192.000000=139.977997
,193.000000=139.970001
,194.000000=139.977997
,195.000000=139.970001
,196.000000=139.977997
,197.000000=139.970001
,198.000000=139.977997
,199.000000=139.970001
,200.000000=139.977997
,201.000000=139.970001
,202.000000=139.977997
,203.000000=139.970001
,204.000000=139.977997
,205.000000=139.970001
,206.000000=139.977997
,207.000000=139.970001
,208.000000=139.977997
,209.000000=139.970001
,210.000000=139.977997
,211.000000=139.970001
,212.000000=139.977997
,213.000000=139.970001
,214.000000=139.977997
,215.000000=139.970001
,216.000000=139.977997
,217.000000=139.970001
,218.000000=139.977997
,219.000000=139.970001
,220.000000=139.977997
,221.000000=139.970001
,222.000000=139.977997
,223.000000=139.970001
,224.000000=139.977997
,225.000000=139.970001
,226.000000=139.977997
,227.000000=139.970001
,228.000000=139.977997
,229.000000=139.970001
,230.000000=139.977997
,231.000000=139.970001
,232.000000=139.977997
,233.000000=139.970001
,234.000000=139.977997
,235.000000=139.970001
,236.000000=139.977997
,237.000000=139.970001
,238.000000=139.977997
,239.000000=139.970001
,240.000000=139.977997
,241.000000=139.970001
,242.000000=139.977997
,243.000000=139.970001
,244.000000=139.977997
,245.000000=139.970001
,246.000000=139.977997
,247.000000=139.970001
,248.000000=139.977997
,249.000000=139.970001
,250.000000=139.977997
,251.000000=139.970001
,252.000000=139.977997
,253.000000=139.970001
,254.000000=139.977997
,255.000000=139.970001
,256.000000=139.977997
,257.000000=139.970001
,258.000000=139.977997
,259.000000=139.970001
,260.000000=139.977997
,261.000000=139.970001
,262.000000=139.977997
,263.000000=139.970001
,264.000000=139.977997
,265.000000=139.970001
,266.000000=139.977997
,267.000000=139.970001
,268.000000=139.977997
,269.000000=139.970001
,270.000000=139.977997
,271.000000=139.970001
,272.000000=139.977997
,273.000000=139.970001
,274.000000=139.977997
,275.000000=139.970001
,276.000000=139.977997
,277.000000=139.970001
,278.000000=139.977997
,279.000000=139.970001
,280.000000=139.977997
,281.000000=139.970001
,282.000000=139.977997
,283.000000=139.970001
,284.000000=139.977997
,285.000000=139.970001
,286.000000=139.977997
,287.000000=139.970001
,288.000000=139.977997
,289.000000=139.970001
,290.000000=139.977997
,291.000000=139.970001
,292.000000=139.977997
,293.000000=139.970001
,294.000000=139.977997
,295.000000=139.970001
,296.000000=139.977997
,297.000000=139.970001
,298.000000=139.977997
,299.000000=139.970001
,300.000000=139.977997
,301.000000=139.970001
,302.000000=139.977997
,303.000000=139.970001
,304.000000=139.977997
,305.000000=139.970001
,306.000000=139.977997
,307.000000=139.970001
,308.000000=139.977997
,309.000000=139.970001
;
#STOPS:
;
#BGCHANGES:;
#KEYSOUNDS:;
#ATTACKS:;

//---------------dance-single - 2015 v1----------------
#NOTES:
     dance-single:
     :
     Hard:
     13:
     1.134176,1.044315,2.091683,0.641246,0.797740,1040.000000,756.000000,274.000000,84.000000,13.000000,11.000000,1.134176,1.044315,2.091683,0.641246,0.797740,1040.000000,756.000000,274.000000,84.000000,13.000000,11.000000:
// measure 0
M00M
0000
M00M
0MM0
,  // measure 1
0011
1000
0001
1000
0011
0000
0002
0000
0003
0000
0020
0030
0200
0300
2000
3000
,  // measure 2
0110
0001
0100
0001
0110
0000
2000
0000
3000
0000
0200
0300
0020
0030
0002
0003
,  // measure 3
000M
0000
0000
0000
0012
0003
0012
0003
0120
0030
1200
0300
0000
0000
2010
3000
,  // measure 4
0000
0000
2010
3000
0201
0300
1020
0030
0112
0003
0000
0000
1000
0000
0001
0000
,  // measure 5
1110
0000
1000
0010
1000
0000
1000
0010
1000
0000
1100
0010
0101
0000
0101
0010
,  // measure 6
1001
0000
0001
0010
0001
0000
0001
0010
0101
0000
0100
0010
0100
0000
0101
0010
,  // measure 7
1001
0000
1000
0010
1001
0000
0001
0100
0011
0000
0110
1000
0010
0000
0011
1000
,  // measure 8
0101
0000
0100
0001
0100
0000
0100
0001
0100
0000
0100
0001
0110
0000
0011
0100
,  // measure 9
1001
0000
0001
0100
0001
0000
0001
0100
0001
0000
0011
0100
1010
0000
1001
0100
,  // measure 10
1010
0000
0010
0001
0010
0000
0010
0001
0110
0000
0100
0001
0100
0000
0110
0001
,  // measure 11
1100
0000
1000
0001
1100
0000
0100
0001
0110
0000
1010
0100
0010
0000
0110
0001
,  // measure 12
1010
0000
0100
0010
0100
0000
0100
0010
0101
0000
0000
0000
0000
0000
1010
0000
,  // measure 13
0110
0110
0001
0100
0011
0011
0000
0010
,  // measure 14
1010
1010
0100
1000
1001
1001
0000
0000
,  // measure 15
0101
0101
0100
0010
0011
0011
0001
0010
,  // measure 16
1010
0110
0101
1001
1010
0000
1001
0000
,  // measure 17
1101
0000
0001
0010
0001
0000
0001
0010
0101
0000
0101
0010
1100
0000
1100
0010
,  // measure 18
0101
0000
0001
1000
0001
0000
0001
1000
0011
0000
0010
0100
0011
0000
1010
0100
,  // measure 19
1001
0000
1000
0100
1000
0000
1010
0100
0011
0000
0010
0100
0010
0000
0011
0100
,  // measure 20
0011
0000
1001
0010
0001
0000
0001
0010
0001
0000
0001
0010
MM01
0000
0001
0010
,  // measure 21
0101
0010
0001
0010
0101
0000
0002
0000
0003
0000
0200
0300
0020
0030
2000
3000
,  // measure 22
0011
0100
0001
0100
0011
0000
0200
0000
0300
0000
0020
0030
0002
0003
2000
3000
,  // measure 23
M000
0000
0000
0000
2001
3000
0201
0300
1020
0030
1002
0003
0000
0000
0120
0030
,  // measure 24
0000
0000
0021
0030
1200
0300
0012
0003
2101
3000
0000
0000
1000
0000
0001
0000
,  // measure 25
1110
0000
0010
0001
0010
0000
0010
0001
0010
0000
0110
0001
1010
0000
0011
0100
,  // measure 26
1001
0000
1000
0100
1000
0000
1000
0100
1010
0000
0010
0100
0010
0000
0011
0100
,  // measure 27
1001
0000
1000
0010
1100
0000
1000
0010
1001
0000
0011
0100
0001
0000
0011
0100
,  // measure 28
1001
0000
1000
0010
1000
0000
1000
0010
1000
0000
1000
0010
1001
0000
0101
0010
,  // measure 29
1100
0000
0100
0001
0100
0000
0100
0001
0100
0000
0110
0001
1100
0000
1100
0001
,  // measure 30
1010
0000
0010
0001
0010
0000
0010
0001
0110
0000
0010
1000
0010
0000
0011
1000
,  // measure 31
0101
0000
0100
0010
1100
0000
0001
0100
0011
0000
1010
0100
0010
0000
1100
0010
,  // measure 32
0101
0000
0001
1000
0001
0000
0001
1000
0011
0000
0000
0000
0000
0000
0101
0000
,  // measure 33
1001
1001
0010
0100
1010
1010
0000
1000
,  // measure 34
1100
1100
0100
0010
0011
0011
0000
0000
,  // measure 35
0101
0101
0010
1000
1001
1001
0100
0010
,  // measure 36
1001
1010
0101
0110
1001
0000
0110
0000
,  // measure 37
0111
0000
0001
1000
0001
0000
0001
1000
0011
0000
0110
0001
1010
0000
1010
0001
,  // measure 38
1100
0000
0100
0010
0100
0000
0100
0010
0101
0000
0001
1000
0011
0000
0110
0001
,  // measure 39
1010
0000
0010
0001
0010
0000
1010
0001
1100
0000
0100
0010
0100
0000
1100
0010
,  // measure 40
0101
0000
1010
0001
0010
0000
0010
0001
0010
0000
0010
0001
0110
0000
1010
0100
,  // measure 41
1001
0000
0001
0010
0001
0000
0001
0010
0001
0000
0101
0010
1100
0000
0101
0010
,  // measure 42
1001
0000
0000
0000
0000
0000
1000
0000
0000
0010
0000
0000
1000
0000
0000
0000
0000
0000
1000
0000
0000
0010
0000
0000
1001
0000
0000
0000
0000
0000
1000
0000
0010
0100
0000
0000
1000
0000
0000
0000
0001
0000
1000
0000
0000
0010
0000
0000
,  // measure 43
2100
0000
0100
0010
0100
0000
0100
0010
0100
0000
0100
0010
0100
0000
0100
0010
,  // measure 44
0101
0010
0100
0010
3000
0100
0000
0010
0101
0000
0000
0000
0020
0030
0200
0300
,  // measure 45
0021
0000
0001
0100
0001
0000
0001
0100
0031
0000
0021
0130
2001
3000
0021
0130
,  // measure 46
2001
0000
0010
0100
0010
0000
3010
0100
0012
0000
0010
0100
0013
0000
2010
3100
,  // measure 47
0021
0030
0001
1000
0201
0300
0001
1000
0102
0003
2100
3010
0100
0000
0120
1030
,  // measure 48
0102
0000
0100
0010
0100
0000
0100
0010
0103
0000
0100
0010
0102
0003
2100
3010
,  // measure 49
0201
0000
0001
0010
0001
0000
0001
0010
0301
0000
2001
3010
0201
0300
2001
3010
,  // measure 50
0102
0000
0100
0010
0103
0000
0100
0010
2100
0000
0100
0010
3100
0000
2100
3010
,  // measure 51
0201
0300
0001
0010
0201
0300
0001
0010
1002
0003
1020
0130
1000
0000
1200
0301
,  // measure 52
2010
0000
0010
0100
0010
0000
0010
0100
3010
0000
0010
0100
M01M
0000
0010
0100
,  // measure 53
1011
0000
0001
0100
0010
0000
0100
1000
0010
0000
0100
0001
1000
0000
1000
0100
,  // measure 54
1010
0000
0100
0001
0100
0000
0001
1000
0010
0000
0100
1000
0011
0000
1001
0010
,  // measure 55
0101
0000
1000
0100
0010
0000
0100
0001
1000
0000
0011
0100
1001
0000
1010
0001
,  // measure 56
1100
0000
0001
0100
0010
0000
0001
0010
1001
0000
0100
0010
0100
0000
1001
0010
,  // measure 57
1100
0000
1000
0100
0011
0000
0100
0010
0101
0000
1010
0001
1000
0000
1100
0010
,  // measure 58
1001
0000
0010
0001
0100
0000
0100
0001
1000
0000
1000
0010
0101
0000
0110
0001
,  // measure 59
1010
0000
1000
0100
0010
0000
0001
0010
0100
0000
1001
0010
1100
0000
0110
1000
,  // measure 60
0101
0000
0010
0100
1000
0000
1000
0001
0110
0000
0010
0100
0001
0000
1010
0001
,  // measure 61
1100
0000
0010
0100
0011
0000
1000
0001
1100
0000
0110
0001
0100
0000
1100
0010
,  // measure 62
1001
0000
0001
0100
0010
0000
1000
0010
1001
0000
0000
0000
0000
0000
1010
0000
,  // measure 63
0101
1001
1000
0100
1010
0110
0000
0001
,  // measure 64
0101
0011
1000
0100
0110
1001
0000
0000
,  // measure 65
1100
0101
1000
0001
0011
0101
0010
0100
,  // measure 66
0011
1001
0110
1100
1010
0000
0110
0000
,  // measure 67
1101
0000
0010
0001
1000
0000
1000
0010
0101
0000
0110
0001
1100
0000
1010
0100
,  // measure 68
0011
0000
0100
0010
1000
0000
1000
0010
0101
0000
0010
0100
1001
0000
0101
0010
,  // measure 69
1100
0000
1000
0100
0001
0000
0101
0010
1001
0000
0010
0100
0010
0000
0101
0010
,  // measure 70
1001
0000
1001
0100
1000
0000
0010
0001
0100
0000
0100
0010
1000
0000
0001
0100
,  // measure 71
0011
0100
0010
0100
0011
0000
0002
0000
0003
0000
0200
0300
0020
0030
0002
0003
,  // measure 72
1100
0010
1000
0010
1100
0000
2000
0000
3000
0000
0200
0300
2000
3000
0020
0030
,  // measure 73
00M0
0000
0000
0000
2100
3000
0210
0300
1200
0300
1002
0003
0000
0000
0021
0030
,  // measure 74
0000
0000
0102
0003
1200
0300
0120
0030
2011
3000
0000
0000
0000
0000
0011
0011
,  // measure 75
0122
0000
0000
0000
,  // measure 76
0033
0000
0000
0000
;

//---------------dance-single - 2016 v2----------------
#NOTES:
     dance-single:
     :
     Challenge:
     14:
     1.193066,1.156533,1.977175,0.992404,0.790107,1094.000000,753.000000,259.000000,130.000000,9.000000,98.000000,1.193066,1.156533,1.977175,0.992404,0.790107,1094.000000,753.000000,259.000000,130.000000,9.000000,98.000000:
// measure 0
1001
0000
1001
MMMM
,  // measure 1
0011
0001
0100
0001
0011
0000
0002
0000
0003
0000
0020
0030
0200
0300
0020
0030
,  // measure 2
1100
1000
0010
1000
1100
0000
2000
0000
3000
0000
0200
0300
0020
0030
0200
0300
,  // measure 3
0M00
0000
0000
0000
2010
3000
0201
0300
1020
0030
1002
0003
0000
0000
1012
0003
,  // measure 4
0000
0000
0102
0003
0102
0003
0102
0003
1012
0003
0000
0000
1000
0000
0010
0000
,  // measure 5
2101
0000
0001
0100
0010
0000
0100
0001
3010
0000
0101
0010
1100
0000
1010
0001
,  // measure 6
1120
0000
1000
0100
0031
0000
0010
0100
1001
0000
0100
0001
1000
0000
0011
0100
,  // measure 7
1011
0000
1000
0100
1010
0000
0100
0010
1101
0000
0011
0100
1000
0000
1010
0100
,  // measure 8
1012
0000
0010
1000
0100
0000
1000
0100
0013
0000
0010
0001
1100
0000
0011
1000
,  // measure 9
0121
0000
0100
0001
1000
0000
1000
0100
0031
0000
0110
0001
1010
0000
0110
1000
,  // measure 10
0121
0000
0100
0001
1030
0000
0010
0001
1100
0000
1000
0100
0001
0000
1010
0001
,  // measure 11
1110
0000
1000
0100
1010
0000
0010
0100
1011
0000
0101
0010
1000
0000
1100
0010
,  // measure 12
1102
0000
0000
0000
0000
0000
0000
0000
0100
0000
0000
0000
1000
0000
0000
0000
0010
0000
0000
0000
0000
0000
0000
0000
1000
0000
0000
0000
0010
0000
0000
0003
1111
0000
0000
0000
0000
0000
0000
0000
0000
0000
0000
0000
0000
0000
0000
0000
0000
0000
0000
0000
0000
0000
0000
0000
1010
0000
0000
0000
0000
0000
0000
0000
,  // measure 13
1100
0011
0010
0001
0102
1010
0003
0001
,  // measure 14
1010
0101
0010
0100
1002
0110
0003
0000
,  // measure 15
1001
0110
0100
1000
0101
1010
0010
0001
,  // measure 16
0110
1001
0110
1001
1101
0000
0210
0000
,  // measure 17
1312
0000
0000
0000
0000
0000
0000
0000
0010
0000
0000
0000
0100
0000
0000
0000
1000
0000
0000
0000
0000
0000
0000
0000
0010
0000
0000
0000
1000
0000
0000
0003
0111
0000
0000
0000
0000
0000
0000
0000
0110
0000
0000
0000
0001
0000
0000
0000
1010
0000
0000
0000
0000
0000
0000
0000
1100
0000
0000
0000
0010
0000
0000
0000
,  // measure 18
1201
0000
0001
1000
0010
0000
1300
0100
0011
0000
0010
0100
1010
0000
0101
0010
,  // measure 19
2101
0000
3010
0001
1000
0000
1100
0001
1120
0000
0130
1000
0001
0000
1010
0100
,  // measure 20
1011
0000
0012
1000
0100
0000
1000
0100
0013
0000
0100
0001
M010
0000
0100
1000
,  // measure 21
0011
0001
0100
0001
0011
0000
0002
0000
0003
0000
0020
0030
0200
0300
0020
0030
,  // measure 22
1100
1000
0010
1000
1100
0000
2000
0000
3000
0000
0200
0300
0020
0030
0200
0300
,  // measure 23
0M00
0000
0000
0000
2010
3000
0201
0300
1020
0030
1002
0003
0000
0000
1012
0003
,  // measure 24
0000
0000
0102
0003
0102
0003
0102
0003
1012
0003
0000
0000
1000
0000
0010
0000
,  // measure 25
2101
0000
0001
0100
0010
0000
0100
0001
3010
0000
0101
0010
1100
0000
1010
0001
,  // measure 26
1120
0000
1000
0100
0031
0000
0010
0100
1001
0000
0100
0001
1000
0000
0011
0100
,  // measure 27
1011
0000
1000
0100
1010
0000
0100
0010
1101
0000
0011
0100
1000
0000
1010
0100
,  // measure 28
1012
0000
0010
1000
0100
0000
1000
0100
0013
0000
0010
0001
1100
0000
0011
1000
,  // measure 29
0121
0000
0100
0001
1000
0000
1000
0100
0031
0000
0110
0001
1010
0000
0110
1000
,  // measure 30
0121
0000
0100
0001
1030
0000
0010
0001
1100
0000
1000
0100
0001
0000
1010
0001
,  // measure 31
1110
0000
1000
0100
1010
0000
0010
0100
1011
0000
0101
0010
1000
0000
1100
0010
,  // measure 32
1102
0000
0000
0000
0000
0000
0000
0000
0100
0000
0000
0000
1000
0000
0000
0000
0010
0000
0000
0000
0000
0000
0000
0000
1000
0000
0000
0000
0010
0000
0000
0003
1111
0000
0000
0000
0000
0000
0000
0000
0000
0000
0000
0000
0000
0000
0000
0000
0000
0000
0000
0000
0000
0000
0000
0000
1010
0000
0000
0000
0000
0000
0000
0000
,  // measure 33
1100
0011
0010
0001
0102
1010
0003
0001
,  // measure 34
1010
0101
0010
0100
1002
0110
0003
0000
,  // measure 35
1001
0110
0100
1000
0101
1010
0010
0001
,  // measure 36
0110
1001
0110
1001
1101
0000
0210
0000
,  // measure 37
1312
0000
0000
0000
0000
0000
0000
0000
0010
0000
0000
0000
0100
0000
0000
0000
1000
0000
0000
0000
0000
0000
0000
0000
0010
0000
0000
0000
1000
0000
0000
0003
0111
0000
0000
0000
0000
0000
0000
0000
0110
0000
0000
0000
0001
0000
0000
0000
1010
0000
0000
0000
0000
0000
0000
0000
1100
0000
0000
0000
0010
0000
0000
0000
,  // measure 38
1201
0000
0001
1000
0010
0000
1300
0100
0011
0000
0010
0100
1010
0000
0101
0010
,  // measure 39
2101
0000
3010
0001
1000
0000
1100
0001
1120
0000
0130
1000
0001
0000
1010
0100
,  // measure 40
1011
0000
0012
1000
0100
0000
1000
0100
0013
0000
0100
0001
1010
0000
0101
1000
,  // measure 41
0121
0000
0001
1000
0100
0000
1000
0100
0031
0000
0101
0010
1001
0000
1100
0010
,  // measure 42
2101
0000
0000
0000
0000
0000
0001
0000
0000
0100
0000
0000
0010
0000
0000
0000
0000
0000
3100
0000
0000
0010
0000
0000
0101
0000
0000
0000
0000
0000
0000
0000
1010
0000
0000
0000
0000
0000
0000
0000
1001
0000
0000
0000
0000
0000
0000
0000
,  // measure 43
0112
0000
1000
0100
1000
0000
0010
0100
1000
0000
0100
0010
0100
0000
1000
0010
,  // measure 44
1110
0010
1000
0010
0000
1000
0003
0010
0111
0000
0000
0000
0002
0003
0020
0030
,  // measure 45
1102
0000
0010
1000
0100
0000
1000
0100
0013
0000
0020
0130
0002
0003
0020
1030
,  // measure 46
0211
0000
1000
0010
0301
0000
0100
0001
2000
0000
0010
0001
3100
0000
0020
1030
,  // measure 47
0211
0000
0310
1000
0200
0000
1300
0100
1012
0003
0020
0031
0100
0000
2000
3010
,  // measure 48
1102
0000
0100
0010
1000
0000
1000
0100
0013
0000
0100
0010
0002
0003
0020
1030
,  // measure 49
0112
0000
0010
0100
1000
0000
0100
1000
0013
0000
0020
1030
0002
0003
0200
0310
,  // measure 50
1102
0000
0010
0100
1000
0000
1003
0100
0020
0000
0001
1000
0130
0000
0020
1030
,  // measure 51
0112
0000
0103
0010
0002
0000
0013
0100
1012
0003
0020
0100
1030
0000
0200
0301
,  // measure 52
2011
0000
0100
0001
0100
0000
0001
0010
3100
0000
0100
1000
001M
0000
0001
0010
,  // measure 53
2112
0000
0010
0100
0010
0000
0100
0010
0100
0000
0010
0100
0010
0000
0100
0010
,  // measure 54
0110
0000
0010
0100
3013
0000
0100
1000
0001
0000
0100
0010
0101
0000
0011
0100
,  // measure 55
2011
0000
0100
0001
0100
0000
0010
0100
3001
0000
0101
1000
0011
0000
1100
0001
,  // measure 56
1120
0000
0100
1000
0031
0000
0010
0001
1100
0000
1000
0100
0010
0000
0101
0010
,  // measure 57
1101
0000
0010
0001
1100
0000
0010
0100
1011
0000
0110
1000
0001
0000
0101
0010
,  // measure 58
1102
0000
0010
1000
0100
0000
1000
0100
0013
0000
0100
0001
1010
0000
0101
1000
,  // measure 59
0112
0000
0010
0100
0010
0000
0100
1000
0103
0000
1010
0001
0110
0000
1100
0010
,  // measure 60
1201
0000
0001
0010
1300
0000
0100
0001
0110
0000
1000
0010
0001
0000
0110
0001
,  // measure 61
1110
0000
0100
0010
1100
0000
1000
0100
1011
0000
0110
0001
0100
0000
1010
0100
,  // measure 62
1021
0000
0000
0000
0000
0000
0000
0000
0001
0000
0000
0000
1000
0000
0000
0000
0001
0000
0000
0000
0000
0000
0000
0000
1000
0000
0000
0000
0100
0000
0000
0030
1111
0000
0000
0000
0000
0000
0000
0000
0000
0000
0000
0000
0000
0000
0000
0000
0000
0000
0000
0000
0000
0000
0000
0000
0110
0000
0000
0000
0000
0000
0000
0000
,  // measure 63
0011
1100
0100
0001
2010
0101
3000
1000
,  // measure 64
0110
1001
0100
0010
0012
1100
0003
0000
,  // measure 65
1001
0110
0001
0010
0101
1010
0100
1000
,  // measure 66
1010
0101
1010
0101
1011
0000
0120
0000
,  // measure 67
1132
0000
0000
0000
0000
0000
0000
0000
1000
0000
0000
0000
0100
0000
0000
0000
0010
0000
0000
0000
0000
0000
0000
0000
0100
0000
0000
0000
0010
0000
0000
0003
1101
0000
0000
0000
0000
0000
0000
0000
0011
0000
0000
0000
1000
0000
0000
0000
0110
0000
0000
0000
0000
0000
0000
0000
1001
0000
0000
0000
0100
0000
0000
0000
,  // measure 68
1021
0000
0001
1000
0130
0000
0010
0100
1010
0000
1000
0100
0011
0000
0101
0010
,  // measure 69
2101
0000
0100
0010
3001
0000
1010
0100
1021
0000
0100
0001
1030
0000
0110
1000
,  // measure 70
0111
0000
0002
0010
1000
0000
0100
0010
0100
0000
1003
0100
0010
0000
0010
1000
,  // measure 71
0011
0001
0100
0001
0011
0000
0002
0000
0003
0000
0020
0030
0200
0300
0020
0030
,  // measure 72
1100
1000
0010
1000
1100
0000
2000
0000
3000
0000
0200
0300
0020
0030
0200
0300
,  // measure 73
0M00
0000
0000
0000
2010
3000
0201
0300
1020
0030
1002
0003
0000
0000
1012
0003
,  // measure 74
0000
0000
0102
0003
0102
0003
0102
0003
1012
0003
0000
0000
0000
0000
0011
0011
,  // measure 75
2112
0000
0000
3003
;
