#VERSION:0.83;
#TITLE:moveurbody;
#SUBTITLE:;
#ARTIST:HYO;
#TITLETRANSLIT:;
#SUBTITLETRANSLIT:;
#ARTISTTRANSLIT:;
#GENRE:;
#ORIGIN:;
#CREDIT:;
#BANNER:;
#BACKGROUND:;
#PREVIEWVID:;
#JACKET:;
#CDIMAGE:;
#DISCIMAGE:;
#LYRICSPATH:;
#CDTITLE:;
#MUSIC:MOVEURBODY.ogg;
#OFFSET:0.000000;
#SAMPLESTART:100.059883;
#SAMPLELENGTH:12.000000;
#SELECTABLE:YES;
#BPMS:0.000=146.000;
#STOPS:0.000=1.200;
#DELAYS:;
#WARPS:;
#TIMESIGNATURES:0.000=4=4;
#TICKCOUNTS:0.000=4;
#COMBOS:0.000=1;
#SPEEDS:0.000=1.000=0.000=0;
#SCROLLS:0.000=1.000;
#FAKES:;
#LABELS:0.000=Song Start;
#BGCHANGES:;
#KEYSOUNDS:;
#ATTACKS:
;

//---------------dance-single - ----------------
#NOTEDATA:;
#CHARTNAME:;
#STEPSTYPE:dance-single;
#DESCRIPTION:;
#CHARTSTYLE:;
#DIFFICULTY:Hard;
#METER:15;
#RADARVALUES:0.668859,0.806113,0.036521,0.021913,0.343299,641.000000,636.000000,5.000000,3.000000,0.000000,0.000000,0.000000,0.000000,0.000000,0.668859,0.806113,0.036521,0.021913,0.343299,641.000000,636.000000,5.000000,3.000000,0.000000,0.000000,0.000000,0.000000,0.000000;
#CREDIT:;
#NOTES:
// measure 0
0000
0000
0000
0000
,  // measure 1
0000
0000
0000
0000
,  // measure 2
0000
0000
0000
0000
,  // measure 3
0000
0000
0000
0000
,  // measure 4
1001
0000
0000
0010
0000
0000
0100
0000
0000
0000
0001
0000
0010
0000
0100
0000
,  // measure 5
1001
0000
0000
0010
0000
0000
0001
0000
0000
0000
0100
0000
0001
0000
0100
0000
,  // measure 6
1001
0000
0000
0001
0000
0000
0100
0000
0000
0000
0010
0000
0001
0000
0100
0000
,  // measure 7
1001
0000
0000
0001
0000
0000
0100
0000
0000
0000
0010
0000
0001
0000
0100
0000
,  // measure 8
0001
0000
0100
0010
0100
0000
0000
0000
1000
0000
0001
0000
0100
0000
0000
0000
,  // measure 9
0100
0000
0001
0010
0100
0000
0001
0000
0001
0000
0100
0000
1000
0000
0000
0000
,  // measure 10
0100
0000
0010
0100
0001
0000
1000
0100
0001
0000
0100
0000
0010
0000
0100
0000
,  // measure 11
1000
0010
0100
0001
0100
0000
0001
0000
1000
0000
0001
0000
0100
0000
0010
0000
,  // measure 12
0100
0000
0010
0100
0001
0000
1000
0000
0010
0000
0001
0000
0100
0000
0100
0000
,  // measure 13
0010
0000
0100
0001
0100
0010
0100
0000
0001
0000
0100
0000
1000
0000
0010
0000
,  // measure 14
0100
0010
0100
0001
1000
0001
0010
0000
0010
0000
0001
0000
0100
0000
0000
0000
,  // measure 15
0001
0100
0010
0001
1000
0001
0100
0010
,  // measure 16
0101
0000
0000
0001
0100
0000
0010
0000
0100
0000
0001
0000
0100
0000
0001
0000
,  // measure 17
0010
0000
0000
0100
0001
0000
0010
0000
0100
0000
0001
0000
1000
0000
0001
0000
,  // measure 18
0010
0000
0000
0100
0001
0000
0010
0000
0100
0000
0010
0000
1000
0100
0001
0000
,  // measure 19
0010
0000
0100
0010
0001
0000
0100
0000
0001
0000
0100
0000
1000
0000
1000
0000
,  // measure 20
0100
0001
0100
0010
0001
0100
0001
0100
,  // measure 21
1000
0100
0010
0001
0100
0001
0100
0010
,  // measure 22
0100
0010
0001
0100
0001
0100
0010
0001
1000
0001
0100
0010
0001
0100
0001
0100
,  // measure 23
1000
0010
0100
0000
,  // measure 24
1000
0000
0100
0000
0001
0000
0010
0100
0001
0000
0010
0000
0100
0000
0000
0000
,  // measure 25
0010
0100
0001
0000
1000
0000
0100
0001
0010
0000
0100
0000
1000
0000
0000
0000
,  // measure 26
0100
0000
0010
0000
0100
0000
0001
1000
0100
0000
0010
0000
0001
0000
0000
0000
,  // measure 27
0100
0010
0001
0100
0001
0100
1000
0000
,  // measure 28
0001
0000
0100
0000
0010
0000
0001
1000
0100
0000
0001
0000
0010
0000
0000
0000
,  // measure 29
0001
0000
0100
0000
0010
0000
0001
0100
1000
0000
0100
0000
0001
0000
0000
0000
,  // measure 30
0001
0000
0100
0000
0010
0000
1000
0100
0001
0000
0100
0000
0010
0000
0000
0000
,  // measure 31
0010
0000
0001
0000
0100
0000
0000
0000
0001
0000
0100
0000
1000
0000
0100
0001
,  // measure 32
0010
0001
0100
0010
0001
0100
0001
0100
,  // measure 33
1000
0001
0100
0010
0001
0100
0001
1000
,  // measure 34
0100
0000
0010
0000
0001
0000
0100
0000
0001
0000
0100
0000
0010
0001
0100
0000
,  // measure 35
1000
0001
0100
0010
0001
0100
0001
0100
,  // measure 36
1000
0000
0001
0000
0100
0000
0010
0000
0001
0000
0100
0000
0001
0010
0100
0000
,  // measure 37
1000
0000
0001
0000
1000
0000
0001
0000
0100
0000
0010
0000
0100
0001
0010
0000
,  // measure 38
0100
0000
0001
0000
0100
0000
0001
0000
0100
0000
0010
0000
0100
1000
0001
0000
,  // measure 39
0100
0010
0001
0100
0001
0100
0001
0100
,  // measure 40
2000
0000
0000
0000
,  // measure 41
0100
0000
0100
0000
0100
0000
3100
0001
,  // measure 42
0020
0000
0000
0000
,  // measure 43
0000
0000
0000
0000
0030
0000
0000
0000
0010
0000
0001
0000
0100
0000
0010
0100
,  // measure 44
0001
0000
1000
0000
0100
0000
0001
0010
0100
0001
0010
0000
0100
0000
0000
0000
,  // measure 45
0001
0000
0000
0000
0100
0000
0000
0000
0001
0000
0000
0000
1000
0000
0000
0000
0001
0000
0000
0000
0010
0000
0000
0000
0100
0000
0000
0000
0000
0000
0010
0000
0000
0100
0000
0000
0001
0000
0000
0000
0000
0000
0010
0000
0000
0000
0000
0000
,  // measure 46
1000
0100
0001
0000
0010
0000
0100
0001
0100
0000
0010
0000
0100
0000
0000
0000
,  // measure 47
0001
0000
0100
0000
0010
0000
0001
0100
1000
0000
0100
0000
0010
0000
0000
0000
,  // measure 48
0001
0100
0010
0001
0100
0001
1000
0100
,  // measure 49
0100
0010
0001
0100
0001
0100
1000
0010
,  // measure 50
0001
0000
0100
0000
0001
0000
0100
0010
0001
0000
0100
0000
1000
0000
0010
0000
,  // measure 51
0100
0001
0010
0000
0010
0000
0100
0000
0001
0000
0100
0000
1000
0000
0000
0000
,  // measure 52
0100
0001
0100
0010
0001
1000
0001
0100
,  // measure 53
0010
0000
0100
0000
0001
0000
0010
0001
0100
0000
1000
0000
0001
0010
0100
0000
,  // measure 54
0010
0001
0100
0001
0100
0010
0001
1000
0001
0100
0010
0001
0100
0001
0100
1000
,  // measure 55
0100
0000
0000
0000
,  // measure 56
0001
0000
0100
0000
0010
0000
0001
0100
1000
0000
0001
0000
0100
0000
0010
0000
,  // measure 57
0100
0001
0010
0000
0100
0000
0010
0000
0001
0000
0100
0000
1000
0000
0100
0000
,  // measure 58
0010
0000
0001
0000
0100
0000
0010
0001
0100
0000
0001
0000
1000
0000
0010
0000
,  // measure 59
0100
0010
0001
0100
0001
0100
1000
0010
,  // measure 60
0001
0000
0100
0000
0010
0000
0001
0100
1000
0000
0001
0000
0010
0000
0100
0000
,  // measure 61
0001
0000
0100
0000
0010
0000
0001
0100
1000
0000
0010
0000
0001
0000
0100
0000
,  // measure 62
0001
0000
0100
0000
0010
0000
1000
0001
0100
0000
0010
0000
0001
0000
0100
0000
,  // measure 63
0010
0000
0100
0010
0001
0000
0100
0001
0010
0000
1000
0000
0100
0000
0010
0100
,  // measure 64
0001
0010
0100
0010
0001
0100
0001
1000
,  // measure 65
0100
0000
0100
0000
0010
0000
0100
0000
0010
0000
0001
0000
0100
0010
0001
0000
,  // measure 66
0100
0000
0010
0000
0001
0000
1000
0000
0001
0000
0100
0000
0010
0001
0100
0000
,  // measure 67
0010
0001
0100
0010
0001
0100
0001
0100
,  // measure 68
1000
0010
0001
0100
0001
0100
1000
0010
,  // measure 69
0100
0010
0100
0010
0001
0100
0001
0100
,  // measure 70
0010
0000
0001
0000
1000
0000
0001
0000
0100
0000
0010
0000
1000
0100
0001
0000
,  // measure 71
0010
0001
0100
0010
0001
0100
0001
0100
,  // measure 72
1000
0000
0010
0000
0100
0000
0010
0001
0100
1000
0001
0000
0100
0000
0010
0000
,  // measure 73
0001
0000
0100
0000
0010
0000
0100
1000
0100
0001
0010
0000
0010
0000
0100
0000
,  // measure 74
0001
0000
0100
0000
0010
0000
0001
0100
0001
0100
1000
0000
0100
0010
0001
0000
,  // measure 75
0001
0000
0100
0000
0010
0000
0001
0100
0001
1000
0100
0000
0010
0000
0100
0000
,  // measure 76
0001
0000
1000
0000
0100
0000
0001
0100
0010
0001
0100
0000
0001
0000
0010
0000
,  // measure 77
0001
0000
0100
0000
0010
0000
0001
0100
0001
1000
0100
0000
0100
0000
0010
0000
,  // measure 78
0001
0000
0100
0000
0010
0000
0001
0100
0001
1000
0100
0000
0010
0100
0001
0000
,  // measure 79
1000
0000
0010
0000
0100
0000
0100
0001
1000
0001
0010
0000
0001
0000
0200
0000
,  // measure 80
0000
0000
0000
0000
,  // measure 81
0000
0000
0000
0300
;
