#TITLE:you like it i love it;
#SUBTITLE:;
#ARTIST:TWS & 24kgoldn;
#TITLETRANSLIT:;
#SUBTITLETRANSLIT:;
#ARTISTTRANSLIT:;
#GENRE:;
#CREDIT:;
#BANNER:;
#BACKGROUND:;
#LYRICSPATH:;
#CDTITLE:;
#MUSIC:24kGoldn ft. TWS (Dohoon, Jihoon, Kyungmin) 'YOU LIKE IT I LOVE IT' Color Coded Lyrics Lyritix.ogg;
#OFFSET:0.000000;
#SAMPLESTART:100.059883;
#SAMPLELENGTH:12.000000;
#SELECTABLE:YES;
#BPMS:0.000000=172.000000
;
#STOPS:0.000000=0.600000
;
#BGCHANGES:;
#KEYSOUNDS:;
#ATTACKS:;

//---------------dance-single - ----------------
#NOTES:
     dance-single:
     :
     Hard:
     12:
     0.618708,0.676608,0.598319,0.197610,0.027446,789.000000,680.000000,109.000000,36.000000,0.000000,0.000000,0.618708,0.676608,0.598319,0.197610,0.027446,789.000000,680.000000,109.000000,36.000000,0.000000,0.000000:
// measure 0
0000
0000
0000
0000
,  // measure 1
0000
0000
0000
0000
,  // measure 2
0000
0000
0000
0000
,  // measure 3
0000
0000
0000
0000
,  // measure 4
0100
0010
0001
0100
0000
0000
0000
0000
,  // measure 5
0010
0001
1000
0001
0100
0010
0001
0100
,  // measure 6
0001
0010
0001
0100
0000
0000
0000
0000
,  // measure 7
0001
0100
0001
0100
0020
0000
0030
0000
,  // measure 8
0100
0001
1000
0001
0000
0010
0100
0001
,  // measure 9
0010
0100
0001
0100
0000
0010
0001
0100
,  // measure 10
0010
0001
1000
0100
0000
0001
1000
0100
,  // measure 11
0010
0100
0001
0001
,  // measure 12
0100
0010
0100
0001
0000
0010
0001
0100
,  // measure 13
0010
0001
1000
0100
0000
0010
0001
0100
,  // measure 14
0001
0100
0001
0100
0001
0100
0001
1000
,  // measure 15
0100
0000
0100
0000
0010
0000
0000
0100
,  // measure 16
0011
0000
0011
0000
0001
0100
0001
1000
,  // measure 17
0110
0110
0000
0000
,  // measure 18
1001
0000
1001
0000
0001
0100
0001
0010
,  // measure 19
0011
0101
0202
0303
,  // measure 20
0101
0000
0101
0000
0010
0001
0100
0010
,  // measure 21
1001
0000
1001
0000
0001
0100
0001
0100
,  // measure 22
1001
0000
1001
0000
0001
0100
0001
0100
,  // measure 23
1001
0011
0202
0303
,  // measure 24
0110
0000
0000
0010
0110
0000
0000
0010
,  // measure 25
0110
0000
0202
0000
0000
0000
0303
0100
,  // measure 26
1100
0000
0000
0010
0110
0000
0000
0010
,  // measure 27
0110
1100
0110
0101
,  // measure 28
0101
0000
0000
0010
0110
0000
0000
0100
,  // measure 29
0110
0000
0220
0000
0000
0000
0330
0001
,  // measure 30
0110
0000
0000
1000
0110
0000
0000
0010
,  // measure 31
0110
1100
0110
0101
,  // measure 32
0110
0000
0000
0001
0110
0000
0000
0010
,  // measure 33
0101
0000
0000
0001
0101
0000
0000
0010
,  // measure 34
1001
0000
0000
0000
0000
0100
0001
1000
,  // measure 35
0011
1100
0110
0110
,  // measure 36
0101
0000
0000
0001
1001
0000
0000
0100
,  // measure 37
0110
0000
0000
0001
1001
0000
0000
0100
,  // measure 38
0110
0000
0110
0000
0000
0001
1000
0001
,  // measure 39
0101
0202
0303
0101
,  // measure 40
0110
0010
0100
0001
0000
1000
0100
0001
,  // measure 41
0010
0001
1000
0100
0000
0010
0001
1000
,  // measure 42
0100
0100
0010
0001
0010
0100
0001
1000
,  // measure 43
0100
0001
0010
0000
0100
0000
0010
0000
,  // measure 44
0010
0001
0100
1000
0000
0001
1000
0100
,  // measure 45
0100
0010
0001
0100
0000
0001
0100
1000
,  // measure 46
0010
0001
1000
0100
0000
0010
0001
0100
,  // measure 47
0101
0000
0101
0000
0110
0000
1001
1001
,  // measure 48
1001
0001
0100
0010
0000
0010
0001
0100
,  // measure 49
0010
0001
0100
1000
0000
0001
0100
1000
,  // measure 50
0010
0001
1000
0100
0000
0010
0100
0001
,  // measure 51
0010
0001
0010
1000
,  // measure 52
0010
0001
0100
1000
0000
0001
0100
1000
,  // measure 53
0010
0001
1000
0100
0000
0001
1000
0100
,  // measure 54
0010
0100
0001
0010
0001
1000
0001
0100
,  // measure 55
0001
0000
0100
0000
0010
0000
0000
0100
,  // measure 56
0001
0010
0100
0010
0001
1000
0001
0200
,  // measure 57
0300
0001
0010
0001
0100
0001
0100
2000
,  // measure 58
3000
0010
0001
0100
0001
0100
0001
1000
,  // measure 59
0101
0101
0220
0330
,  // measure 60
0000
0010
0001
0100
1000
0000
0010
0001
,  // measure 61
0100
1000
0020
0000
0030
0000
1001
0000
,  // measure 62
0000
0010
0100
0001
1001
0000
0010
0001
,  // measure 63
0100
0001
1100
0000
0000
0100
0001
0010
,  // measure 64
0000
0010
0001
0100
0000
0010
0001
0100
,  // measure 65
0000
0010
0000
0001
0100
0010
0100
0010
,  // measure 66
2002
0000
3003
0010
0100
0001
0100
0001
,  // measure 67
2002
0000
3003
0001
1000
0001
0220
0000
,  // measure 68
0330
0000
0010
0010
0001
1000
0001
0100
,  // measure 69
1001
0000
0101
0000
0000
0000
0100
0010
,  // measure 70
0001
1000
0001
0100
0110
0000
0100
0010
,  // measure 71
0101
0101
0202
0303
,  // measure 72
0101
0000
0000
0010
0101
0000
0000
0001
,  // measure 73
1001
0000
0000
0010
0101
0000
0000
0001
,  // measure 74
1001
0000
0000
0000
0000
0001
0100
0010
,  // measure 75
0101
0110
1100
0110
,  // measure 76
0101
0000
0000
0010
0110
0000
0000
0001
,  // measure 77
1001
0000
0000
0100
0101
0000
0000
0001
,  // measure 78
1001
0000
1001
0000
0000
0010
0100
0001
,  // measure 79
0110
0220
0330
0101
,  // measure 80
0101
0100
1000
0010
0000
0100
0001
0010
,  // measure 81
0010
0001
1000
0100
0000
0001
0100
1000
,  // measure 82
0010
0001
0100
1000
0000
0001
0100
0010
,  // measure 83
0110
0110
0101
0101
,  // measure 84
0010
0001
1000
0100
0000
0010
0001
0100
,  // measure 85
0010
0001
1000
0100
0000
0001
1000
0100
,  // measure 86
0010
0001
1000
0100
0000
0010
0001
0100
,  // measure 87
0101
0101
1001
0110
,  // measure 88
0110
0001
0100
1000
0000
0010
0001
0100
,  // measure 89
0100
0001
1000
0100
0000
0010
0001
1000
,  // measure 90
0100
0010
0100
0001
0000
0010
0100
0001
,  // measure 91
1000
0100
0010
0001
,  // measure 92
0010
0001
0100
1000
0000
0010
0001
0100
,  // measure 93
0010
0001
1000
0100
0000
0001
1000
0100
,  // measure 94
0010
0001
0100
0010
0001
1000
0001
0100
,  // measure 95
0010
0001
0200
0300
,  // measure 96
0020
0000
0030
0200
0300
0001
1000
0100
,  // measure 97
0001
0000
0010
0100
0000
0001
0100
0001
,  // measure 98
0010
0000
0000
0100
0000
0000
0001
0000
0010
0000
0000
1000
0000
0000
0100
0000
,  // measure 99
0020
0000
0000
0000
0130
0000
0001
1000
,  // measure 100
0200
0000
0000
0000
0300
0100
0001
1000
,  // measure 101
0001
0000
0100
0001
0010
0100
0001
0000
,  // measure 102
0010
0000
0000
0001
0000
0000
1000
0000
0100
0000
0000
0010
0000
0000
0001
0000
,  // measure 103
0100
0000
0000
0010
0000
0000
0001
0000
0100
0000
0000
0010
0001
0000
0100
0000
,  // measure 104
1001
0000
0000
0000
0000
0000
0000
0000
1000
0000
0000
0001
0000
0000
0100
0000
,  // measure 105
0100
0000
0000
0010
0000
0000
0100
0000
0010
0000
0000
0001
0000
0000
1000
0000
,  // measure 106
0200
0000
0000
0000
0000
0000
0000
0000
0010
0000
0000
0010
0000
0000
0310
0000
,  // measure 107
2000
3000
0000
0001
0010
0000
0100
0000
,  // measure 108
0010
0001
0100
0001
0100
0010
0001
1000
,  // measure 109
0001
0100
0010
0001
1000
0001
0100
0000
,  // measure 110
0010
0001
0100
0010
,  // measure 111
0202
0000
0000
0303
,  // measure 112
0010
0100
0001
1000
0000
0010
0100
0001
,  // measure 113
0100
0001
0010
1000
0000
0001
0100
1000
,  // measure 114
0010
0100
0001
0010
0000
0001
0100
0010
,  // measure 115
0001
1000
0001
0100
,  // measure 116
0010
0001
0100
1000
0000
0001
0100
1000
,  // measure 117
0010
0001
0100
1000
0000
0001
0100
1000
,  // measure 118
0100
0010
0001
0100
0000
0001
0100
0010
,  // measure 119
1000
0001
0100
0010
,  // measure 120
0110
0010
0100
0001
0000
0100
0010
0001
,  // measure 121
0100
0001
0100
0010
0000
0001
1000
0100
,  // measure 122
0010
0001
0100
0010
0000
0001
1000
0100
,  // measure 123
0001
1000
0001
0100
,  // measure 124
0010
0001
1000
0100
0000
0001
1000
0100
,  // measure 125
0010
0100
0001
1000
0000
0010
0100
0001
,  // measure 126
0010
0100
0001
0010
0010
0001
0100
0010
,  // measure 127
0010
0001
0200
0000
,  // measure 128
0000
0000
0000
0000
,  // measure 129
0000
0000
0000
0300
;
