#VERSION:0.83;
#TITLE:with me;
#SUBTITLE:;
#ARTIST:John Summit & Julia Wolf;
#TITLETRANSLIT:;
#SUBTITLETRANSLIT:;
#ARTISTTRANSLIT:;
#GENRE:;
#ORIGIN:;
#CREDIT:;
#BANNER:;
#BACKGROUND:;
#PREVIEWVID:;
#JACKET:;
#CDIMAGE:;
#DISCIMAGE:;
#LYRICSPATH:;
#CDTITLE:;
#MUSIC:John Summit & Julia Wolf - WITH ME (Official Video).ogg;
#OFFSET:0.000000;
#SAMPLESTART:100.059883;
#SAMPLELENGTH:12.000000;
#SELECTABLE:YES;
#BPMS:0.000=145.000;
#STOPS:0.000=1.400;
#DELAYS:;
#WARPS:;
#TIMESIGNATURES:0.000=4=4;
#TICKCOUNTS:0.000=4;
#COMBOS:0.000=1;
#SPEEDS:0.000=1.000=0.000=0;
#SCROLLS:0.000=1.000;
#FAKES:;
#LABELS:0.000=Song Start;
#BGCHANGES:0.000=John Summit & Julia Wolf - WITH ME (Official Video).mp4=1.000=0=0=1=====,
99999=-nosongbg-=1.000=0=0=0 // don't automatically add -songbackground-
;
#KEYSOUNDS:;
#ATTACKS:
;

//---------------dance-single - ----------------
#NOTEDATA:;
#CHARTNAME:;
#STEPSTYPE:dance-single;
#DESCRIPTION:;
#CHARTSTYLE:;
#DIFFICULTY:Hard;
#METER:13;
#RADARVALUES:0.533880,0.735446,0.108955,0.027239,0.239701,686.000000,666.000000,20.000000,5.000000,0.000000,0.000000,0.000000,0.000000,0.000000,0.533880,0.735446,0.108955,0.027239,0.239701,686.000000,666.000000,20.000000,5.000000,0.000000,0.000000,0.000000,0.000000,0.000000;
#CREDIT:;
#NOTES:
// measure 0
0000
0000
0000
0000
,  // measure 1
0000
0000
0000
0000
,  // measure 2
0000
0000
0000
0000
,  // measure 3
0000
0000
0000
0000
,  // measure 4
0000
0000
0001
0100
,  // measure 5
0001
0100
0001
0100
,  // measure 6
0000
0010
0100
0010
,  // measure 7
0100
0010
0100
0010
,  // measure 8
0000
0000
0100
0001
,  // measure 9
0100
0001
0010
0100
,  // measure 10
0000
0010
0001
0100
,  // measure 11
0001
0100
0010
0100
,  // measure 12
0001
0000
0100
0010
,  // measure 13
0100
0000
0001
0200
,  // measure 14
0000
0000
0000
0000
,  // measure 15
0000
0300
0010
0100
,  // measure 16
0001
0000
0100
0010
,  // measure 17
0100
0000
0010
2000
,  // measure 18
0000
0000
0000
0000
,  // measure 19
0000
0000
0000
3000
,  // measure 20
0100
0010
0001
0100
0001
0100
0001
0100
,  // measure 21
1000
0000
0010
0000
0001
0000
0100
0000
1000
0000
0001
0000
0100
0000
0010
0001
,  // measure 22
0100
0010
0001
0100
0001
0100
0001
0100
,  // measure 23
1000
0100
0010
0100
0001
0100
0001
0100
,  // measure 24
0001
0100
0010
0001
0100
0001
0100
0001
,  // measure 25
0100
0000
0010
0000
0001
0000
0100
0000
0001
0000
0100
0000
0010
0000
0001
0100
,  // measure 26
1000
0100
0010
0001
0100
0010
0001
1000
,  // measure 27
0001
0100
0010
0001
0100
0000
0100
0000
,  // measure 28
1000
0000
0000
0001
0100
0000
0000
0010
0100
0000
0000
0100
0010
0000
0000
0001
,  // measure 29
0010
0000
0000
0100
0001
0000
0000
1000
0100
0000
0000
0001
0010
0000
0000
0100
,  // measure 30
0010
0000
0000
0100
0010
0000
0000
0100
0010
0000
0000
0001
0010
0000
0000
0100
,  // measure 31
1000
0000
0000
0001
0100
0000
0000
0010
0001
0000
0000
0100
0010
0000
0001
1000
,  // measure 32
0100
0000
0100
0010
,  // measure 33
1001
0000
0010
0100
,  // measure 34
0110
0000
0110
0000
,  // measure 35
0110
0101
0110
0101
,  // measure 36
0010
0001
0100
1000
,  // measure 37
0001
0000
0000
0000
0100
0000
0000
0000
0010
0000
0000
0000
0100
0000
1000
0001
,  // measure 38
0100
0000
0000
0000
0100
0000
0000
0000
0010
0000
0000
0000
0100
0000
0010
0100
,  // measure 39
0001
0000
0000
0000
0100
0000
0000
0000
0010
0000
0000
0000
0100
0000
1000
0001
,  // measure 40
0100
0000
0000
0000
0100
0000
0000
0000
0010
0000
0000
0000
0100
0000
1000
0001
,  // measure 41
0100
0000
0000
0000
0001
0000
0000
0000
0100
0000
0000
0000
0010
0000
0001
0100
,  // measure 42
1000
0000
0000
0000
1000
0000
0000
0000
0001
0000
0000
0000
0100
0000
0010
0001
,  // measure 43
0100
0000
0000
0000
0101
0000
0000
0000
0110
0000
0000
0000
0110
0000
0001
0100
,  // measure 44
0100
0000
0010
0000
0001
0000
0100
0000
0001
0000
0100
0000
0010
0000
0001
0100
,  // measure 45
1000
0000
0010
0000
0001
0000
0100
0000
0001
0000
0100
0000
0010
0000
0001
0100
,  // measure 46
1000
0000
0100
0000
0001
0000
0100
0000
0001
0000
0100
0000
0010
0000
0001
0100
,  // measure 47
1000
0000
0010
0000
0001
0000
0100
0000
0001
0000
0100
0000
0010
0000
0001
0100
,  // measure 48
1000
0000
0010
0000
0001
0000
0100
0000
0001
0000
0100
0000
0010
0000
0001
0100
,  // measure 49
1000
0000
0010
0000
0001
0000
0100
0000
0001
0000
0100
0000
0010
0000
0001
0100
,  // measure 50
1000
0000
0010
0000
0100
0000
0001
0000
0000
0000
0010
0000
0001
0000
0100
0010
,  // measure 51
0100
0101
0000
0101
,  // measure 52
2000
0000
3000
0100
,  // measure 53
0010
0100
0001
0100
,  // measure 54
0100
0001
1000
0001
0010
0100
0001
0010
,  // measure 55
0100
1000
0100
0010
0001
0100
0001
0100
,  // measure 56
0010
0001
0100
0001
0100
0001
0100
0010
,  // measure 57
0001
0100
0001
0100
0001
0100
0010
0001
,  // measure 58
1000
0001
0100
0010
0001
0100
0001
0100
,  // measure 59
0010
0001
0100
0001
0100
0010
0001
0100
,  // measure 60
1000
0000
0000
0000
0000
0000
0000
0000
0001
0000
0000
0000
0100
0000
0010
0100
,  // measure 61
0001
0000
0000
0000
0000
0000
0000
0000
0100
0000
0000
0000
0010
0000
0100
0001
,  // measure 62
0020
0000
0000
0000
,  // measure 63
0000
0030
0010
0100
,  // measure 64
0100
0000
0010
0001
,  // measure 65
0100
0000
0010
0200
,  // measure 66
0000
0000
0000
0000
,  // measure 67
0000
0300
0010
0100
,  // measure 68
1001
0000
0100
0001
,  // measure 69
0110
0000
0010
0100
,  // measure 70
0101
0000
0000
0000
,  // measure 71
0101
0000
0010
0100
,  // measure 72
0101
0000
0001
0100
,  // measure 73
0110
0000
0100
0010
,  // measure 74
1001
0100
0010
0001
,  // measure 75
0100
0001
0100
1000
,  // measure 76
0001
0000
0100
0000
0001
0000
0100
0000
0010
0001
0100
0010
0001
0100
0001
0100
,  // measure 77
1000
0000
0010
0000
0001
0000
0100
0000
0010
0001
0100
0010
0001
0100
0001
0100
,  // measure 78
1000
0000
0010
0000
0001
0000
0100
0000
0010
0001
0100
0010
0001
0100
0001
0100
,  // measure 79
1000
0000
0010
0000
0001
0000
0100
0000
0010
0001
0100
0010
0001
1000
0001
0100
,  // measure 80
1000
0000
0100
0000
0001
0000
0100
0000
0010
0001
0100
0010
0001
0100
0001
0100
,  // measure 81
1000
0000
0010
0000
0100
0000
0010
0000
0100
0010
0100
0001
0100
0001
0010
0100
,  // measure 82
0001
0100
0010
0100
0001
0100
0010
0001
,  // measure 83
0100
0100
0001
0001
,  // measure 84
1000
0000
0100
0000
0010
0000
0001
0000
0100
0010
0001
0010
0100
0001
1000
0010
,  // measure 85
0100
0000
0010
0000
0100
0000
0001
0000
1000
0010
0001
0100
0001
0100
0001
0010
,  // measure 86
0100
0100
0010
0001
0100
0001
0100
0010
,  // measure 87
0001
0000
0100
0000
0001
0000
0100
0000
0010
0001
0100
0010
0001
0100
0001
0100
,  // measure 88
1000
0000
0100
0000
0010
0000
0100
0000
0010
0001
0100
0010
0001
1000
0001
0100
,  // measure 89
1000
0000
0100
0000
0001
0000
0010
0000
0100
0010
0001
0100
1000
0010
0100
0001
,  // measure 90
0010
0010
0001
0100
0010
0001
0100
0001
,  // measure 91
0100
0000
0010
0000
0001
0100
0010
0001
1000
0001
0100
0010
0001
0100
0001
0100
,  // measure 92
1000
0100
0001
0100
0001
0010
0100
0001
,  // measure 93
1000
0001
0010
0100
0001
1000
0001
0010
,  // measure 94
0100
0001
0010
0100
0010
0100
0010
0001
,  // measure 95
0100
0001
0100
0010
0001
0100
0001
0100
,  // measure 96
1000
0000
0100
0010
0100
0001
0010
0000
0100
0000
0001
0000
1000
0000
0001
0000
,  // measure 97
0010
0100
0010
0100
0010
0001
0100
0001
,  // measure 98
0100
0010
0100
0010
0001
1000
0001
0100
,  // measure 99
0010
0001
0100
0010
0001
0100
0001
0100
,  // measure 100
1000
0010
0100
0001
0100
0010
0001
0100
,  // measure 101
0001
0100
0010
0001
0100
0001
0100
0010
,  // measure 102
0001
0100
0010
0001
1000
0001
0100
0010
,  // measure 103
0001
0100
0001
0100
0010
0001
0100
0001
,  // measure 104
0100
0000
0010
0001
1000
0001
0100
0000
0010
0000
0100
0000
0001
0000
0100
0000
,  // measure 105
0010
0001
0100
0010
0100
1000
0100
0010
,  // measure 106
0100
0010
0001
0100
0001
0100
0010
0001
,  // measure 107
0100
0001
0100
0010
0001
1000
0001
0100
,  // measure 108
0110
0000
0000
0000
;
