#VERSION:0.83;
#TITLE:when i lie;
#SUBTITLE:;
#ARTIST:Kamile;
#TITLETRANSLIT:;
#SUBTITLETRANSLIT:;
#ARTISTTRANSLIT:;
#GENRE:;
#ORIGIN:;
#CREDIT:;
#BANNER:;
#BACKGROUND:;
#PREVIEWVID:;
#JACKET:;
#CDIMAGE:;
#DISCIMAGE:;
#LYRICSPATH:;
#CDTITLE:;
#MUSIC:When I Lie.ogg;
#OFFSET:0.000000;
#SAMPLESTART:100.059883;
#SAMPLELENGTH:12.000000;
#SELECTABLE:YES;
#BPMS:0.000=146.500,
32.000=73.000,
48.000=146.000,
72.000=73.500,
76.000=145.500;
#STOPS:0.000=0.200,
232.000=1.700;
#DELAYS:;
#WARPS:;
#TIMESIGNATURES:0.000=4=4;
#TICKCOUNTS:0.000=4;
#COMBOS:0.000=1;
#SPEEDS:0.000=1.000=0.000=0;
#SCROLLS:0.000=1.000;
#FAKES:;
#LABELS:0.000=Song Start;
#BGCHANGES:;
#KEYSOUNDS:;
#ATTACKS:
;

//---------------dance-single - ----------------
#NOTEDATA:;
#CHARTNAME:;
#STEPSTYPE:dance-single;
#DESCRIPTION:;
#CHARTSTYLE:;
#DIFFICULTY:Hard;
#METER:14;
#RADARVALUES:0.683596,0.722521,0.345671,0.006778,0.389727,706.000000,655.000000,51.000000,1.000000,0.000000,0.000000,0.000000,0.000000,0.000000,0.683596,0.722521,0.345671,0.006778,0.389727,706.000000,655.000000,51.000000,1.000000,0.000000,0.000000,0.000000,0.000000,0.000000;
#CREDIT:;
#NOTES:
// measure 0
0000
0000
0000
0000
,  // measure 1
0000
0000
0000
0000
,  // measure 2
1000
0000
0000
0010
0000
0000
0100
0000
0001
0000
1000
0000
0100
0000
0001
0000
,  // measure 3
0101
0000
0000
0100
0000
0000
0001
0000
1000
0000
0100
0000
0001
0000
0100
0000
,  // measure 4
0001
0000
0000
0100
0000
0000
0010
0000
0001
0000
0001
0000
0100
0000
0010
0000
,  // measure 5
1001
0000
0000
0010
0000
0000
0100
0000
1000
0000
0001
0000
0100
0000
0010
0000
,  // measure 6
1001
0000
0000
0010
0000
0000
0100
0000
0010
0000
0001
0000
0100
0000
0010
0000
,  // measure 7
1001
0000
0000
0100
0000
0000
0010
0000
0001
0000
1000
0000
0001
0000
0100
0000
,  // measure 8
1000
0000
0100
0000
0001
0010
0100
0001
1000
0000
0100
0000
0001
0000
0010
0000
,  // measure 9
1000
0100
0001
0100
0010
0100
0001
1000
0100
0000
0010
0000
0001
0000
0100
0000
,  // measure 10
0100
0010
0001
1000
0100
0010
0100
0000
0001
0000
1000
0000
0100
0000
0010
0000
,  // measure 11
0001
0000
0200
0000
0300
0000
0100
0001
0100
0000
0010
0000
0001
0000
0100
0000
,  // measure 12
0010
0100
0001
0010
0001
0100
0001
1000
,  // measure 13
0110
0110
0110
0101
,  // measure 14
0100
0010
0001
1000
0001
0100
1000
0010
,  // measure 15
0110
0101
0110
1001
,  // measure 16
0010
0001
0100
0001
0100
0001
0100
1000
,  // measure 17
0011
0110
0110
0101
,  // measure 18
1000
0100
0001
0100
0001
1000
0001
0000
,  // measure 19
1000
0000
0000
0010
0000
0000
0100
0000
0001
0000
0010
0000
0001
0000
0100
0000
,  // measure 20
1100
0000
0001
0100
0010
0000
0001
0000
1000
0000
0001
0000
0100
0000
0010
0000
,  // measure 21
1001
0000
0010
0001
0100
0000
0001
0000
0100
0000
1000
0000
0001
0000
0100
0000
,  // measure 22
1001
0000
0010
0100
0001
0000
1000
0000
0100
0000
0001
0000
0100
0000
0001
0000
,  // measure 23
0001
0000
0010
0100
0001
0000
0100
0000
0001
0000
0100
0000
0001
0000
0100
0000
,  // measure 24
1001
0000
0010
0100
0001
0000
1000
0000
0100
0000
0001
0000
0100
0000
0001
0000
,  // measure 25
0110
0000
0100
0001
0010
0000
0001
0000
1000
0000
0001
0000
0100
0000
0010
0000
,  // measure 26
1001
0000
0010
0100
0010
0000
0001
0000
1000
0000
0001
0000
0100
0000
0010
0000
,  // measure 27
1000
0000
0010
0001
0100
0000
0100
0000
1000
0000
0001
0000
0100
0000
0010
0000
,  // measure 28
1001
0000
0001
0100
0010
0000
0001
0000
0100
0000
0001
0000
0100
0000
0001
0000
,  // measure 29
0110
0000
0001
1000
0100
0000
0001
0000
1000
0000
0001
0000
0100
0000
1000
0000
,  // measure 30
1001
0000
0100
0001
0010
0000
0001
0000
1000
0000
0001
0000
0100
0000
0010
0000
,  // measure 31
1000
0000
0100
0010
0100
0000
0010
0000
1000
0000
0100
0000
0001
0000
0100
0000
,  // measure 32
1001
0000
0010
0100
0001
0000
0100
0000
1000
0000
0001
0000
0100
0000
0010
0000
,  // measure 33
1001
0000
0100
0010
0100
0000
0001
0000
1000
0000
0001
0000
0100
0000
0010
0000
,  // measure 34
1001
0001
0100
0010
0001
1000
0001
0100
,  // measure 35
1000
0000
0100
0000
1000
0000
0001
0100
0010
0100
0001
0000
1000
0000
0000
0000
,  // measure 36
0010
0000
0000
0100
0000
0000
0001
1000
0100
0001
0100
0000
0001
0000
0100
0000
,  // measure 37
1000
0000
0000
0100
0000
0000
0010
0100
0001
0010
0100
0000
0001
0000
0100
0000
,  // measure 38
1000
0000
0000
0001
0010
0000
0100
0001
1000
0100
0001
0000
0010
0000
0100
0000
,  // measure 39
1000
0000
0000
0001
0000
0000
0100
0010
0100
0001
1000
0000
0010
0000
0001
0000
,  // measure 40
1000
0000
0000
0100
0000
0000
0001
0100
0001
1000
0100
0000
0010
0000
0001
0000
,  // measure 41
0100
0000
0000
1000
0000
0000
0001
1000
0001
0100
1000
0000
0100
0000
0001
0000
,  // measure 42
0100
0000
0000
0010
0000
0000
0001
0100
0010
0100
0001
0000
0100
0000
0001
0000
,  // measure 43
1000
0000
0000
0100
0001
0000
0000
0000
0010
0000
0010
0000
0010
0000
0010
0000
,  // measure 44
0010
0000
0100
0001
1000
0100
0010
0000
,  // measure 45
1000
0001
1000
0000
0001
0000
0000
0000
0100
0000
0100
0000
0100
0000
0000
0000
,  // measure 46
0100
0000
0010
0010
0010
0000
1000
0000
,  // measure 47
0100
0000
0001
0001
0001
0001
0001
0000
,  // measure 48
1000
0000
0100
0100
0100
0000
0010
0000
,  // measure 49
0000
0010
0100
0000
0000
1000
0001
0100
,  // measure 50
1000
0001
0010
0000
0000
0100
0001
0100
,  // measure 51
1000
0001
0100
0010
0001
0100
0001
0100
,  // measure 52
0010
0001
1000
0001
0100
0001
1000
0100
,  // measure 53
0100
0010
0001
0100
0010
0001
1000
0001
,  // measure 54
0100
0010
0100
0001
0100
0001
0100
0010
,  // measure 55
0001
1000
0001
0100
0010
0001
1000
0001
,  // measure 56
0100
0010
0001
1000
0001
0100
0010
0001
,  // measure 57
1000
0001
0100
0010
0001
1000
0001
0100
,  // measure 58
1000
0000
0000
0001
0000
0000
0010
1000
0100
0001
0100
0000
0010
0000
0100
0000
,  // measure 59
1000
0000
0001
0100
0001
0000
0010
0100
0001
1000
0100
0000
0100
0000
0010
0000
,  // measure 60
1001
0000
0000
0010
0000
0000
0100
0001
1000
0100
0001
0000
0100
0000
0010
0000
,  // measure 61
1000
0000
0001
0100
0001
0000
0010
0100
0001
0100
1000
0000
0010
0000
0100
0000
,  // measure 62
0001
0000
0000
0010
0000
0000
0100
0000
0010
0100
0001
0000
1000
0000
0100
0000
,  // measure 63
1001
0000
0000
1000
0000
0000
0100
0000
0001
0100
0001
0000
0010
0000
0100
0000
,  // measure 64
1001
0000
0000
0010
0000
0000
0100
0000
0001
1000
0100
0000
0001
0000
0010
0000
,  // measure 65
0110
0000
0000
0001
0000
0000
1000
0000
0100
0001
0010
0000
0100
0000
0001
0000
,  // measure 66
0010
0000
0000
0001
0000
0000
0010
0001
0100
0001
1000
0000
0100
0000
0001
0000
,  // measure 67
1000
0000
0100
0001
1000
0000
0100
0001
0100
0001
1000
0000
0100
0000
0001
0000
,  // measure 68
1001
0000
0000
0010
0000
0000
0100
0001
1000
0001
0010
0000
0100
0000
0001
0000
,  // measure 69
1000
0000
0001
0100
0001
0000
1000
0100
0001
0100
0001
0000
0100
0000
0010
0000
,  // measure 70
1000
0000
0000
0101
0000
0000
0011
0000
1001
0000
0001
0000
0110
0000
0100
0000
,  // measure 71
1001
0000
0000
0110
0000
0000
0110
0000
1001
0000
0001
0000
1001
0000
1000
0000
,  // measure 72
1001
0000
0000
0011
0000
0000
0101
0000
1001
0000
0001
0000
1001
0000
1000
0000
,  // measure 73
1001
0000
0000
0101
0000
0000
1100
0000
0010
0000
0100
0000
1000
0000
0100
0000
,  // measure 74
1000
0000
0000
0000
0000
0000
0100
0001
1000
0001
0010
0000
0100
0000
0010
0000
,  // measure 75
1001
0000
0000
0010
0000
0000
0010
0100
0001
1000
0001
0000
0001
0000
0100
0000
,  // measure 76
1000
0000
0000
0010
0000
0000
0100
0001
0100
1000
0001
0000
0100
0000
0010
0000
,  // measure 77
0100
0000
0000
0001
0000
0000
0100
0010
0001
0100
1000
0000
0001
0000
1000
0000
,  // measure 78
0100
0000
0000
0001
0000
0000
0010
0100
0001
1000
0001
0000
0010
0000
0100
0000
,  // measure 79
0001
0000
0000
0010
0000
0000
0001
0100
0001
1000
0100
0000
0010
0000
0100
0000
,  // measure 80
0001
0000
0000
0010
0000
0000
0100
0001
1000
0001
0010
0000
1000
0000
0100
0000
,  // measure 81
0001
0000
0000
0010
0000
0000
0100
0001
1000
0001
0010
0000
1000
0000
0100
0000
,  // measure 82
0001
0000
0000
0000
;
