#TITLE:what you saying;
#SUBTITLE:;
#ARTIST:Lil Uzi Vert;
#TITLETRANSLIT:;
#SUBTITLETRANSLIT:;
#ARTISTTRANSLIT:;
#GENRE:;
#CREDIT:;
#BANNER:;
#BACKGROUND:;
#LYRICSPATH:;
#CDTITLE:;
#MUSIC:Lil Uzi Vert - What You Saying (Lyrics).ogg;
#OFFSET:0.000000;
#SAMPLESTART:100.059883;
#SAMPLELENGTH:12.000000;
#SELECTABLE:YES;
#BPMS:0.000000=133.000000
;
#STOPS:
;
#BGCHANGES:;
#KEYSOUNDS:;
#ATTACKS:;

//---------------dance-single - ----------------
#NOTES:
     dance-single:
     :
     Hard:
     13:
     0.686980,0.628034,1.425971,0.000000,0.731948,634.000000,446.000000,188.000000,0.000000,0.000000,0.000000,0.686980,0.628034,1.425971,0.000000,0.731948,634.000000,446.000000,188.000000,0.000000,0.000000,0.000000:
// measure 0
0000
0000
0000
0000
,  // measure 1
0000
0000
0000
0000
,  // measure 2
0000
0000
0000
0000
,  // measure 3
0000
0000
0000
0000
,  // measure 4
0100
0000
0000
0100
0000
0100
0000
0000
0010
0000
0000
0010
0000
0010
0000
0000
,  // measure 5
0001
0000
0000
0001
0000
0001
0000
0000
0010
0000
0000
0010
0000
0010
0000
0000
,  // measure 6
0100
0000
0000
0100
0000
0100
0000
0000
1000
0000
0000
1000
0000
1000
0000
0000
,  // measure 7
0100
0001
0100
0001
1000
0001
0010
0100
0001
0010
0001
0100
,  // measure 8
1000
0000
0000
0000
0110
0000
0000
0000
0101
0000
0000
1100
0000
0000
0001
0000
,  // measure 9
1001
0000
0000
0101
0000
0000
0110
0000
0100
0001
1000
0001
,  // measure 10
0010
0000
0000
0000
0000
0000
0000
0000
0000
0000
0000
0000
0110
0000
0000
0000
0000
0000
0000
0000
0000
0000
0000
0000
0011
0000
0000
0000
0000
0000
0000
0000
0000
0100
0000
0000
0001
0000
0000
0000
0010
0000
0000
0000
0100
0000
0000
0000
,  // measure 11
0001
0000
0000
0000
0000
0000
0000
0000
0000
0000
0000
0000
0110
0000
0000
0000
0000
0000
0000
0000
0000
0000
0000
0000
0101
0000
0000
0000
0000
0000
0000
0000
0000
0010
0000
0000
0100
0000
0000
0000
0001
0000
0000
0000
0100
0000
0000
0000
,  // measure 12
1000
0000
0000
0000
0000
0000
0000
0000
0000
0000
0000
0000
0110
0000
0000
0000
0000
0000
0000
0000
0000
0000
0000
0000
0101
0000
0000
0000
0000
0000
0000
0000
0000
0010
0000
0000
0100
0000
0000
0000
0001
0000
0000
0000
1000
0000
0000
0000
,  // measure 13
0100
0000
0000
0000
0000
0000
0000
0000
0000
0000
0000
0000
0011
0000
0000
0000
0000
0000
0000
0000
0000
0000
0000
0000
0110
0000
0000
0000
0000
0000
0000
0000
0000
0010
0000
0000
0001
0000
0000
0000
0100
0000
0000
0000
0001
0000
0000
0000
,  // measure 14
1000
0000
0000
0110
0000
0000
0100
0000
0100
0001
1000
0001
,  // measure 15
0010
0100
0001
0010
0000
0001
0100
0010
0001
1000
0001
0100
,  // measure 16
1000
0000
0000
0000
0110
0000
0000
0000
0101
0000
0000
0110
0000
0000
1001
0000
,  // measure 17
0110
0000
0000
0000
0101
0000
0000
0000
0110
0000
0000
1100
0000
0000
0101
0000
,  // measure 18
0110
0000
0000
0000
0110
0000
0000
0000
0101
0000
0000
0110
0000
0000
1001
0000
,  // measure 19
0110
0000
0000
0000
0110
0000
0000
0000
0101
0000
0000
0110
0000
0000
1001
0000
,  // measure 20
0110
0000
0000
0000
0110
0000
0000
0000
0101
0000
0000
0110
0000
0000
1001
0000
,  // measure 21
0110
0000
0000
0000
0110
0000
0000
0000
0101
0000
0000
0110
0000
0000
1001
0000
,  // measure 22
0110
0000
0000
0000
0110
0000
0000
0000
0101
0000
0000
0110
0000
0000
1001
0000
,  // measure 23
0000
0000
0000
0100
0000
0001
0000
0000
1000
0000
0000
0000
0000
0000
0000
0010
,  // measure 24
0100
0000
0000
0000
0101
0000
0000
0000
0011
0000
0000
0101
0000
0000
0110
0000
,  // measure 25
1010
0000
0000
0000
0110
0000
0000
0000
0011
0000
0000
0011
0000
0000
1001
0000
,  // measure 26
0110
0000
0000
0000
0011
0000
0000
0000
0101
0000
0000
0110
0000
0000
0011
0000
,  // measure 27
1001
0000
0000
0000
0110
0000
0000
0000
0101
0000
0000
1100
0000
0000
0101
0000
,  // measure 28
0110
0000
0000
0000
0110
0000
0000
0000
0101
0000
0000
0110
0000
0000
1001
0000
,  // measure 29
0110
0000
0000
0000
0110
0000
0000
0000
0101
0000
0000
0110
0000
0000
1001
0000
,  // measure 30
0110
0000
0000
0000
0110
0000
0000
0000
0101
0000
0000
0110
0000
0000
1001
0000
,  // measure 31
0010
0000
0000
0010
0000
0000
0100
0010
0001
1000
0001
0100
,  // measure 32
1000
0000
0000
0000
0000
0000
0000
0000
0010
0000
0000
0000
0000
0000
0000
0000
0100
0000
0000
0000
0001
0000
0000
0000
1000
0000
0000
0000
0000
0000
0000
0000
0000
0101
0000
0000
0000
0000
0000
0000
0000
0000
0101
0000
0000
0000
0000
0000
,  // measure 33
0100
0000
0000
0000
0010
0000
0000
0000
0001
0000
0000
0000
1000
0000
0000
0000
0001
0000
0000
0000
0100
0000
0000
0000
1000
0000
0000
0000
0000
0000
0000
0000
0000
0110
0000
0000
0000
0000
0000
0000
0000
0000
0101
0000
0000
0000
0000
0000
,  // measure 34
1000
0000
0000
0000
0100
0000
0000
0000
0001
0000
0000
0000
0000
0000
0000
0000
0010
0000
0000
0000
0100
0000
0000
0000
0001
0000
0000
0000
0000
0000
0000
0000
0000
1001
0000
0000
0000
0000
0000
0000
0000
0000
0110
0000
0000
0000
0000
0000
,  // measure 35
0100
0000
0000
0000
0001
0000
0000
0000
1000
0000
0100
0000
0001
0000
0000
0000
0000
0000
0010
0000
0000
0100
0000
0000
,  // measure 36
0001
0000
0000
0000
1000
0000
0000
0000
0010
0000
0000
0000
0000
0000
0000
0000
0100
0000
0000
0000
0001
0000
0000
0000
0010
0000
0000
0000
0000
0000
0000
0000
0000
1001
0000
0000
0000
0000
0000
0000
0000
0000
0110
0000
0000
0000
0000
0000
,  // measure 37
0010
0000
0100
0000
0001
0000
0000
0000
1000
0000
0100
0000
0001
0000
0000
0010
0000
0000
0100
0000
0000
0001
0000
0000
,  // measure 38
1000
0000
0000
0000
0100
0000
0000
0000
0001
0000
0000
0000
0100
0000
0000
0000
0010
0000
0000
0000
0100
0000
0000
0000
0001
0000
0000
0000
0000
0000
0000
0000
0000
0110
0000
0000
0000
0000
0000
0000
0000
0000
1001
0000
0000
0000
0000
0000
,  // measure 39
0001
0000
0010
0000
0100
0001
1000
0100
0001
1000
0001
0010
,  // measure 40
0100
0000
0000
0000
0010
0000
0000
0000
0001
0000
0000
0000
0100
0000
0000
0000
0001
0000
0000
0000
0100
0000
0000
0000
1000
0000
0000
0000
0000
0000
0000
0000
0000
0101
0000
0000
0000
0000
0000
0000
0000
0000
0110
0000
0000
0000
0000
0000
,  // measure 41
0100
0000
0000
0000
0001
0000
0000
0000
0010
0000
0000
0000
0000
0000
0000
0000
0100
0000
0000
0000
0001
0000
0000
0000
1000
0000
0000
0000
0000
0000
0000
0000
0000
0101
0000
0000
0000
0000
0000
0000
0000
0000
0110
0000
0000
0000
0000
0000
,  // measure 42
0010
0000
0000
0000
0100
0000
0000
0000
0001
0000
0000
0000
0000
0000
0000
0000
1000
0000
0000
0000
0100
0000
0000
0000
0001
0000
0000
0000
0000
0000
0000
0000
0000
0101
0000
0000
0000
0000
0000
0000
0000
0000
0110
0000
0000
0000
0000
0000
,  // measure 43
0010
0000
0000
0000
0100
0000
0000
0000
0001
0000
1000
0000
0100
0000
0000
0000
0000
0000
0001
0000
0000
0010
0000
0000
,  // measure 44
0100
0000
0000
0000
0001
0000
0000
0000
1000
0000
0000
0000
0000
0000
0000
0000
0100
0000
0000
0000
0001
0000
0000
0000
0010
0000
0000
0000
0000
0000
0000
0000
0000
0101
0000
0000
0000
0000
0000
0000
0000
0000
0101
0000
0000
0000
0000
0000
,  // measure 45
1000
0000
0000
0000
0100
0000
0000
0000
0001
0000
0000
0000
0000
0000
0000
0000
0010
0000
0000
0000
0100
0000
0000
0000
0001
0000
0000
0000
0000
0000
0000
0000
0000
1000
0000
0000
0100
0000
0000
0000
0000
0000
0010
0000
0000
0000
0000
0000
,  // measure 46
0100
1000
0001
0100
0010
0100
0001
0000
0000
0000
0000
1000
,  // measure 47
0001
0000
0010
0000
0100
0001
1000
0000
0000
1001
0000
0000
,  // measure 48
0110
0000
0000
0000
0110
0000
0000
0000
0101
0000
0000
0110
0000
0000
1001
0000
,  // measure 49
0110
0000
0000
0000
0110
0000
0000
0000
0101
0000
0000
0110
0000
0000
1001
0000
,  // measure 50
0110
0000
0000
0000
0110
0000
0000
0000
0101
0000
0000
0110
0000
0000
1001
0000
,  // measure 51
0110
0000
0000
0000
0110
0000
0000
0000
0101
0000
0000
0110
0000
0000
1001
0000
,  // measure 52
0110
0000
0000
0000
0110
0000
0000
0000
0101
0000
0000
0110
0000
0000
1001
0000
,  // measure 53
0110
0000
0000
0000
0110
0000
0000
0000
0101
0000
0000
0110
0000
0000
1001
0000
,  // measure 54
0110
0000
0000
0000
0110
0000
0000
0000
0101
0000
0000
0110
0000
0000
1001
0000
,  // measure 55
0000
0000
0000
0010
0000
0100
0000
0000
0001
0000
0000
0000
0000
0000
0000
1000
,  // measure 56
0100
0000
0000
0000
0110
0000
0000
0000
0110
0000
0000
0101
0000
0000
1001
0000
,  // measure 57
0110
0000
0000
0000
0110
0000
0000
0000
0101
0000
0000
0110
0000
0000
1001
0000
,  // measure 58
0110
0000
0000
0000
0110
0000
0000
0000
0101
0000
0000
0110
0000
0000
1001
0000
,  // measure 59
0101
0000
0000
0000
0110
0000
0000
0000
0101
0000
0000
0110
0000
0000
1001
0000
,  // measure 60
0110
0000
0000
0000
0110
0000
0000
0000
0101
0000
0000
0110
0000
0000
0101
0000
,  // measure 61
0110
0000
0000
0000
0110
0000
0000
0000
0101
0000
0000
0110
0000
0000
1001
0000
,  // measure 62
0110
0000
0000
0000
0110
0000
0000
0000
0101
0000
0000
0110
0000
0000
1001
0000
,  // measure 63
0001
0100
0010
0001
1000
0001
0100
0010
0001
1000
0001
0100
,  // measure 64
1000
0000
0000
0000
0110
0000
0000
0000
0110
0000
0000
0101
0000
0000
1100
0000
,  // measure 65
0101
0000
0000
0110
0000
0000
0101
0000
0010
0100
0001
1000
,  // measure 66
0001
0000
0000
0110
0000
0000
0101
0000
0001
0100
0001
1000
,  // measure 67
0001
0000
0000
0110
0000
0000
0101
0000
0010
0100
0001
1000
,  // measure 68
0001
0000
0000
0110
0000
0000
0101
0000
0001
0100
0001
0100
,  // measure 69
1000
0000
0000
0110
0000
0000
0110
0000
0001
1000
0001
0100
,  // measure 70
1000
0000
0000
0110
0000
0000
0110
0000
0001
0100
0001
0100
,  // measure 71
1000
0100
0010
0001
1000
0001
0100
0010
0001
1000
0001
0100
,  // measure 72
1000
0000
0000
0000
;
