#TITLE:what a girl to do;
#SUBTITLE:;
#ARTIST:Dayoung;
#TITLETRANSLIT:;
#SUBTITLETRANSLIT:;
#ARTISTTRANSLIT:;
#GENRE:;
#CREDIT:;
#BANNER:;
#BACKGROUND:;
#LYRICSPATH:;
#CDTITLE:;
#MUSIC:01. Whats a girl to do.ogg;
#OFFSET:0.000000;
#SAMPLESTART:100.059883;
#SAMPLELENGTH:12.000000;
#SELECTABLE:YES;
#BPMS:0.000000=100.000000
;
#STOPS:0.000000=0.200000
;
#BGCHANGES:;
#KEYSOUNDS:;
#ATTACKS:;

//---------------dance-single - ----------------
#NOTES:
     dance-single:
     :
     Hard:
     11:
     0.409361,0.468241,0.038412,0.061459,0.303454,373.000000,368.000000,5.000000,8.000000,0.000000,0.000000,0.409361,0.468241,0.038412,0.061459,0.303454,373.000000,368.000000,5.000000,8.000000,0.000000,0.000000:
// measure 0
0000
0000
0000
0000
,  // measure 1
0000
0000
0000
0000
,  // measure 2
0100
0000
0010
0000
0001
0100
0000
0000
0001
0100
0010
0000
0001
0100
0010
0000
,  // measure 3
0100
0001
0100
0010
0000
0001
0100
0000
,  // measure 4
0000
0010
0100
0001
,  // measure 5
0010
0000
0000
0000
0010
0000
0000
0000
0100
0000
0010
0100
0000
0000
0001
0000
,  // measure 6
0000
1000
0001
0100
,  // measure 7
0100
0000
0000
0000
0010
0000
0000
0000
0100
0000
0010
0100
0000
0000
0001
0000
,  // measure 8
0000
0000
0000
0000
0100
0000
0010
0000
0000
0000
0001
1000
0010
0000
0100
0001
,  // measure 9
0010
0100
0001
0000
0010
0000
0100
0000
0000
0000
1000
0100
0001
0000
0010
0000
,  // measure 10
0100
0010
0100
0000
0001
0000
1000
0000
0000
0000
0010
0001
0000
0010
0000
0100
,  // measure 11
0001
0000
1000
0000
0000
0000
0100
0010
0000
0000
0100
0000
0000
0000
0000
0000
,  // measure 12
0000
0200
0000
0020
,  // measure 13
0330
0000
0000
0000
1000
0100
0000
0001
0000
0010
0000
0001
0000
0100
0000
0010
,  // measure 14
0000
0000
2000
0200
,  // measure 15
3300
0000
0000
0000
0010
0000
0000
0000
0010
0000
0001
0000
0100
0000
0001
1000
,  // measure 16
0000
0000
0000
0000
0000
0000
0100
0001
0010
0100
0001
0000
0010
0000
0100
0000
,  // measure 17
0010
0100
0001
0000
1000
0000
0001
0100
0010
0000
0001
0000
0100
0000
1000
0000
,  // measure 18
0000
0000
0000
0000
0000
0000
0010
0000
0100
0001
0010
0000
0100
0000
0010
0000
,  // measure 19
0001
1000
0100
0000
0010
0000
0100
0001
0010
0000
0001
0000
1000
0000
0100
0000
,  // measure 20
0110
0000
0000
0000
0000
0000
0000
0010
0100
0001
0010
0000
0100
0000
0000
0010
,  // measure 21
0001
1000
0100
0000
0010
0000
0001
0000
1000
0000
0100
0001
0010
0100
0001
0000
,  // measure 22
1000
0000
0100
0001
0010
0100
0001
0000
0010
0000
0100
0000
0010
0000
0100
0001
,  // measure 23
0000
0000
0000
0000
0000
0000
0001
0000
0100
0000
0010
0000
0001
0000
0100
1000
,  // measure 24
0000
0000
0000
1001
,  // measure 25
0010
0100
0001
0100
0010
0001
0100
0110
,  // measure 26
0010
0001
1000
0001
0100
0010
1001
0000
,  // measure 27
0100
0000
0010
0000
0100
0000
0001
0000
0100
0000
0010
0000
1000
0100
0001
0100
,  // measure 28
0001
0000
0100
0000
0010
0000
0100
0001
0010
0000
0100
0000
0001
0000
0010
0000
,  // measure 29
0010
0100
0010
0100
0001
0100
1000
0000
,  // measure 30
0010
0001
0100
0000
0010
0000
0100
0000
0001
0000
0100
0000
1000
0000
0000
0000
,  // measure 31
0001
0100
0010
0001
1000
0001
0100
0000
,  // measure 32
0001
0000
0100
0000
0010
0000
1000
0100
0001
0010
0100
0001
0010
0000
0000
0000
,  // measure 33
0000
0200
0000
0020
,  // measure 34
0330
0000
0000
0000
1000
0100
0000
0001
0000
0010
0000
0100
0000
0010
0000
0001
,  // measure 35
0000
2000
0000
0200
,  // measure 36
3300
0000
0000
0000
0010
0000
0000
0000
0100
0000
0010
0000
0001
0000
1000
0100
,  // measure 37
0000
0000
0000
0000
0000
0000
0001
0100
0010
0100
0001
0000
1000
0000
0100
0000
,  // measure 38
0010
0100
0001
0000
0100
0000
0010
0001
0100
0000
0001
0000
1000
0000
0100
0000
,  // measure 39
0000
0000
0000
0000
0000
0000
0010
0000
0100
0001
0010
0000
0100
0000
0010
0000
,  // measure 40
0010
0001
0100
0000
0010
0000
1000
0001
0100
0000
0001
0000
0100
0000
1000
0000
,  // measure 41
0110
0000
0000
0000
0000
0000
0000
0100
0001
0010
0100
0000
0010
0000
0000
0001
,  // measure 42
1000
0001
0100
0000
0100
0000
0010
0001
0100
0000
0010
0100
0001
0000
1000
0000
,  // measure 43
0010
0000
0001
0000
0100
0000
0010
0000
0001
0000
0100
0000
0010
0000
0100
0001
,  // measure 44
0000
0000
0000
0000
0000
0000
0010
0000
0001
0000
0100
0000
0010
0000
0001
0100
,  // measure 45
0000
0000
0000
0010
0001
0100
0001
1000
,  // measure 46
0100
0000
0010
0001
0100
0000
0010
0000
0001
0000
1000
0000
0001
0000
0100
0000
,  // measure 47
0000
0000
0100
1000
0010
0000
0001
0000
1000
0000
0100
0000
0001
0000
0010
0000
,  // measure 48
0001
0000
0100
0000
0010
0000
0100
0001
0000
0000
0100
0001
1000
0001
0010
0100
,  // measure 49
0001
0000
0000
0010
0001
1000
0001
0100
,  // measure 50
0010
0000
0001
0100
1000
0000
0010
0000
0001
0000
1000
0000
0001
0000
0100
0000
,  // measure 51
0010
0000
0001
1000
0100
0000
0010
0000
0001
0000
0100
0000
0010
0000
0100
0000
,  // measure 52
0001
0000
0100
0000
0010
0000
0000
0001
0100
0000
0010
0100
0001
1000
0001
0010
,  // measure 53
0100
0000
0000
0000
;
