#VERSION:0.83;
#TITLE:want it;
#SUBTITLE:;
#ARTIST:Awesum;
#TITLETRANSLIT:;
#SUBTITLETRANSLIT:;
#ARTISTTRANSLIT:;
#GENRE:;
#ORIGIN:;
#CREDIT:;
#BANNER:;
#BACKGROUND:;
#PREVIEWVID:;
#JACKET:;
#CDIMAGE:;
#DISCIMAGE:;
#LYRICSPATH:;
#CDTITLE:;
#MUSIC:want it.ogg;
#OFFSET:0.000000;
#SAMPLESTART:100.059883;
#SAMPLELENGTH:12.000000;
#SELECTABLE:YES;
#BPMS:0.000=103.000;
#STOPS:;
#DELAYS:;
#WARPS:;
#TIMESIGNATURES:0.000=4=4;
#TICKCOUNTS:0.000=4;
#COMBOS:0.000=1;
#SPEEDS:0.000=1.000=0.000=0;
#SCROLLS:0.000=1.000;
#FAKES:;
#LABELS:0.000=Song Start;
#BGCHANGES:;
#KEYSOUNDS:;
#ATTACKS:
;

//---------------dance-single - ----------------
#NOTEDATA:;
#CHARTNAME:;
#STEPSTYPE:dance-single;
#DESCRIPTION:;
#CHARTSTYLE:;
#DIFFICULTY:Hard;
#METER:12;
#RADARVALUES:0.407943,0.569571,0.014302,0.042906,0.226446,599.000000,596.000000,3.000000,9.000000,0.000000,0.000000,0.000000,0.000000,0.000000,0.407943,0.569571,0.014302,0.042906,0.226446,599.000000,596.000000,3.000000,9.000000,0.000000,0.000000,0.000000,0.000000,0.000000;
#CREDIT:;
#NOTES:
// measure 0
0000
0000
0000
0000
,  // measure 1
0000
0000
0000
0000
,  // measure 2
0000
0000
0000
0000
,  // measure 3
0000
0000
0000
0000
,  // measure 4
0001
0000
1000
0000
0001
0000
0100
0110
,  // measure 5
0001
0100
0010
0001
,  // measure 6
0100
0000
0001
0000
0100
0000
0010
0110
,  // measure 7
0001
0000
0010
0100
0001
0000
1000
0100
0001
0000
0000
0000
0000
0000
0000
0000
,  // measure 8
0100
0001
0010
0000
0010
0000
0001
0000
1000
0000
0001
0000
0100
0000
0010
0000
,  // measure 9
0010
0000
0100
0000
0010
0000
0100
0002
,  // measure 10
0000
0000
0003
1000
,  // measure 11
0000
0000
0001
0100
0010
0000
0100
0000
0000
0000
0010
0000
0100
0000
0001
0000
,  // measure 12
0100
0001
0010
0000
0100
0000
0010
0000
0100
0001
0010
0000
0100
0000
0001
0000
,  // measure 13
0010
0100
0010
0001
0100
0001
0100
1000
,  // measure 14
0100
0010
0001
0100
0000
0000
0001
0100
,  // measure 15
0000
0000
0010
0100
0001
0000
0001
0010
0100
0000
0010
0001
0100
0000
0010
0100
,  // measure 16
0001
1000
0000
1000
0001
0100
0010
0001
,  // measure 17
1000
0000
0100
0000
0000
0000
0010
0100
0001
0010
0100
0000
0100
0000
0010
0000
,  // measure 18
1000
0100
0001
0000
0010
0000
0000
0100
0001
0000
0000
0000
0000
0000
1000
0000
,  // measure 19
0100
0000
0000
0001
0010
0000
0000
0100
0001
0000
0000
0100
0010
0000
0100
0000
,  // measure 20
0010
0000
0000
0000
0100
0000
0000
0000
0010
0000
0100
0001
0010
0000
0000
0000
,  // measure 21
0010
0001
0100
0000
0010
0000
0001
1000
0100
0010
0100
0000
0010
0000
0100
0001
,  // measure 22
1000
0001
0010
0000
0010
0000
0001
0100
0001
1000
0100
0010
0100
0000
0010
0000
,  // measure 23
0100
0010
0001
1000
0100
0001
0010
0000
0000
0000
0100
0001
1000
0001
0010
0000
,  // measure 24
0100
0000
0010
0000
0100
0000
0001
0000
0010
0000
0100
0001
0000
0000
1000
0000
,  // measure 25
0000
0000
1000
0000
0001
0000
0100
0000
0010
0000
0100
0001
0000
0000
0010
0000
,  // measure 26
0100
0000
0000
0000
0001
0010
0100
0000
0000
0000
0010
0000
0001
0000
0000
0000
,  // measure 27
0100
0010
0001
0100
0000
0010
0002
0000
,  // measure 28
0003
0010
0100
0010
0001
0100
1000
0000
,  // measure 29
0010
0001
0100
0001
0100
0000
1000
0000
,  // measure 30
0100
0001
1000
0001
0010
0000
0100
0001
0000
0000
0010
0100
0001
0000
0000
0000
,  // measure 31
0010
0000
0100
0001
1000
0000
0100
0001
0010
0000
0100
0001
0010
0000
0100
0001
,  // measure 32
1000
0010
0100
0000
0100
0000
0010
0000
0001
0000
0100
0000
1000
0010
0100
0000
,  // measure 33
0001
0000
0100
0000
0010
0000
0001
0200
,  // measure 34
0000
0000
0000
0000
0300
0000
0010
0001
,  // measure 35
1000
0000
0001
0000
0100
0000
0010
0000
0000
0000
0100
0001
0010
0000
0100
0000
,  // measure 36
0010
0100
0001
0000
0010
0000
0100
0000
0010
0001
0100
0000
0001
0000
0100
0000
,  // measure 37
0000
0010
0100
0010
0001
0100
0001
1000
,  // measure 38
0100
0001
1000
0001
0000
0000
0000
0010
,  // measure 39
0100
0000
0000
0100
0001
0000
1000
0000
,  // measure 40
0100
0001
0010
0000
0010
0000
0100
0000
0001
0000
0100
0001
0010
0000
0010
0000
,  // measure 41
0001
0000
0100
0000
0010
0000
0100
0002
,  // measure 42
0000
0000
0000
0000
0003
0000
0010
0001
,  // measure 43
0100
0010
0001
0010
0000
0001
0100
0010
,  // measure 44
0001
0010
0100
0000
0010
0000
0001
0000
0100
0010
0100
0000
0100
0000
0010
0000
,  // measure 45
0001
0100
0010
0001
0100
0001
0100
1000
,  // measure 46
0010
0001
1000
0100
0000
0000
0000
0010
,  // measure 47
0100
0000
0001
1000
0100
0000
0001
0100
0001
0000
0010
0100
0001
0000
1000
0100
,  // measure 48
0001
0000
0000
0010
0000
0000
0100
0000
0000
0000
0000
0000
0000
0000
1001
0000
,  // measure 49
0100
0000
0000
0100
0001
0000
0100
0000
0010
0000
0100
0000
0001
0000
1000
0000
,  // measure 50
0100
0000
0010
0000
0001
0000
1000
0100
0001
0000
0100
0000
0010
0000
0100
0000
,  // measure 51
0010
0000
0001
0000
0100
0000
1000
0000
0000
0000
0100
0001
1000
0001
0010
0000
,  // measure 52
0100
0010
0100
0000
0000
0000
0010
0100
0001
1000
0001
0000
0100
0000
1000
0000
,  // measure 53
0000
0000
0010
0001
1000
0001
0100
0000
0010
0000
0010
0100
0001
1000
0001
0000
,  // measure 54
0010
0000
0100
0000
0000
0000
0010
0100
0001
0000
1000
0000
0000
0000
0100
0001
,  // measure 55
1000
0000
0010
0000
0000
0000
0100
0000
1000
0000
0000
0001
0000
0000
0100
0000
,  // measure 56
0010
0000
0001
0100
1000
0000
0100
0000
0010
0000
0000
0000
0010
0000
0000
0000
,  // measure 57
0001
1000
0001
0100
0010
0000
0001
0000
0100
0000
0000
0000
0000
0000
0000
0000
,  // measure 58
0100
0010
0001
0100
1000
0000
0000
0000
0001
0000
0000
0000
0100
0000
0000
0000
,  // measure 59
0010
0100
0001
1000
0100
0000
0010
0000
0001
0000
0100
0000
0001
0000
0100
0000
,  // measure 60
2000
0000
3000
0100
0001
0010
0100
1000
,  // measure 61
0200
0000
0000
0000
0300
0000
0001
0000
1000
0000
0001
0000
0100
0010
1000
0001
,  // measure 62
0010
0100
0000
0001
0000
1000
0100
0010
,  // measure 63
0100
0000
0001
1000
0100
0000
0001
0100
0010
0000
0001
0100
0010
0000
0001
0100
,  // measure 64
1000
0010
0100
0000
0001
0000
0100
0000
0010
0000
0001
0000
1000
0000
0001
0000
,  // measure 65
0100
0000
0100
0000
0001
0000
0100
2000
,  // measure 66
0000
0000
0000
0000
3000
0000
0100
0001
,  // measure 67
0010
0001
0100
0010
0000
0001
0000
0100
,  // measure 68
0010
0100
0001
0000
0010
0000
0100
0000
0010
0001
0100
0000
0100
0000
0010
0000
,  // measure 69
0000
0100
0010
0001
1000
0001
0100
0010
,  // measure 70
0001
1000
0001
0100
0000
0000
0000
0001
,  // measure 71
0100
0000
0000
0010
0001
0000
0100
0000
,  // measure 72
0100
0001
0010
0000
0100
0000
0010
0000
0001
0000
1000
0000
0001
0000
0100
0000
,  // measure 73
1000
0000
0010
0000
0100
0000
0010
0002
,  // measure 74
0000
0000
0000
0000
0003
0000
0100
1000
,  // measure 75
0010
0001
0100
0010
0000
0001
0000
0100
,  // measure 76
0010
0100
0001
0000
0100
0000
0010
0000
0001
1000
0100
0000
0100
0000
0010
0000
,  // measure 77
0000
0100
0010
0001
0100
0001
0100
1000
,  // measure 78
0010
0001
0100
1000
0000
0000
0000
0010
,  // measure 79
0001
0000
0000
0100
0010
0000
0001
0000
,  // measure 80
0010
0010
0000
0000
0100
0100
0100
0000
,  // measure 81
0010
0010
0000
0000
1000
1000
0000
0000
,  // measure 82
0001
0001
0000
0000
0100
0100
0100
0100
,  // measure 83
0010
0010
0010
0000
0100
0100
0100
0000
,  // measure 84
0100
0100
0000
0000
1000
1000
0000
0000
,  // measure 85
0100
0000
0100
0000
0000
0000
0000
0000
0010
0000
0010
0000
0100
0001
1000
0001
,  // measure 86
0010
0010
0000
0000
0100
0100
0000
0000
,  // measure 87
0010
0000
0100
0001
1000
0000
0100
0001
0010
0000
0100
0001
0010
0000
0100
0001
,  // measure 88
0020
0000
0030
0000
;
