#TITLE:vivarium;
#SUBTITLE:;
#ARTIST:Ado;
#TITLETRANSLIT:;
#SUBTITLETRANSLIT:;
#ARTISTTRANSLIT:;
#GENRE:;
#CREDIT:;
#BANNER:;
#BACKGROUND:;
#LYRICSPATH:;
#CDTITLE:;
#MUSIC:vivarium.ogg;
#OFFSET:0.000000;
#SAMPLESTART:100.059883;
#SAMPLELENGTH:12.000000;
#SELECTABLE:YES;
#BPMS:0.000000=194.000000
,192.000000=196.000000
,244.000000=194.000000
,325.000000=200.000000
,336.000000=194.000000
,368.000000=196.000000
,384.000000=194.000000
,528.000000=200.000000
,544.000000=194.000000
,608.000000=196.000000
;
#STOPS:0.000000=0.900000,
104.000000=1.000000,
507.000000=0.450000
;
#BGCHANGES:;
#KEYSOUNDS:;
#ATTACKS:;

//---------------dance-single - ----------------
#NOTES:
     dance-single:
     :
     Hard:
     12:
     0.641865,0.717081,0.246420,0.336774,0.034909,1094.000000,1034.000000,60.000000,82.000000,0.000000,0.000000,0.641865,0.717081,0.246420,0.336774,0.034909,1094.000000,1034.000000,60.000000,82.000000,0.000000,0.000000:
// measure 0
0000
0000
0000
0000
,  // measure 1
0000
0000
0000
0000
,  // measure 2
1001
0000
0000
1001
0000
0000
1001
0000
0000
0000
0000
0000
1000
0000
1000
0000
,  // measure 3
0101
0000
0000
0101
0000
0000
0101
0000
0000
0000
0000
0000
0100
0000
1000
0000
,  // measure 4
0101
0000
0000
0101
0000
0000
0101
0000
0000
0000
0000
0000
0010
0100
0000
0000
,  // measure 5
0101
0000
0000
0101
0000
0000
0101
0000
0000
0000
0000
0000
0100
0000
1000
0000
,  // measure 6
0110
0000
0000
0110
0000
0000
0110
0000
0000
0000
0000
0000
1000
0000
0100
0000
,  // measure 7
0101
0000
0000
0101
0000
0000
0101
0000
0000
0000
0000
0000
1000
0000
0100
0000
,  // measure 8
0101
0000
0000
0101
0000
0000
0101
0000
0000
0000
0000
0000
0001
0000
0010
0000
,  // measure 9
0110
0000
0000
0110
0000
0000
0110
0000
0000
0000
0000
0000
0020
0000
0000
0000
,  // measure 10
0200
0000
0000
0000
0330
0000
0100
0010
,  // measure 11
0000
0000
0000
0010
0001
0100
0001
0100
,  // measure 12
1000
0000
0100
0001
0000
0100
0000
0010
,  // measure 13
0000
0100
0010
0001
1000
0001
0100
1000
,  // measure 14
0100
0000
0010
0001
0000
0100
0000
0010
,  // measure 15
0100
0001
1000
0001
0010
0100
0001
0000
,  // measure 16
0100
0010
0001
0100
0001
0100
1000
0000
,  // measure 17
0001
0100
0001
0100
0001
0100
2000
0000
,  // measure 18
0200
0000
0000
0000
3300
0100
0010
0010
,  // measure 19
0000
0000
0000
0001
0100
0001
0100
1000
,  // measure 20
0100
0000
0001
0100
0000
0001
0000
0100
,  // measure 21
0000
1000
0001
0100
0001
0100
1000
0100
,  // measure 22
0001
0000
0100
0001
0000
0001
0000
0100
,  // measure 23
0100
0001
0001
1000
,  // measure 24
0100
0000
0001
0100
0000
0001
0000
0100
,  // measure 25
0000
0010
0200
0000
0000
0000
0000
0000
,  // measure 26
0300
0001
0100
0010
0001
1000
0001
0100
,  // measure 27
1000
0010
0001
0100
0010
0001
0100
0001
,  // measure 28
0100
1000
0100
0010
0100
0001
0100
0001
,  // measure 29
0100
0010
0001
1000
0001
0100
0010
0001
,  // measure 30
0100
0001
0100
0010
0001
1000
0001
0100
,  // measure 31
0010
0001
0100
0001
0100
1000
0001
0100
,  // measure 32
0010
0000
0000
0100
0002
0000
0003
1000
,  // measure 33
0200
0000
0300
0010
0200
0000
0300
0010
,  // measure 34
0002
0000
0003
0100
2000
0000
3000
0001
,  // measure 35
0200
0000
0300
0010
0200
0000
0301
0000
,  // measure 36
1000
0000
0100
0001
0000
0100
0000
1000
,  // measure 37
0000
0001
0000
0100
0000
0010
0000
0001
,  // measure 38
0000
0000
0010
0001
0000
0100
0000
0010
,  // measure 39
0000
0001
0100
0001
1000
0100
0001
0100
,  // measure 40
2000
0000
3000
0100
0002
0000
0003
0100
,  // measure 41
0020
0000
0030
0100
0002
0000
0003
1000
,  // measure 42
0100
0001
0100
0001
0100
0001
1000
0001
,  // measure 43
0010
0010
0100
0010
0001
0100
0001
0100
,  // measure 44
1000
0010
0100
0010
0001
0100
0001
0100
,  // measure 45
1000
0010
0100
0010
0001
0100
0001
0100
,  // measure 46
1000
0001
1000
0001
0100
0010
0001
0100
,  // measure 47
0001
0100
0010
0001
1000
0001
0100
0010
,  // measure 48
0001
0000
0100
0000
0010
0001
1000
0001
,  // measure 49
0100
0001
0010
0000
0100
0000
0000
0001
,  // measure 50
0100
0010
0001
1000
0001
0100
0001
1000
,  // measure 51
0100
0000
0010
0000
0001
0000
0000
0100
,  // measure 52
0000
0001
0010
0100
0001
1000
0100
0000
,  // measure 53
0001
1000
0001
0100
0001
0000
1000
0100
,  // measure 54
0000
0010
0000
0000
0100
0001
1000
0001
,  // measure 55
0010
0100
0001
0000
1000
0000
0000
0100
,  // measure 56
0001
0000
0010
0000
0100
0001
0001
0100
,  // measure 57
1000
0010
0001
0100
0001
0100
1000
0100
,  // measure 58
0101
0000
0110
0000
0100
0001
0100
0010
,  // measure 59
0001
1000
0001
0100
1000
0001
0100
0010
,  // measure 60
0100
0001
1000
0100
,  // measure 61
0001
0100
0001
0010
,  // measure 62
0100
0001
0100
0001
1000
0100
0100
0010
,  // measure 63
0100
0001
0100
0010
0001
0100
0001
0100
,  // measure 64
0010
0001
1000
0001
0100
0100
0010
0000
,  // measure 65
0000
0001
0010
0100
,  // measure 66
0002
0013
0200
0310
,  // measure 67
0002
1003
0002
0103
,  // measure 68
0020
0000
0100
0000
0130
0000
0100
0001
,  // measure 69
0000
0100
0010
0001
,  // measure 70
2000
0000
3100
0000
0010
0000
0100
0001
,  // measure 71
0010
1000
0001
0100
,  // measure 72
0000
0010
0000
0100
,  // measure 73
0000
0100
0010
0001
,  // measure 74
2000
3100
0002
0103
,  // measure 75
0020
0130
0200
1300
,  // measure 76
0002
0010
0013
0200
,  // measure 77
0301
0010
0100
0001
,  // measure 78
1000
0001
0100
0020
,  // measure 79
0031
1000
0200
0301
,  // measure 80
2002
0000
0000
0000
,  // measure 81
0000
0000
3003
0000
0000
0000
0100
0010
,  // measure 82
1000
0001
0100
0010
0001
1000
0001
0100
,  // measure 83
1000
0010
0100
0001
0001
0000
0100
0000
,  // measure 84
0020
0000
0000
0000
0030
0010
0100
0000
,  // measure 85
0000
0000
0000
0010
0001
1000
0001
0100
,  // measure 86
1000
0000
0010
0001
0000
0100
0000
0010
,  // measure 87
0000
0001
0000
0000
0000
0000
1000
0100
,  // measure 88
0001
0000
0100
0001
0000
0010
0000
0100
,  // measure 89
0000
0001
0000
0010
0000
0100
0000
0001
,  // measure 90
0000
0010
0000
0001
0000
0100
0000
0010
,  // measure 91
0001
1000
0001
0100
1000
0000
0100
0000
,  // measure 92
0020
0000
0000
0000
0030
0000
0100
0001
,  // measure 93
0000
0000
0100
1000
0001
0100
0001
0100
,  // measure 94
1000
0000
0100
0001
0000
0010
0000
0001
,  // measure 95
0000
1000
0000
0000
0000
0000
0100
0001
,  // measure 96
0100
0000
0010
0100
0000
0001
0000
0100
,  // measure 97
1000
0100
0001
1000
,  // measure 98
0100
0000
0001
0100
0000
0010
0000
0001
,  // measure 99
0000
0100
0001
0100
1000
0000
0000
0000
,  // measure 100
0100
0010
0001
1000
0001
0100
0010
0001
,  // measure 101
0100
0001
0100
0010
0001
1000
0001
0100
,  // measure 102
0010
0001
0100
0001
0100
0001
0100
0010
,  // measure 103
0001
1000
0001
0100
0010
0001
1000
0001
,  // measure 104
0100
0010
0001
0100
0001
0100
0010
0001
,  // measure 105
0100
0001
0100
1000
0100
0010
0100
0001
,  // measure 106
0100
0001
0100
0001
0100
0001
0100
0010
,  // measure 107
0001
1000
0001
0100
0010
0001
0100
0001
,  // measure 108
0100
0010
0001
0100
0001
0100
0010
0001
,  // measure 109
1000
0001
0100
0010
0001
0100
0001
0100
,  // measure 110
1000
0000
0000
0000
,  // measure 111
0001
0100
0010
0001
1000
0001
0100
0010
,  // measure 112
0001
0100
0010
0001
0100
0001
0100
0010
,  // measure 113
0001
1000
0001
0100
0010
0001
1000
0001
,  // measure 114
0100
0010
0001
0100
0001
0100
0001
0100
,  // measure 115
1000
0010
0100
0010
0001
1000
0001
0100
,  // measure 116
0010
0001
0100
0001
0100
0010
0001
1000
,  // measure 117
0001
0100
0010
0001
0100
0001
0100
0010
,  // measure 118
0001
1000
0001
0100
0010
0001
0100
0001
,  // measure 119
0100
0010
0001
1000
0001
0100
0010
0001
,  // measure 120
0100
0001
0100
0010
0001
1000
0001
0100
,  // measure 121
0010
0001
0100
0001
0100
0010
0001
0100
,  // measure 122
0001
0100
0010
0001
1000
0001
0100
0010
,  // measure 123
0001
0100
0001
0100
0010
0001
1000
0001
,  // measure 124
0100
0010
0001
0100
0001
0100
0010
0001
,  // measure 125
1000
0001
0100
0010
0001
0100
0001
0100
,  // measure 126
0010
0001
1000
0001
0100
0010
0000
0000
,  // measure 127
1001
0000
0000
1001
0000
0000
1001
0000
0000
0000
0000
0000
0100
0000
0001
0000
,  // measure 128
1002
0003
0000
1001
0000
0000
1001
0000
0000
0000
0100
0000
0001
0000
0000
0000
,  // measure 129
1001
0000
0000
1001
0000
0000
1001
0000
0000
0000
0000
0000
0010
0000
0100
0000
,  // measure 130
0101
0000
0000
0101
0000
0000
0101
0000
0000
0000
0000
0000
1000
0000
0100
0000
,  // measure 131
0101
0000
0000
0101
0000
0000
0101
0000
0000
0000
0000
0000
0100
0000
1000
0000
,  // measure 132
0110
0000
0000
0110
0000
0000
0110
0000
0000
0000
0000
0000
0001
0000
0010
0000
,  // measure 133
0110
0000
0000
0110
0000
0000
0110
0000
0000
0000
0000
0000
1000
0000
0100
0000
,  // measure 134
0101
0000
0000
0101
0000
0000
0101
0000
0000
0000
0001
0000
0100
0000
0000
0000
,  // measure 135
0000
1000
0100
0001
,  // measure 136
0002
0003
0200
0300
,  // measure 137
0200
0300
0020
0030
,  // measure 138
0002
0000
0000
0000
0003
0000
0001
0100
,  // measure 139
0000
0100
0010
0001
,  // measure 140
0110
0110
0101
0101
,  // measure 141
1000
0001
0100
2000
,  // measure 142
0000
0000
0200
0000
3300
0000
0000
0100
,  // measure 143
0001
0001
0100
0010
,  // measure 144
2002
3003
0020
0030
,  // measure 145
0002
0003
0200
0300
,  // measure 146
2000
0000
3000
0020
,  // measure 147
0030
0100
0001
0100
,  // measure 148
1000
0100
0000
0220
,  // measure 149
0330
0001
0200
0300
,  // measure 150
2002
3003
0202
0303
,  // measure 151
0220
0000
0330
0000
0100
0001
0000
2000
,  // measure 152
0100
3100
0002
0013
,  // measure 153
0002
1003
0020
0130
,  // measure 154
0002
0000
0010
0000
0013
0000
0100
0001
,  // measure 155
0000
0100
0010
0001
,  // measure 156
2000
0000
3100
0000
0200
0000
0301
0010
,  // measure 157
0100
0010
0100
0001
,  // measure 158
0000
1000
0100
0000
0000
0000
0020
0000
,  // measure 159
0030
0100
0001
0010
,  // measure 160
0200
0301
0020
1030
,  // measure 161
0200
0301
0020
0130
,  // measure 162
0200
0001
0301
0020
,  // measure 163
0130
0001
1000
0100
,  // measure 164
0010
0002
1003
0002
,  // measure 165
0103
0010
2000
3100
,  // measure 166
0200
0001
0301
0020
,  // measure 167
0130
0001
0001
0100
,  // measure 168
1000
2000
3000
0200
,  // measure 169
0300
0010
0002
0003
,  // measure 170
1000
0100
0001
0100
0001
0010
0100
0001
,  // measure 171
0100
0010
0001
1000
0001
0100
0010
0001
,  // measure 172
0100
0001
0100
0010
0001
1000
0001
0100
,  // measure 173
0010
0001
0100
0001
0100
0010
0001
1000
,  // measure 174
0001
0100
0010
0001
0100
0001
0100
0010
,  // measure 175
0001
1000
0001
0100
0010
0100
0001
0000
,  // measure 176
0200
0000
0000
0000
,  // measure 177
0020
0000
0000
0000
,  // measure 178
0000
0000
0000
0000
,  // measure 179
0000
0000
0000
0330
,  // measure 180
0100
0001
0100
0010
0001
1000
0001
0100
,  // measure 181
0010
0001
0100
0001
0100
0010
0001
1000
,  // measure 182
0001
0100
0010
0001
0100
0001
0100
0010
,  // measure 183
0001
1000
0001
0100
0010
0001
0100
0001
,  // measure 184
0100
0010
0001
0100
0001
0100
0010
0001
,  // measure 185
1000
0001
0100
0010
0001
0100
0001
0100
,  // measure 186
0010
0001
1000
0001
0100
0010
0001
0100
,  // measure 187
0001
0100
0010
0001
1000
0001
0100
0010
,  // measure 188
0001
0100
0001
0100
0010
0100
0001
1000
,  // measure 189
0001
0100
0010
0001
0100
0001
0100
0010
,  // measure 190
0001
1000
0001
0100
0010
0001
0100
0001
,  // measure 191
0100
0010
0001
1000
0001
0100
0010
0001
,  // measure 192
0100
0001
0100
0010
0001
1000
0001
0100
,  // measure 193
0010
0001
0100
0001
0100
0010
1000
0001
,  // measure 194
0100
0000
0000
0000
;
