#TITLE:videostar;
#SUBTITLE:;
#ARTIST:Rouri404;
#TITLETRANSLIT:;
#SUBTITLETRANSLIT:;
#ARTISTTRANSLIT:;
#GENRE:;
#CREDIT:;
#BANNER:;
#BACKGROUND:;
#LYRICSPATH:;
#CDTITLE:;
#MUSIC:rouri404 - videostar.ogg;
#OFFSET:0.000000;
#SAMPLESTART:100.059883;
#SAMPLELENGTH:12.000000;
#SELECTABLE:YES;
#BPMS:0.000000=128.000000
;
#STOPS:
;
#BGCHANGES:0.000=rouri404 - videostar.mp4=1.000=0=0=1=====,
99999=-nosongbg-=1.000=0=0=0 // don't automatically add -songbackground-
;
#KEYSOUNDS:;
#ATTACKS:;

//---------------dance-single - ----------------
#NOTES:
     dance-single:
     :
     Hard:
     12:
     0.492797,0.530935,0.035996,0.041995,0.098988,575.000000,569.000000,6.000000,7.000000,0.000000,0.000000,0.492797,0.530935,0.035996,0.041995,0.098988,575.000000,569.000000,6.000000,7.000000,0.000000,0.000000:
// measure 0
0000
0000
0000
0000
,  // measure 1
0000
0000
0000
0000
,  // measure 2
0000
0000
0000
0000
,  // measure 3
0000
0000
0000
0000
,  // measure 4
0010
0001
0100
0001
0100
0010
0001
1000
,  // measure 5
0001
0100
0010
0001
1000
0001
0100
0010
,  // measure 6
0001
1000
0001
0100
0010
0001
0100
0001
,  // measure 7
0100
0000
0010
0000
1000
0000
0001
0000
0100
0000
0010
0000
1000
0000
0001
0100
,  // measure 8
0010
0010
0001
1000
0001
0100
0010
0001
,  // measure 9
0100
0001
0100
0010
0100
0100
0100
1000
,  // measure 10
0001
0100
0010
0001
0100
0001
0100
0010
,  // measure 11
0001
1000
0001
0100
0010
0001
0100
0001
,  // measure 12
0100
0010
0001
1000
0001
0100
0010
0001
,  // measure 13
0100
0001
0100
0010
0001
1000
0001
0100
,  // measure 14
0010
0001
1000
0001
0100
0010
0001
1000
,  // measure 15
0001
0100
0010
0001
1000
0001
0100
0010
,  // measure 16
1000
0000
0100
0000
0001
0000
0000
0100
0001
0010
0100
0000
0001
0000
0100
0000
,  // measure 17
0010
0001
1000
0001
0100
0010
0001
0100
,  // measure 18
1000
0000
0001
0000
0100
0000
0000
0100
0001
1000
0001
0000
0010
0000
0001
0000
,  // measure 19
1000
0000
0001
0000
0100
0000
0010
0001
1000
0100
0001
0000
0010
0000
0100
0000
,  // measure 20
0001
0000
0010
0000
0001
0000
0000
0100
1000
0001
0010
0000
0010
0000
0001
0000
,  // measure 21
0100
0010
0001
1000
0001
0100
0001
0100
,  // measure 22
1000
0000
1001
0000
0001
0000
0000
0001
0100
0010
0100
0000
0010
0000
0001
0000
,  // measure 23
0100
0001
0100
0010
0001
1000
0001
0100
,  // measure 24
1000
0001
1001
0001
0100
0010
0110
0010
,  // measure 25
0100
0001
0000
0000
1000
0100
0000
0000
0001
0010
0000
0000
0100
0001
0000
0000
,  // measure 26
0100
0010
0001
1000
0001
0100
0010
0001
,  // measure 27
1000
0001
0100
0010
0001
1000
0001
0100
,  // measure 28
0100
0010
0110
0010
1000
0001
1001
0010
,  // measure 29
0100
0001
0000
0000
1000
0100
0000
0000
0001
0010
0000
0000
0100
0001
0000
0000
,  // measure 30
0000
0000
0100
0010
0001
1000
0001
0100
,  // measure 31
1000
0010
0001
1000
0001
0100
1000
0010
,  // measure 32
0100
0001
1000
0000
0001
1000
0001
0100
,  // measure 33
1000
0000
0100
0001
0000
0000
1000
0000
,  // measure 34
0100
0010
0001
0100
1000
0000
0001
0100
,  // measure 35
0010
0000
0100
0001
0000
0000
0000
0000
,  // measure 36
0000
0000
0010
0000
0001
1000
0100
0001
,  // measure 37
0010
0000
0000
0000
0001
0000
0100
0000
1000
0001
1000
0001
1000
0000
0000
0000
,  // measure 38
0001
1000
0001
0100
1000
0000
0001
0100
,  // measure 39
0010
0000
0001
0000
0100
0000
0010
0000
1000
0100
0001
1000
0001
0010
0100
0000
,  // measure 40
0010
0100
0001
1000
0001
0000
0100
0000
,  // measure 41
0010
0001
1000
0001
0100
0000
0010
0000
,  // measure 42
0001
1000
0001
0100
1000
0000
0100
0000
,  // measure 43
0010
0001
1000
0001
0100
0000
0010
0000
,  // measure 44
0001
0100
0001
0100
1000
0001
0010
0100
,  // measure 45
0001
1000
0001
0100
1000
0010
0001
0100
,  // measure 46
0010
0001
1000
0001
0100
0010
0001
1000
,  // measure 47
0001
0100
0010
0001
1000
0001
0100
0010
,  // measure 48
1001
0010
0100
0001
0100
0010
0001
1000
,  // measure 49
0001
0000
0100
0000
0010
0000
1000
0100
0000
0001
0010
0100
0001
0000
0010
0000
,  // measure 50
0001
0100
0010
0001
1000
0001
0100
0010
,  // measure 51
0001
1000
0001
0100
0010
0001
1000
0001
,  // measure 52
0100
0000
0010
0000
1000
0000
0100
0001
0000
0010
0100
0001
1000
0000
0010
0000
,  // measure 53
0001
0000
0100
0000
0010
0000
0100
0001
1000
0000
0010
0000
0001
0000
0100
0000
,  // measure 54
1000
0000
0010
0000
0100
1000
0000
0100
0001
0000
0001
0000
0100
0000
0010
0000
,  // measure 55
0100
0001
1000
0001
1000
0001
0100
0001
,  // measure 56
0100
0010
0001
1000
0100
0000
0001
0000
,  // measure 57
0100
2000
0000
3000
,  // measure 58
1000
0100
0001
0010
0001
1000
0001
0100
,  // measure 59
0010
0001
0100
0001
0100
0010
0001
1000
,  // measure 60
0001
0100
0010
0001
1000
0001
0100
0010
,  // measure 61
0001
1000
0001
0100
0001
0100
0010
0001
,  // measure 62
0100
0001
0100
0010
0001
0100
0001
0100
,  // measure 63
1000
0100
0010
0001
0100
0001
0100
0001
,  // measure 64
0100
0001
0100
0001
0100
0010
0001
1000
,  // measure 65
0001
0100
0010
0001
1000
0001
0100
0010
,  // measure 66
0001
1000
0001
0100
0001
0010
0100
0001
,  // measure 67
1000
0001
0100
0010
0001
1000
0001
0100
,  // measure 68
0010
0001
1000
0001
0100
0010
0001
1000
,  // measure 69
0001
0100
0010
0001
0100
0001
0100
0010
,  // measure 70
0001
1000
0001
0100
0010
0001
0100
0001
,  // measure 71
0100
0010
0001
1000
0001
0100
0010
0001
,  // measure 72
0100
2000
0000
0000
,  // measure 73
3000
0200
0000
0000
,  // measure 74
0300
0002
0000
0000
,  // measure 75
0003
0020
0000
0000
,  // measure 76
0000
0030
0200
0000
,  // measure 77
0000
0000
0000
0000
,  // measure 78
0300
0002
0000
0000
,  // measure 79
0000
0000
0000
0003
,  // measure 80
0010
0010
0010
0100
,  // measure 81
0010
0010
0010
0010
,  // measure 82
0010
0010
0100
0010
,  // measure 83
0001
0100
0001
0100
,  // measure 84
0001
0100
0001
0100
,  // measure 85
0001
1000
0100
0100
,  // measure 86
0001
0100
0010
0001
,  // measure 87
1000
0001
0100
0010
,  // measure 88
0100
0001
1000
0000
;
